osu file format v14

[General]
AudioFilename: audio.mp3
AudioLeadIn: 0
PreviewTime: 32277
Countdown: 0
SampleSet: Normal
StackLeniency: 0.7
Mode: 1
LetterboxInBreaks: 0
WidescreenStoryboard: 0

[Editor]
DistanceSpacing: 0.8
BeatDivisor: 4
GridSize: 4
TimelineZoom: 2.7

[Metadata]
Title:166 - Suzuya Homerarete Nobiru Type Nandesu.
TitleUnicode:166 - 鈴谷褒められて伸びるタイプなんです。
Artist:saradisk
ArtistUnicode:皿
Creator:Eriha
Version:Inner Oni
Source:艦隊これくしょん -艦これ-
Tags:kancolle kankore kantai collection japanese electronic saradisc sara novelty video game kadokawa games love&joy love & joy yuki kimura sarah emi bridcutt ブリドカットセーラ恵美
BeatmapID:3519643
BeatmapSetID:1722078

[Difficulty]
HPDrainRate:6
CircleSize:5
OverallDifficulty:6
ApproachRate:5
SliderMultiplier:1.4
SliderTickRate:1

[Events]
//Background and Video events
0,0,"bg.jpg",0,70
//Break Periods
//Storyboard Layer 0 (Background)
//Storyboard Layer 1 (Fail)
//Storyboard Layer 2 (Pass)
//Storyboard Layer 3 (Foreground)
//Storyboard Layer 4 (Overlay)
//Storyboard Sound Samples

[TimingPoints]
3627,300,4,1,0,70,1,0
3627,-125,4,1,0,70,0,0
12008,-125,4,1,0,70,0,0
12158,-121.212121212121,4,1,0,73,0,0
12308,-117.647058823529,4,1,0,75,0,0
12608,-111.111111111111,4,1,0,80,0,0
12758,-108.108108108108,4,1,0,83,0,0
12833,-106.666666666667,4,1,0,84,0,0
12908,-105.263157894737,4,1,0,85,0,0
13058,-102.564102564103,4,1,0,88,0,0
13227,-100,4,1,0,90,0,1
22827,-100,4,1,0,90,0,0
32427,-100,4,1,0,90,0,1
41727,-100,4,1,0,90,0,0
42027,-100,4,1,0,90,0,1
51627,-100,4,1,0,90,0,0

[HitObjects]
256,192,3627,5,4,0:0:0:0:
256,192,3777,1,8,0:0:0:0:
256,192,3927,1,0,0:0:0:0:
256,192,4227,1,8,0:0:0:0:
256,192,4527,1,0,0:0:0:0:
256,192,4677,1,8,0:0:0:0:
256,192,4827,1,0,0:0:0:0:
256,192,4977,1,8,0:0:0:0:
256,192,5127,1,0,0:0:0:0:
256,192,5427,1,8,0:0:0:0:
256,192,5727,1,8,0:0:0:0:
256,192,6027,1,0,0:0:0:0:
256,192,6177,1,8,0:0:0:0:
256,192,6327,1,0,0:0:0:0:
256,192,6627,1,8,0:0:0:0:
256,192,6927,1,0,0:0:0:0:
256,192,7077,1,8,0:0:0:0:
256,192,7227,1,0,0:0:0:0:
256,192,7377,1,8,0:0:0:0:
256,192,7527,1,0,0:0:0:0:
256,192,7827,1,8,0:0:0:0:
256,192,8127,1,8,0:0:0:0:
256,192,8427,1,0,0:0:0:0:
256,192,8577,1,8,0:0:0:0:
256,192,8727,1,0,0:0:0:0:
256,192,9027,1,12,0:0:0:0:
256,192,9327,1,0,0:0:0:0:
256,192,9477,1,8,0:0:0:0:
256,192,9627,1,0,0:0:0:0:
256,192,9777,1,8,0:0:0:0:
256,192,9927,1,0,0:0:0:0:
256,192,10227,1,12,0:0:0:0:
256,192,10527,1,8,0:0:0:0:
256,192,10827,1,0,0:0:0:0:
256,192,10977,1,8,0:0:0:0:
256,192,11127,1,0,0:0:0:0:
256,192,11427,1,12,0:0:0:0:
256,192,11727,1,0,0:0:0:0:
256,192,11877,1,8,0:0:0:0:
256,192,12027,1,0,0:0:0:0:
256,192,12177,1,8,0:0:0:0:
256,192,12327,1,0,0:0:0:0:
256,192,12627,1,12,0:0:0:0:
256,192,12777,1,0,0:0:0:0:
256,192,12852,1,0,0:0:0:0:
256,192,12927,1,8,0:0:0:0:
256,192,13077,1,0,0:0:0:0:
256,192,13227,1,12,0:0:0:0:
256,192,13377,1,8,0:0:0:0:
256,192,13452,1,8,0:0:0:0:
256,192,13527,1,0,0:0:0:0:
256,192,13677,1,0,0:0:0:0:
256,192,13827,1,8,0:0:0:0:
256,192,13902,1,8,0:0:0:0:
256,192,13977,1,0,0:0:0:0:
256,192,14127,1,8,0:0:0:0:
256,192,14277,1,0,0:0:0:0:
256,192,14352,1,8,0:0:0:0:
256,192,14427,1,0,0:0:0:0:
256,192,14577,1,0,0:0:0:0:
256,192,14652,1,0,0:0:0:0:
256,192,14727,1,8,0:0:0:0:
256,192,14877,1,0,0:0:0:0:
256,192,15027,1,8,0:0:0:0:
256,192,15102,1,8,0:0:0:0:
256,192,15177,1,0,0:0:0:0:
256,192,15327,1,0,0:0:0:0:
256,192,15477,1,0,0:0:0:0:
256,192,15627,1,8,0:0:0:0:
256,192,15777,1,8,0:0:0:0:
256,192,15852,1,8,0:0:0:0:
256,192,15927,1,0,0:0:0:0:
256,192,16077,1,0,0:0:0:0:
256,192,16227,1,8,0:0:0:0:
256,192,16302,1,0,0:0:0:0:
256,192,16377,1,0,0:0:0:0:
256,192,16527,1,8,0:0:0:0:
256,192,16677,1,0,0:0:0:0:
256,192,16827,1,0,0:0:0:0:
256,192,16902,1,8,0:0:0:0:
256,192,16977,1,0,0:0:0:0:
256,192,17052,1,0,0:0:0:0:
256,192,17127,1,8,0:0:0:0:
256,192,17277,1,0,0:0:0:0:
256,192,17427,1,8,0:0:0:0:
256,192,17502,1,8,0:0:0:0:
256,192,17577,1,0,0:0:0:0:
284,200,17652,1,0,0:0:0:0:
256,192,17727,1,8,0:0:0:0:
256,192,17877,1,0,0:0:0:0:
256,192,18027,1,8,0:0:0:0:
256,192,18177,1,8,0:0:0:0:
256,192,18252,1,8,0:0:0:0:
256,192,18327,1,0,0:0:0:0:
256,192,18477,1,0,0:0:0:0:
256,192,18627,1,8,0:0:0:0:
256,192,18702,1,8,0:0:0:0:
256,192,18777,1,0,0:0:0:0:
256,192,18927,1,8,0:0:0:0:
256,192,19077,1,0,0:0:0:0:
256,192,19152,1,8,0:0:0:0:
256,192,19227,1,0,0:0:0:0:
256,192,19377,1,0,0:0:0:0:
256,192,19452,1,0,0:0:0:0:
256,192,19527,1,8,0:0:0:0:
256,192,19677,1,0,0:0:0:0:
256,192,19827,1,8,0:0:0:0:
256,192,19902,1,8,0:0:0:0:
256,192,19977,1,0,0:0:0:0:
256,192,20127,1,8,0:0:0:0:
256,192,20277,1,0,0:0:0:0:
256,192,20427,1,8,0:0:0:0:
256,192,20577,1,8,0:0:0:0:
256,192,20652,1,8,0:0:0:0:
256,192,20727,1,0,0:0:0:0:
256,192,20877,1,8,0:0:0:0:
256,192,21027,1,8,0:0:0:0:
256,192,21102,1,0,0:0:0:0:
256,192,21177,1,0,0:0:0:0:
256,192,21252,1,0,0:0:0:0:
256,192,21327,1,8,0:0:0:0:
256,192,21477,1,8,0:0:0:0:
256,192,21627,1,8,0:0:0:0:
256,192,21777,1,0,0:0:0:0:
256,192,21927,1,8,0:0:0:0:
256,192,22227,1,8,0:0:0:0:
256,192,22302,1,8,0:0:0:0:
256,192,22377,1,0,0:0:0:0:
256,192,22452,1,8,0:0:0:0:
256,192,22527,1,0,0:0:0:0:
256,192,22677,1,8,0:0:0:0:
256,192,22827,1,4,0:0:0:0:
256,192,22977,1,0,0:0:0:0:
256,192,23052,1,0,0:0:0:0:
256,192,23127,1,8,0:0:0:0:
256,192,23277,1,0,0:0:0:0:
256,192,23427,1,0,0:0:0:0:
256,192,23502,1,0,0:0:0:0:
256,192,23577,1,8,0:0:0:0:
256,192,23652,1,8,0:0:0:0:
256,192,23727,1,8,0:0:0:0:
256,192,23877,1,0,0:0:0:0:
256,192,24027,1,8,0:0:0:0:
256,192,24102,1,8,0:0:0:0:
256,192,24177,1,0,0:0:0:0:
256,192,24252,1,8,0:0:0:0:
256,192,24327,1,0,0:0:0:0:
256,192,24477,1,8,0:0:0:0:
256,192,24777,1,8,0:0:0:0:
256,192,24814,1,8,0:0:0:0:
256,192,24927,1,8,0:0:0:0:
256,192,24964,1,8,0:0:0:0:
256,192,25077,1,8,0:0:0:0:
256,192,25114,1,8,0:0:0:0:
256,192,25227,1,0,0:0:0:0:
256,192,25377,1,0,0:0:0:0:
256,192,25452,1,0,0:0:0:0:
256,192,25527,1,8,0:0:0:0:
256,192,25677,1,0,0:0:0:0:
256,192,25827,1,0,0:0:0:0:
256,192,25902,1,0,0:0:0:0:
256,192,25977,1,8,0:0:0:0:
256,192,26052,1,8,0:0:0:0:
256,192,26127,1,8,0:0:0:0:
256,192,26277,1,0,0:0:0:0:
256,192,26427,1,8,0:0:0:0:
256,192,26502,1,8,0:0:0:0:
256,192,26577,1,8,0:0:0:0:
256,192,26652,1,0,0:0:0:0:
256,192,26727,1,0,0:0:0:0:
256,192,26877,1,8,0:0:0:0:
256,192,27177,1,8,0:0:0:0:
256,192,27252,1,8,0:0:0:0:
256,192,27327,1,8,0:0:0:0:
256,192,27477,1,8,0:0:0:0:
256,192,27627,1,4,0:0:0:0:
256,192,27777,1,8,0:0:0:0:
256,192,27927,1,0,0:0:0:0:
256,192,28002,1,0,0:0:0:0:
256,192,28077,1,8,0:0:0:0:
256,192,28152,1,8,0:0:0:0:
256,192,28227,1,0,0:0:0:0:
256,192,28377,1,8,0:0:0:0:
256,192,28527,1,0,0:0:0:0:
256,192,28602,1,0,0:0:0:0:
256,192,28677,1,8,0:0:0:0:
256,192,28827,1,0,0:0:0:0:
256,192,28977,1,0,0:0:0:0:
256,192,29052,1,8,0:0:0:0:
256,192,29127,1,0,0:0:0:0:
256,192,29277,1,8,0:0:0:0:
256,192,29577,1,8,0:0:0:0:
256,192,29614,1,8,0:0:0:0:
256,192,29727,1,8,0:0:0:0:
256,192,29764,1,8,0:0:0:0:
256,192,29877,1,8,0:0:0:0:
256,192,29914,1,8,0:0:0:0:
256,192,30027,1,0,0:0:0:0:
256,192,30177,1,8,0:0:0:0:
256,192,30252,1,8,0:0:0:0:
256,192,30327,1,8,0:0:0:0:
256,192,30477,1,8,0:0:0:0:
256,192,30627,1,0,0:0:0:0:
256,192,30777,1,0,0:0:0:0:
256,192,30927,1,0,0:0:0:0:
256,192,31227,1,8,0:0:0:0:
256,192,31377,1,8,0:0:0:0:
256,192,31452,1,8,0:0:0:0:
256,192,31527,1,0,0:0:0:0:
256,192,31677,1,0,0:0:0:0:
256,192,31827,1,0,0:0:0:0:
256,192,31902,1,0,0:0:0:0:
256,192,31977,1,8,0:0:0:0:
256,192,32052,1,0,0:0:0:0:
256,192,32127,1,8,0:0:0:0:
256,192,32427,1,12,0:0:0:0:
256,192,32577,1,8,0:0:0:0:
256,192,32652,1,8,0:0:0:0:
256,192,32727,1,0,0:0:0:0:
256,192,32877,1,0,0:0:0:0:
256,192,33027,1,8,0:0:0:0:
256,192,33102,1,8,0:0:0:0:
256,192,33177,1,0,0:0:0:0:
256,192,33327,1,8,0:0:0:0:
256,192,33477,1,0,0:0:0:0:
256,192,33552,1,8,0:0:0:0:
256,192,33627,1,0,0:0:0:0:
256,192,33777,1,0,0:0:0:0:
256,192,33852,1,0,0:0:0:0:
256,192,33927,1,8,0:0:0:0:
256,192,34077,1,0,0:0:0:0:
256,192,34227,1,8,0:0:0:0:
256,192,34302,1,8,0:0:0:0:
256,192,34377,1,0,0:0:0:0:
256,192,34527,1,0,0:0:0:0:
256,192,34677,1,0,0:0:0:0:
256,192,34827,1,8,0:0:0:0:
256,192,34977,1,8,0:0:0:0:
256,192,35052,1,8,0:0:0:0:
256,192,35127,1,0,0:0:0:0:
256,192,35277,1,0,0:0:0:0:
256,192,35427,1,8,0:0:0:0:
256,192,35502,1,0,0:0:0:0:
256,192,35577,1,0,0:0:0:0:
256,192,35727,1,8,0:0:0:0:
256,192,35877,1,0,0:0:0:0:
256,192,36027,1,0,0:0:0:0:
256,192,36102,1,8,0:0:0:0:
256,192,36177,1,0,0:0:0:0:
256,192,36252,1,0,0:0:0:0:
256,192,36327,1,8,0:0:0:0:
256,192,36477,1,0,0:0:0:0:
256,192,36627,1,8,0:0:0:0:
256,192,36702,1,8,0:0:0:0:
256,192,36777,1,0,0:0:0:0:
256,192,36852,1,0,0:0:0:0:
256,192,36927,1,8,0:0:0:0:
256,192,37077,1,0,0:0:0:0:
256,192,37227,1,8,0:0:0:0:
256,192,37377,1,8,0:0:0:0:
256,192,37452,1,8,0:0:0:0:
256,192,37527,1,0,0:0:0:0:
256,192,37677,1,0,0:0:0:0:
256,192,37827,1,8,0:0:0:0:
256,192,37902,1,8,0:0:0:0:
256,192,37977,1,0,0:0:0:0:
256,192,38127,1,8,0:0:0:0:
256,192,38277,1,0,0:0:0:0:
256,192,38352,1,8,0:0:0:0:
256,192,38427,1,0,0:0:0:0:
256,192,38577,1,0,0:0:0:0:
256,192,38652,1,0,0:0:0:0:
256,192,38727,1,8,0:0:0:0:
256,192,38877,1,0,0:0:0:0:
256,192,39027,1,8,0:0:0:0:
256,192,39102,1,8,0:0:0:0:
256,192,39177,1,0,0:0:0:0:
256,192,39327,1,8,0:0:0:0:
256,192,39477,1,0,0:0:0:0:
256,192,39627,1,8,0:0:0:0:
256,192,39777,1,8,0:0:0:0:
256,192,39852,1,8,0:0:0:0:
256,192,39927,1,0,0:0:0:0:
256,192,40077,1,8,0:0:0:0:
256,192,40227,1,8,0:0:0:0:
256,192,40302,1,0,0:0:0:0:
256,192,40377,1,0,0:0:0:0:
256,192,40452,1,0,0:0:0:0:
256,192,40527,1,8,0:0:0:0:
256,192,40602,1,8,0:0:0:0:
256,192,40677,1,0,0:0:0:0:
256,192,40752,1,8,0:0:0:0:
256,192,40827,1,8,0:0:0:0:
256,192,40977,1,8,0:0:0:0:
256,192,41052,1,8,0:0:0:0:
256,192,41127,1,0,0:0:0:0:
256,192,41202,1,0,0:0:0:0:
256,192,41277,1,0,0:0:0:0:
256,192,41427,1,8,0:0:0:0:
256,192,41577,1,0,0:0:0:0:
256,192,41652,1,8,0:0:0:0:
256,192,41727,1,0,0:0:0:0:
256,192,42027,1,4,0:0:0:0:
256,192,42177,1,0,0:0:0:0:
256,192,42252,1,0,0:0:0:0:
256,192,42327,1,8,0:0:0:0:
256,192,42477,1,0,0:0:0:0:
256,192,42627,1,0,0:0:0:0:
256,192,42702,1,0,0:0:0:0:
256,192,42777,1,8,0:0:0:0:
256,192,42852,1,8,0:0:0:0:
256,192,42927,1,8,0:0:0:0:
256,192,43077,1,0,0:0:0:0:
256,192,43227,1,8,0:0:0:0:
256,192,43302,1,8,0:0:0:0:
256,192,43377,1,0,0:0:0:0:
256,192,43452,1,8,0:0:0:0:
256,192,43527,1,0,0:0:0:0:
256,192,43677,1,8,0:0:0:0:
256,192,43977,1,8,0:0:0:0:
256,192,44014,1,8,0:0:0:0:
256,192,44127,1,8,0:0:0:0:
256,192,44164,1,8,0:0:0:0:
256,192,44277,1,8,0:0:0:0:
256,192,44314,1,8,0:0:0:0:
256,192,44427,1,0,0:0:0:0:
256,192,44577,1,0,0:0:0:0:
256,192,44652,1,0,0:0:0:0:
256,192,44727,1,8,0:0:0:0:
256,192,44877,1,0,0:0:0:0:
256,192,45027,1,0,0:0:0:0:
256,192,45102,1,0,0:0:0:0:
256,192,45177,1,8,0:0:0:0:
256,192,45252,1,8,0:0:0:0:
256,192,45327,1,8,0:0:0:0:
256,192,45477,1,0,0:0:0:0:
256,192,45627,1,8,0:0:0:0:
256,192,45702,1,8,0:0:0:0:
256,192,45777,1,8,0:0:0:0:
256,192,45852,1,0,0:0:0:0:
256,192,45927,1,0,0:0:0:0:
256,192,46077,1,8,0:0:0:0:
256,192,46377,1,8,0:0:0:0:
256,192,46452,1,8,0:0:0:0:
256,192,46527,1,8,0:0:0:0:
256,192,46677,1,8,0:0:0:0:
256,192,46827,1,4,0:0:0:0:
256,192,46977,1,8,0:0:0:0:
256,192,47127,1,0,0:0:0:0:
256,192,47202,1,0,0:0:0:0:
256,192,47277,1,8,0:0:0:0:
256,192,47352,1,8,0:0:0:0:
256,192,47427,1,0,0:0:0:0:
256,192,47577,1,8,0:0:0:0:
256,192,47727,1,0,0:0:0:0:
256,192,47802,1,0,0:0:0:0:
256,192,47877,1,8,0:0:0:0:
256,192,48027,1,0,0:0:0:0:
256,192,48177,1,0,0:0:0:0:
256,192,48252,1,8,0:0:0:0:
256,192,48327,1,0,0:0:0:0:
256,192,48477,1,8,0:0:0:0:
256,192,48777,1,8,0:0:0:0:
256,192,48852,1,8,0:0:0:0:
256,192,48927,1,8,0:0:0:0:
256,192,49077,1,8,0:0:0:0:
256,192,49227,1,0,0:0:0:0:
256,192,49302,1,0,0:0:0:0:
256,192,49377,1,8,0:0:0:0:
256,192,49452,1,0,0:0:0:0:
256,192,49527,1,8,0:0:0:0:
256,192,49602,1,8,0:0:0:0:
256,192,49677,1,0,0:0:0:0:
256,192,49752,1,0,0:0:0:0:
256,192,49827,1,8,0:0:0:0:
256,192,49902,1,0,0:0:0:0:
256,192,49977,1,0,0:0:0:0:
256,192,50052,1,0,0:0:0:0:
256,192,50127,1,8,0:0:0:0:
256,192,50202,1,8,0:0:0:0:
256,192,50277,1,8,0:0:0:0:
256,192,50352,1,8,0:0:0:0:
256,192,50427,1,0,0:0:0:0:
256,192,50577,1,8,0:0:0:0:
256,192,50652,1,8,0:0:0:0:
256,192,50727,1,0,0:0:0:0:
256,192,50877,1,0,0:0:0:0:
256,192,51027,1,0,0:0:0:0:
256,192,51102,1,0,0:0:0:0:
256,192,51177,1,8,0:0:0:0:
256,192,51252,1,0,0:0:0:0:
256,192,51327,1,8,0:0:0:0:
256,192,51477,1,8,0:0:0:0:
256,192,51627,1,4,0:0:0:0:
