osu file format v14

[General]
AudioFilename: audio.mp3
AudioLeadIn: 0
PreviewTime: 20430
Countdown: 0
SampleSet: Soft
StackLeniency: 0.7
Mode: 3
LetterboxInBreaks: 0
SpecialStyle: 0
WidescreenStoryboard: 1

[Editor]
DistanceSpacing: 1
BeatDivisor: 4
GridSize: 4
TimelineZoom: 2.5

[Metadata]
Title:083 - nekomimi
TitleUnicode:083 - nekomimi
Artist:saradisk
ArtistUnicode:saradisk
Creator:Yukari_Sama
Version:Hard
Source:
Tags:atian540 catgirl pokemon MAD electronic japanese novelty route 1 one 2015 The Little Sprite square enix squaresoft hiroki kikuta
BeatmapID:2754911
BeatmapSetID:1329723

[Difficulty]
HPDrainRate:7.5
CircleSize:4
OverallDifficulty:7.5
ApproachRate:5
SliderMultiplier:1.4
SliderTickRate:1

[Events]
//Background and Video events
0,0,"kocheng.jpg",0,0
//Break Periods
//Storyboard Layer 0 (Background)
//Storyboard Layer 1 (Fail)
//Storyboard Layer 2 (Pass)
//Storyboard Layer 3 (Foreground)
//Storyboard Layer 4 (Overlay)
//Storyboard Sound Samples
Sample,30180,0,"ah.wav",70

[TimingPoints]
1230,300,4,2,1,70,1,0
39630,-100,4,2,1,70,0,1
49080,-100,4,2,1,70,0,0
49230,-100,4,2,1,70,0,1
58230,-100,4,2,1,70,0,0
60030,600,4,2,1,70,1,0
60030,-50,4,2,1,70,0,0
70830,-50,4,2,1,50,0,0
72030,-50,4,2,1,35,0,0

[HitObjects]
64,192,1230,1,2,0:0:0:0:
192,192,1230,1,4,0:0:0:0:
448,192,1230,1,0,0:0:0:0:
320,192,1380,1,0,0:0:0:0:
64,192,1530,1,8,0:0:0:0:
448,192,1530,1,2,0:0:0:0:
192,192,1680,1,0,0:0:0:0:
320,192,1830,128,2,2130:0:0:0:0:
64,192,2130,1,8,0:0:0:0:
192,192,2130,1,2,0:0:0:0:
448,192,2280,1,0,0:0:0:0:
320,192,2430,128,2,2730:0:0:0:0:
64,192,2730,1,8,0:0:0:0:
192,192,2730,1,2,0:0:0:0:
448,192,2880,1,0,0:0:0:0:
64,192,3030,128,2,3330:0:0:0:0:
320,192,3330,1,8,0:0:0:0:
448,192,3330,1,2,0:0:0:0:
64,192,3630,1,2,0:0:0:0:
192,192,3930,1,8,0:0:0:0:
448,192,3930,1,2,0:0:0:0:
320,192,4080,1,0,0:0:0:0:
192,192,4230,1,2,0:0:0:0:
64,192,4530,1,8,0:0:0:0:
320,192,4530,1,2,0:0:0:0:
192,192,4680,1,0,0:0:0:0:
448,192,4830,128,2,5130:0:0:0:0:
64,192,5130,1,8,0:0:0:0:
192,192,5130,1,2,0:0:0:0:
320,192,5430,1,2,0:0:0:0:
192,192,5730,128,8,6030:0:0:0:0:
448,192,5730,1,2,0:0:0:0:
320,192,6030,1,2,0:0:0:0:
192,192,6180,1,0,0:0:0:0:
64,192,6330,1,8,0:0:0:0:
448,192,6330,1,2,0:0:0:0:
320,192,6480,1,0,0:0:0:0:
64,192,6630,1,2,0:0:0:0:
192,192,6780,1,0,0:0:0:0:
320,192,6930,1,8,0:0:0:0:
448,192,6930,128,2,7230:0:0:0:0:
64,192,7230,1,2,0:0:0:0:
192,192,7380,1,0,0:0:0:0:
320,192,7530,1,8,0:0:0:0:
448,192,7530,128,2,7830:0:0:0:0:
192,192,7830,1,2,0:0:0:0:
320,192,7980,1,0,0:0:0:0:
64,192,8130,1,8,0:0:0:0:
192,192,8130,1,2,0:0:0:0:
448,192,8280,1,0,0:0:0:0:
320,192,8430,1,2,0:0:0:0:
192,192,8730,1,8,0:0:0:0:
448,192,8730,1,2,0:0:0:0:
320,192,8880,1,0,0:0:0:0:
64,192,9030,1,2,0:0:0:0:
192,192,9330,1,8,0:0:0:0:
320,192,9330,1,2,0:0:0:0:
448,192,9480,1,0,0:0:0:0:
192,192,9630,128,2,9930:0:0:0:0:
64,192,9930,1,8,0:0:0:0:
448,192,9930,1,2,0:0:0:0:
192,192,10080,1,0,0:0:0:0:
320,192,10230,1,2,0:0:0:0:
192,192,10530,1,8,0:0:0:0:
448,192,10530,128,2,10830:0:0:0:0:
64,192,10830,128,2,11130:0:0:0:0:
320,192,11130,1,2,0:0:0:0:
448,192,11130,1,8,0:0:0:0:
192,192,11280,1,0,0:0:0:0:
320,192,11430,1,2,0:0:0:0:
448,192,11580,1,0,0:0:0:0:
64,192,11730,128,2,12030:0:0:0:0:
192,192,11730,1,8,0:0:0:0:
320,192,12030,128,2,12330:0:0:0:0:
64,192,12330,1,2,0:0:0:0:
192,192,12330,1,8,0:0:0:0:
448,192,12480,1,0,0:0:0:0:
320,192,12630,1,2,0:0:0:0:
64,192,12780,1,0,0:0:0:0:
192,192,12930,1,2,0:0:0:0:
448,192,12930,128,8,13230:0:0:0:0:
320,192,13230,128,2,13530:0:0:0:0:
64,192,13530,1,8,0:0:0:0:
192,192,13530,1,2,0:0:0:0:
448,192,13680,1,0,0:0:0:0:
320,192,13830,1,2,0:0:0:0:
192,192,13980,1,0,0:0:0:0:
64,192,14130,1,8,0:0:0:0:
448,192,14130,128,2,14430:0:0:0:0:
64,192,14430,1,2,0:0:0:0:
192,192,14505,1,2,0:0:0:0:
320,192,14580,1,2,0:0:0:0:
448,192,14655,1,2,0:0:0:0:
64,192,14730,1,8,0:0:0:0:
192,192,14730,1,2,0:0:0:0:
320,192,14880,1,0,0:0:0:0:
192,192,15030,1,2,0:0:0:0:
448,192,15180,1,0,0:0:0:0:
64,192,15330,1,8,0:0:0:0:
192,192,15330,128,2,15630:0:0:0:0:
448,192,15630,128,2,15930:0:0:0:0:
64,192,15930,1,2,0:0:0:0:
320,192,15930,1,8,0:0:0:0:
192,192,16080,1,0,0:0:0:0:
320,192,16230,1,2,0:0:0:0:
448,192,16380,1,0,0:0:0:0:
64,192,16530,1,2,0:0:0:0:
192,192,16530,128,8,16830:0:0:0:0:
448,192,16830,1,2,0:0:0:0:
320,192,16905,1,2,0:0:0:0:
192,192,16980,1,2,0:0:0:0:
64,192,17055,1,2,0:0:0:0:
320,192,17130,1,2,0:0:0:0:
448,192,17130,1,8,0:0:0:0:
192,192,17280,1,0,0:0:0:0:
320,192,17430,1,2,0:0:0:0:
64,192,17580,1,0,0:0:0:0:
320,192,17730,1,2,0:0:0:0:
448,192,17730,128,8,18030:0:0:0:0:
64,192,18030,1,2,0:0:0:0:
192,192,18180,1,0,0:0:0:0:
320,192,18330,1,8,0:0:0:0:
448,192,18330,1,2,0:0:0:0:
64,192,18480,1,0,0:0:0:0:
192,192,18630,1,2,0:0:0:0:
448,192,18780,1,0,0:0:0:0:
320,192,18930,1,10,0:0:0:0:
192,192,19080,1,0,0:0:0:0:
320,192,19230,1,2,0:0:0:0:
448,192,19230,1,4,0:0:0:0:
64,192,19305,1,2,0:0:0:0:
192,192,19380,1,2,0:0:0:0:
320,192,19455,1,2,0:0:0:0:
448,192,19530,1,4,0:0:0:0:
64,192,19530,1,2,0:0:0:0:
192,192,19605,1,2,0:0:0:0:
320,192,19680,1,2,0:0:0:0:
64,192,19755,1,2,0:0:0:0:
448,192,19830,1,12,0:0:0:0:
192,192,19830,1,2,0:0:0:0:
320,192,19905,1,10,0:0:0:0:
192,192,19980,1,10,0:0:0:0:
448,192,20055,1,10,0:0:0:0:
320,192,20130,1,12,0:0:0:0:
64,192,20130,1,2,0:0:0:0:
192,192,20205,1,10,0:0:0:0:
448,192,20280,1,10,0:0:0:0:
320,192,20355,1,10,0:0:0:0:
192,192,20430,1,4,0:0:0:0:
64,192,20430,1,2,0:0:0:0:
320,192,20580,1,0,0:0:0:0:
64,192,20730,1,2,0:0:0:0:
448,192,20730,1,8,0:0:0:0:
192,192,20880,1,0,0:0:0:0:
320,192,21030,1,2,0:0:0:0:
448,192,21030,1,0,0:0:0:0:
64,192,21180,1,0,0:0:0:0:
192,192,21330,1,2,0:0:0:0:
320,192,21330,1,8,0:0:0:0:
448,192,21480,1,0,0:0:0:0:
64,192,21630,1,2,0:0:0:0:
192,192,21630,1,0,0:0:0:0:
448,192,21780,1,0,0:0:0:0:
64,192,21930,1,2,0:0:0:0:
320,192,21930,1,8,0:0:0:0:
192,192,22080,1,0,0:0:0:0:
320,192,22230,1,2,0:0:0:0:
448,192,22230,1,0,0:0:0:0:
64,192,22380,1,0,0:0:0:0:
192,192,22530,1,2,0:0:0:0:
448,192,22530,1,8,0:0:0:0:
320,192,22680,1,0,0:0:0:0:
64,192,22830,1,2,0:0:0:0:
192,192,22830,1,0,0:0:0:0:
448,192,22980,1,0,0:0:0:0:
64,192,23130,1,8,0:0:0:0:
320,192,23130,1,2,0:0:0:0:
192,192,23280,1,0,0:0:0:0:
320,192,23430,1,2,0:0:0:0:
448,192,23430,1,0,0:0:0:0:
192,192,23580,1,0,0:0:0:0:
64,192,23730,1,8,0:0:0:0:
448,192,23730,1,2,0:0:0:0:
320,192,23880,1,0,0:0:0:0:
64,192,24030,1,2,0:0:0:0:
192,192,24030,1,0,0:0:0:0:
448,192,24180,1,0,0:0:0:0:
192,192,24330,1,8,0:0:0:0:
320,192,24330,1,2,0:0:0:0:
64,192,24480,1,8,0:0:0:0:
448,192,24480,1,2,0:0:0:0:
192,192,24630,1,2,0:0:0:0:
320,192,24630,1,0,0:0:0:0:
64,192,24780,1,0,0:0:0:0:
320,192,24930,1,8,0:0:0:0:
448,192,24930,1,2,0:0:0:0:
192,192,25080,1,0,0:0:0:0:
64,192,25230,1,2,0:0:0:0:
448,192,25230,1,0,0:0:0:0:
320,192,25380,1,0,0:0:0:0:
64,192,25530,1,2,0:0:0:0:
192,192,25530,1,8,0:0:0:0:
448,192,25680,1,0,0:0:0:0:
192,192,25830,1,2,0:0:0:0:
320,192,25830,1,0,0:0:0:0:
64,192,25980,1,0,0:0:0:0:
320,192,26130,1,2,0:0:0:0:
448,192,26130,1,8,0:0:0:0:
192,192,26280,1,0,0:0:0:0:
64,192,26430,1,2,0:0:0:0:
320,192,26430,1,0,0:0:0:0:
448,192,26580,1,0,0:0:0:0:
64,192,26730,1,2,0:0:0:0:
192,192,26730,1,8,0:0:0:0:
320,192,26880,1,0,0:0:0:0:
192,192,27030,1,2,0:0:0:0:
448,192,27030,1,0,0:0:0:0:
64,192,27180,1,0,0:0:0:0:
320,192,27330,1,2,0:0:0:0:
448,192,27330,1,8,0:0:0:0:
192,192,27480,1,0,0:0:0:0:
64,192,27630,1,2,0:0:0:0:
320,192,27630,1,0,0:0:0:0:
448,192,27780,1,0,0:0:0:0:
64,192,27930,1,8,0:0:0:0:
192,192,27930,1,2,0:0:0:0:
320,192,28080,1,0,0:0:0:0:
64,192,28230,1,2,0:0:0:0:
448,192,28230,1,0,0:0:0:0:
192,192,28380,1,0,0:0:0:0:
320,192,28530,1,8,0:0:0:0:
448,192,28530,1,2,0:0:0:0:
192,192,28680,1,0,0:0:0:0:
64,192,28830,1,2,0:0:0:0:
448,192,28830,1,0,0:0:0:0:
320,192,28980,1,0,0:0:0:0:
64,192,29130,1,8,0:0:0:0:
192,192,29130,1,2,0:0:0:0:
320,192,29280,1,0,0:0:0:0:
64,192,29430,1,2,0:0:0:0:
320,192,29505,1,2,0:0:0:0:
192,192,29580,1,2,0:0:0:0:
448,192,29655,1,2,0:0:0:0:
64,192,29730,1,10,0:0:0:0:
320,192,29805,1,2,0:0:0:0:
192,192,29880,1,2,0:0:0:0:
448,192,29955,1,2,0:0:0:0:
64,192,30030,1,2,0:0:0:0:
192,192,30030,1,4,0:0:0:0:
448,192,30180,1,8,0:0:0:0:
320,192,30255,1,2,0:0:0:0:
192,192,30330,1,2,0:0:0:0:
64,192,30480,1,8,0:0:0:0:
320,192,30480,1,0,0:0:0:0:
448,192,30630,1,2,0:0:0:0:
64,192,30780,1,8,0:0:0:0:
192,192,30780,1,0,0:0:0:0:
320,192,30930,1,2,0:0:0:0:
64,192,31080,1,2,0:0:0:0:
192,192,31155,1,2,0:0:0:0:
320,192,31230,1,2,0:0:0:0:
448,192,31380,1,8,0:0:0:0:
320,192,31455,1,2,0:0:0:0:
192,192,31530,1,2,0:0:0:0:
320,192,31680,1,8,0:0:0:0:
448,192,31680,1,0,0:0:0:0:
64,192,31830,1,2,0:0:0:0:
192,192,31980,1,8,0:0:0:0:
448,192,31980,1,0,0:0:0:0:
320,192,32130,1,2,0:0:0:0:
64,192,32280,1,2,0:0:0:0:
192,192,32355,1,2,0:0:0:0:
320,192,32430,1,2,0:0:0:0:
64,192,32580,1,8,0:0:0:0:
448,192,32580,1,0,0:0:0:0:
192,192,32730,1,2,0:0:0:0:
320,192,32880,1,8,0:0:0:0:
448,192,32880,1,0,0:0:0:0:
192,192,33030,1,2,0:0:0:0:
64,192,33180,1,8,0:0:0:0:
448,192,33180,1,0,0:0:0:0:
320,192,33330,1,2,0:0:0:0:
64,192,33480,1,8,0:0:0:0:
192,192,33480,1,0,0:0:0:0:
320,192,33630,1,2,0:0:0:0:
192,192,33780,1,8,0:0:0:0:
448,192,33780,1,0,0:0:0:0:
64,192,33930,1,2,0:0:0:0:
320,192,34080,1,8,0:0:0:0:
448,192,34080,1,0,0:0:0:0:
64,192,34230,1,2,0:0:0:0:
192,192,34305,1,2,0:0:0:0:
320,192,34380,1,10,0:0:0:0:
448,192,34455,1,2,0:0:0:0:
64,192,34530,1,2,0:0:0:0:
448,192,34680,1,10,0:0:0:0:
320,192,34755,1,2,0:0:0:0:
192,192,34830,1,2,0:0:0:0:
64,192,34980,1,8,0:0:0:0:
192,192,35055,1,2,0:0:0:0:
320,192,35130,1,2,0:0:0:0:
64,192,35280,1,8,0:0:0:0:
192,192,35280,1,0,0:0:0:0:
320,192,35430,1,2,0:0:0:0:
192,192,35580,1,8,0:0:0:0:
448,192,35580,1,0,0:0:0:0:
64,192,35730,1,2,0:0:0:0:
448,192,35880,1,2,0:0:0:0:
320,192,35955,1,2,0:0:0:0:
192,192,36030,1,2,0:0:0:0:
64,192,36180,1,8,0:0:0:0:
192,192,36255,1,2,0:0:0:0:
320,192,36330,1,2,0:0:0:0:
64,192,36480,1,8,0:0:0:0:
192,192,36480,1,0,0:0:0:0:
448,192,36630,1,2,0:0:0:0:
64,192,36780,1,8,0:0:0:0:
320,192,36780,1,0,0:0:0:0:
192,192,36930,1,2,0:0:0:0:
448,192,37080,1,2,0:0:0:0:
320,192,37155,1,2,0:0:0:0:
192,192,37230,1,2,0:0:0:0:
64,192,37380,1,8,0:0:0:0:
192,192,37455,1,2,0:0:0:0:
320,192,37530,1,2,0:0:0:0:
192,192,37680,1,8,0:0:0:0:
448,192,37680,1,0,0:0:0:0:
64,192,37830,1,2,0:0:0:0:
320,192,37980,1,8,0:0:0:0:
448,192,37980,1,0,0:0:0:0:
192,192,38130,1,2,0:0:0:0:
64,192,38280,1,2,0:0:0:0:
192,192,38355,1,2,0:0:0:0:
320,192,38430,1,2,0:0:0:0:
192,192,38580,1,8,0:0:0:0:
448,192,38580,1,0,0:0:0:0:
64,192,38730,1,2,0:0:0:0:
320,192,38880,1,8,0:0:0:0:
448,192,38880,1,0,0:0:0:0:
64,192,39030,1,2,0:0:0:0:
192,192,39105,1,2,0:0:0:0:
448,192,39180,1,10,0:0:0:0:
320,192,39255,1,2,0:0:0:0:
64,192,39330,1,10,0:0:0:0:
192,192,39405,1,10,0:0:0:0:
448,192,39480,1,10,0:0:0:0:
320,192,39555,1,10,0:0:0:0:
64,192,39630,128,2,39780:0:0:0:0:
192,192,39630,1,4,0:0:0:0:
320,192,39780,1,0,0:0:0:0:
64,192,39930,1,2,0:0:0:0:
448,192,39930,128,8,40080:0:0:0:0:
192,192,40080,128,0,40230:0:0:0:0:
320,192,40230,128,2,40380:0:0:0:0:
448,192,40230,1,0,0:0:0:0:
64,192,40380,1,0,0:0:0:0:
192,192,40530,128,2,40680:0:0:0:0:
320,192,40530,1,8,0:0:0:0:
448,192,40680,1,0,0:0:0:0:
64,192,40830,128,2,40980:0:0:0:0:
192,192,40830,1,0,0:0:0:0:
320,192,40980,1,0,0:0:0:0:
192,192,41130,1,2,0:0:0:0:
448,192,41130,128,8,41280:0:0:0:0:
64,192,41280,1,0,0:0:0:0:
320,192,41430,128,2,41580:0:0:0:0:
448,192,41430,1,0,0:0:0:0:
192,192,41580,1,0,0:0:0:0:
64,192,41730,1,2,0:0:0:0:
320,192,41730,1,8,0:0:0:0:
448,192,41880,1,0,0:0:0:0:
64,192,42030,1,2,0:0:0:0:
192,192,42030,128,0,42180:0:0:0:0:
320,192,42180,1,0,0:0:0:0:
64,192,42330,128,2,42480:0:0:0:0:
448,192,42330,1,8,0:0:0:0:
192,192,42480,128,0,42630:0:0:0:0:
320,192,42630,1,2,0:0:0:0:
448,192,42630,128,0,42780:0:0:0:0:
192,192,42780,1,0,0:0:0:0:
64,192,42930,1,2,0:0:0:0:
320,192,42930,128,8,43080:0:0:0:0:
448,192,43080,1,0,0:0:0:0:
64,192,43230,1,2,0:0:0:0:
192,192,43230,128,0,43380:0:0:0:0:
320,192,43380,1,0,0:0:0:0:
192,192,43530,1,2,0:0:0:0:
448,192,43530,128,8,43680:0:0:0:0:
64,192,43680,1,0,0:0:0:0:
320,192,43830,128,2,43980:0:0:0:0:
448,192,43830,1,0,0:0:0:0:
192,192,43980,1,0,0:0:0:0:
64,192,44130,1,2,0:0:0:0:
320,192,44130,1,8,0:0:0:0:
192,192,44280,1,0,0:0:0:0:
64,192,44430,128,2,44580:0:0:0:0:
448,192,44430,1,0,0:0:0:0:
320,192,44580,1,0,0:0:0:0:
192,192,44730,1,8,0:0:0:0:
448,192,44730,128,2,44880:0:0:0:0:
64,192,44880,128,0,45030:0:0:0:0:
320,192,45030,128,2,45180:0:0:0:0:
448,192,45030,1,0,0:0:0:0:
192,192,45180,1,0,0:0:0:0:
64,192,45330,128,8,45480:0:0:0:0:
320,192,45330,1,2,0:0:0:0:
448,192,45480,1,0,0:0:0:0:
64,192,45630,1,2,0:0:0:0:
192,192,45630,128,0,45780:0:0:0:0:
448,192,45780,1,0,0:0:0:0:
192,192,45930,1,8,0:0:0:0:
320,192,45930,128,2,46080:0:0:0:0:
64,192,46080,1,0,0:0:0:0:
320,192,46230,1,2,0:0:0:0:
448,192,46230,128,0,46380:0:0:0:0:
192,192,46380,1,0,0:0:0:0:
64,192,46530,128,8,46680:0:0:0:0:
448,192,46530,1,2,0:0:0:0:
320,192,46680,1,0,0:0:0:0:
64,192,46830,1,2,0:0:0:0:
192,192,46830,1,0,0:0:0:0:
448,192,46980,128,0,47130:0:0:0:0:
64,192,47130,1,2,0:0:0:0:
320,192,47130,128,8,47280:0:0:0:0:
192,192,47280,128,0,47430:0:0:0:0:
320,192,47430,1,2,0:0:0:0:
448,192,47430,128,0,47580:0:0:0:0:
64,192,47580,128,0,47730:0:0:0:0:
192,192,47730,128,2,47880:0:0:0:0:
448,192,47730,1,8,0:0:0:0:
320,192,47880,128,0,48030:0:0:0:0:
64,192,48030,128,2,48180:0:0:0:0:
192,192,48030,1,0,0:0:0:0:
448,192,48180,1,0,0:0:0:0:
192,192,48330,1,2,0:0:0:0:
320,192,48330,128,8,48480:0:0:0:0:
64,192,48480,1,0,0:0:0:0:
320,192,48630,1,2,0:0:0:0:
448,192,48630,128,0,48780:0:0:0:0:
192,192,48780,1,0,0:0:0:0:
64,192,48930,128,2,49080:0:0:0:0:
448,192,48930,1,8,0:0:0:0:
320,192,49080,1,0,0:0:0:0:
64,192,49230,1,2,0:0:0:0:
192,192,49230,1,4,0:0:0:0:
448,192,49230,128,0,49380:0:0:0:0:
320,192,49380,1,0,0:0:0:0:
64,192,49530,128,8,49680:0:0:0:0:
448,192,49530,1,2,0:0:0:0:
320,192,49680,128,0,49830:0:0:0:0:
64,192,49830,1,2,0:0:0:0:
192,192,49830,128,0,49980:0:0:0:0:
448,192,49980,1,0,0:0:0:0:
192,192,50130,1,8,0:0:0:0:
320,192,50130,128,2,50280:0:0:0:0:
64,192,50280,1,0,0:0:0:0:
320,192,50430,1,2,0:0:0:0:
448,192,50430,128,0,50580:0:0:0:0:
192,192,50580,1,0,0:0:0:0:
64,192,50730,128,8,50880:0:0:0:0:
320,192,50730,1,2,0:0:0:0:
448,192,50880,1,0,0:0:0:0:
64,192,51030,1,2,0:0:0:0:
192,192,51030,128,0,51180:0:0:0:0:
320,192,51180,1,0,0:0:0:0:
192,192,51330,1,8,0:0:0:0:
448,192,51330,1,2,0:0:0:0:
64,192,51480,1,0,0:0:0:0:
320,192,51630,128,2,51780:0:0:0:0:
448,192,51630,1,0,0:0:0:0:
192,192,51780,1,0,0:0:0:0:
64,192,51930,1,2,0:0:0:0:
448,192,51930,128,8,52080:0:0:0:0:
320,192,52080,128,0,52230:0:0:0:0:
64,192,52230,128,2,52380:0:0:0:0:
192,192,52230,1,0,0:0:0:0:
320,192,52380,1,0,0:0:0:0:
192,192,52530,128,2,52680:0:0:0:0:
448,192,52530,1,8,0:0:0:0:
64,192,52680,1,0,0:0:0:0:
320,192,52830,128,2,52980:0:0:0:0:
448,192,52830,1,0,0:0:0:0:
192,192,52980,1,0,0:0:0:0:
64,192,53130,128,2,53280:0:0:0:0:
320,192,53130,1,8,0:0:0:0:
448,192,53280,1,0,0:0:0:0:
64,192,53430,1,2,0:0:0:0:
192,192,53430,128,0,53580:0:0:0:0:
320,192,53580,1,0,0:0:0:0:
192,192,53730,1,2,0:0:0:0:
448,192,53730,1,8,0:0:0:0:
320,192,53880,1,0,0:0:0:0:
64,192,54030,1,2,0:0:0:0:
448,192,54030,128,0,54180:0:0:0:0:
192,192,54180,1,0,0:0:0:0:
64,192,54330,128,8,54480:0:0:0:0:
320,192,54330,1,2,0:0:0:0:
448,192,54480,128,0,54630:0:0:0:0:
64,192,54630,1,2,0:0:0:0:
192,192,54630,128,0,54780:0:0:0:0:
320,192,54780,1,0,0:0:0:0:
192,192,54930,1,8,0:0:0:0:
448,192,54930,128,2,55080:0:0:0:0:
64,192,55080,1,0,0:0:0:0:
320,192,55230,128,2,55380:0:0:0:0:
448,192,55230,1,0,0:0:0:0:
64,192,55380,1,0,0:0:0:0:
192,192,55530,128,8,55680:0:0:0:0:
320,192,55530,1,2,0:0:0:0:
448,192,55680,1,0,0:0:0:0:
64,192,55830,128,2,55980:0:0:0:0:
192,192,55830,1,0,0:0:0:0:
320,192,55980,1,0,0:0:0:0:
64,192,56130,1,8,0:0:0:0:
448,192,56130,128,2,56280:0:0:0:0:
192,192,56280,1,0,0:0:0:0:
320,192,56430,1,2,0:0:0:0:
448,192,56430,1,0,0:0:0:0:
64,192,56580,128,0,56730:0:0:0:0:
192,192,56730,128,2,56880:0:0:0:0:
448,192,56730,1,8,0:0:0:0:
320,192,56880,128,0,57030:0:0:0:0:
64,192,57030,128,2,57180:0:0:0:0:
192,192,57030,1,0,0:0:0:0:
448,192,57180,128,0,57330:0:0:0:0:
64,192,57330,1,2,0:0:0:0:
320,192,57330,128,8,57480:0:0:0:0:
192,192,57480,128,0,57630:0:0:0:0:
320,192,57630,1,2,0:0:0:0:
448,192,57630,128,0,57780:0:0:0:0:
64,192,57780,1,0,0:0:0:0:
192,192,57930,128,2,58080:0:0:0:0:
320,192,57930,1,8,0:0:0:0:
448,192,58080,1,0,0:0:0:0:
64,192,58230,128,2,59730:0:0:0:0:
192,192,59730,128,0,60030:0:0:0:0:
64,192,60030,1,2,0:0:0:0:
320,192,60030,1,4,0:0:0:0:
448,192,60030,1,0,0:0:0:0:
192,192,60330,1,0,0:0:0:0:
64,192,60630,1,8,0:0:0:0:
448,192,60630,1,0,0:0:0:0:
320,192,60930,1,0,0:0:0:0:
192,192,61230,1,0,0:0:0:0:
320,192,61380,1,8,0:0:0:0:
64,192,61530,1,2,0:0:0:0:
192,192,61530,1,0,0:0:0:0:
320,192,61830,1,8,0:0:0:0:
448,192,61830,1,0,0:0:0:0:
64,192,62130,1,0,0:0:0:0:
320,192,62280,1,8,0:0:0:0:
192,192,62430,1,2,0:0:0:0:
448,192,62430,1,0,0:0:0:0:
64,192,62730,1,2,0:0:0:0:
320,192,62730,1,0,0:0:0:0:
192,192,63030,1,8,0:0:0:0:
448,192,63030,1,0,0:0:0:0:
320,192,63330,1,0,0:0:0:0:
192,192,63630,1,0,0:0:0:0:
64,192,63780,1,8,0:0:0:0:
320,192,63930,1,2,0:0:0:0:
448,192,63930,1,0,0:0:0:0:
64,192,64230,1,8,0:0:0:0:
320,192,64230,1,0,0:0:0:0:
448,192,64530,1,0,0:0:0:0:
320,192,64680,1,8,0:0:0:0:
64,192,64830,1,2,0:0:0:0:
192,192,64830,1,0,0:0:0:0:
320,192,65130,1,2,0:0:0:0:
448,192,65130,1,0,0:0:0:0:
64,192,65430,1,8,0:0:0:0:
192,192,65430,1,0,0:0:0:0:
448,192,65730,1,0,0:0:0:0:
320,192,66030,1,0,0:0:0:0:
192,192,66180,1,8,0:0:0:0:
64,192,66330,1,2,0:0:0:0:
448,192,66330,1,0,0:0:0:0:
192,192,66630,1,8,0:0:0:0:
320,192,66630,1,0,0:0:0:0:
448,192,66930,1,0,0:0:0:0:
64,192,67080,1,8,0:0:0:0:
192,192,67230,1,2,0:0:0:0:
448,192,67230,1,0,0:0:0:0:
64,192,67530,1,2,0:0:0:0:
320,192,67530,1,0,0:0:0:0:
192,192,67830,1,8,0:0:0:0:
448,192,67830,1,0,0:0:0:0:
64,192,68130,1,0,0:0:0:0:
320,192,68430,1,0,0:0:0:0:
192,192,68580,1,8,0:0:0:0:
64,192,68730,1,2,0:0:0:0:
448,192,68730,1,0,0:0:0:0:
192,192,69030,1,8,0:0:0:0:
320,192,69030,1,0,0:0:0:0:
448,192,69330,1,0,0:0:0:0:
320,192,69480,1,8,0:0:0:0:
64,192,69630,1,2,0:0:0:0:
192,192,69630,1,0,0:0:0:0:
320,192,69930,1,0,0:0:0:0:
64,192,70230,1,8,0:0:0:0:
448,192,70230,1,0,0:0:0:0:
192,192,70530,1,0,0:0:0:0:
320,192,70830,1,0,0:0:0:0:
64,192,70980,1,8,0:0:0:0:
320,192,71130,1,2,0:0:0:0:
448,192,71130,1,0,0:0:0:0:
64,192,71430,1,8,0:0:0:0:
192,192,71430,1,0,0:0:0:0:
320,192,71730,1,0,0:0:0:0:
64,192,71880,1,8,0:0:0:0:
192,192,72030,1,2,0:0:0:0:
448,192,72030,1,0,0:0:0:0:
64,192,72330,1,2,0:0:0:0:
320,192,72330,1,0,0:0:0:0:
192,192,72630,1,8,0:0:0:0:
448,192,72630,1,0,0:0:0:0:
64,192,72930,1,0,0:0:0:0:
320,192,73230,1,0,0:0:0:0:
192,192,73380,1,8,0:0:0:0:
64,192,73530,1,2,0:0:0:0:
448,192,73530,1,0,0:0:0:0:
192,192,73830,1,8,0:0:0:0:
320,192,73830,1,0,0:0:0:0:
