osu file format v14

[General]
AudioFilename: audio.mp3
AudioLeadIn: 0
PreviewTime: 20430
Countdown: 0
SampleSet: Soft
StackLeniency: 0.7
Mode: 0
LetterboxInBreaks: 0
WidescreenStoryboard: 0

[Editor]
Bookmarks: 54030
DistanceSpacing: 1
BeatDivisor: 4
GridSize: 4
TimelineZoom: 1.9

[Metadata]
Title:083 - nekomimi
TitleUnicode:083 - nekomimi
Artist:saradisk
ArtistUnicode:saradisk
Creator:Nozhomi
Version:Normal
Source:
Tags:catgirl pokemon MAD electronic japanese spork lover zer0- xTheZer0x zero route 1 one 2015 The Little Sprite square enix squaresoft hiroki kikuta
BeatmapID:2449699
BeatmapSetID:1173332

[Difficulty]
HPDrainRate:3.4
CircleSize:3
OverallDifficulty:4.1
ApproachRate:5
SliderMultiplier:0.999999999999999
SliderTickRate:1

[Events]
//Background and Video events
0,0,"nyanya.jpg",0,0
//Break Periods
//Storyboard Layer 0 (Background)
//Storyboard Layer 1 (Fail)
//Storyboard Layer 2 (Pass)
//Storyboard Layer 3 (Foreground)
//Storyboard Layer 4 (Overlay)
//Storyboard Sound Samples

[TimingPoints]
1230,300,4,2,1,70,1,0
19230,-100,4,2,1,60,0,0
19830,-100,4,2,1,70,0,0
20430,-100,4,2,1,80,0,0
39630,-100,4,2,1,80,0,1
49080,-100,4,2,1,80,0,0
49230,-100,4,2,1,80,0,1
58230,-100,4,2,1,70,0,0
58380,-100,4,2,1,5,0,0
58417,-100,4,2,1,60,0,0
58605,-100,4,2,1,5,0,0
58642,-100,4,2,1,60,0,0
58905,-100,4,2,1,5,0,0
58942,-100,4,2,1,50,0,0
59655,-100,4,2,1,5,0,0
59692,-100,4,2,1,40,0,0
59992,-100,4,2,1,5,0,0
60030,600,4,2,1,50,1,0
60030,-76.9230769230769,4,2,1,50,0,0
71430,-100,4,2,1,45,0,0
72030,-100,4,2,1,40,0,0
72630,-100,4,2,1,35,0,0
73230,-100,4,2,1,30,0,0
73830,-100,4,2,1,25,0,0
74430,-100,4,2,1,15,0,0
75030,-100,4,2,1,5,0,0

[Colours]
Combo1 : 202,95,224
Combo2 : 20,49,182
Combo3 : 170,24,201
Combo4 : 45,182,221

[HitObjects]
430,43,1230,6,0,P|411:105|417:143,1,99.9999999999999,14|0,0:0|1:0,0:0:0:0:
451,232,1830,2,0,P|454:281|436:327,1,99.9999999999999,0|0,0:0|1:0,0:0:0:0:
340,355,2430,2,0,L|212:353,1,99.9999999999999,8|0,0:0|1:0,0:0:0:0:
150,308,3030,1,8,0:0:0:0:
121,212,3330,1,0,1:0:0:0:
160,119,3630,6,0,P|86:106|27:61,2,150,8|2|0,0:0|0:0|1:0,0:0:0:0:
255,88,4830,2,0,L|383:80,1,99.9999999999999,8|0,0:0|1:0,0:0:0:0:
390,175,5430,2,0,L|290:181,1,99.9999999999999,8|0,0:0|1:0,0:0:0:0:
235,264,6030,5,8,0:0:0:0:
286,349,6330,1,0,1:0:0:0:
385,347,6630,2,0,P|441:307|454:240,1,99.9999999999999,8|0,0:0|1:0,0:0:0:0:
446,180,7230,2,0,P|406:124|339:111,1,99.9999999999999,8|0,0:0|1:0,0:0:0:0:
281,88,7830,1,8,0:0:0:0:
212,160,8130,1,0,1:0:0:0:
139,90,8430,6,0,P|70:118|-1:100,2,150,8|2|0,0:0|0:0|1:0,0:0:0:0:
229,47,9630,2,0,P|278:48|321:73,1,99.9999999999999,8|0,0:0|1:0,0:0:0:0:
366,162,10230,1,8,0:0:0:0:
336,256,10530,1,0,1:0:0:0:
238,272,10830,6,0,P|194:237|88:232,2,150,8|2|0,0:0|0:0|1:0,0:0:0:0:
336,256,12030,2,0,P|329:200|258:121,2,150,8|2|0,0:0|0:0|1:0,0:0:0:0:
430,289,13230,2,0,P|465:245|470:139,2,150,8|0|0,0:0|0:0|1:0,0:0:0:0:
336,256,14430,1,10,0:0:0:0:
241,288,14730,2,0,B|191:300|191:300|143:289,1,99.9999999999999,0|8,1:0|0:0,0:0:0:0:
69,221,15330,1,0,1:0:0:0:
139,150,15630,6,0,P|157:78|112:9,2,150,8|0|0,0:0|0:0|1:0,0:0:0:0:
69,221,16830,1,10,0:0:0:0:
142,288,17130,2,0,L|241:283,1,99.9999999999999,0|8,1:0|0:0,0:0:0:0:
316,350,17730,1,0,1:0:0:0:
398,293,18030,6,0,P|439:232|442:158,2,150,8|2|0,0:0|0:0|1:0,0:0:0:0:
316,350,19230,1,8,0:0:0:0:
242,284,19530,1,0,1:0:0:0:
238,184,19830,1,0,1:0:0:0:
278,92,20130,1,8,1:2:0:0:
375,64,20430,6,0,L|489:68,1,99.9999999999999,12|0,0:0|1:0,0:0:0:0:
494,165,21030,2,0,L|394:161,1,99.9999999999999,8|0,0:0|1:0,0:0:0:0:
294,158,21630,1,8,0:0:0:0:
240,242,21930,1,0,1:0:0:0:
182,160,22230,1,8,0:0:0:0:
100,218,22530,2,0,L|39:217,1,50,0|2,1:0|0:0,0:0:0:0:
21,176,22830,6,0,P|20:126|45:84,1,99.9999999999999,8|0,0:0|1:0,0:0:0:0:
133,36,23430,2,0,P|182:35|224:60,1,99.9999999999999,8|0,0:0|1:0,0:0:0:0:
256,106,23880,1,2,0:0:0:0:
256,106,24030,5,8,0:0:0:0:
240,204,24330,1,0,1:0:0:0:
310,275,24630,2,0,L|380:266,1,50,8|2,0:0|0:0,0:0:0:0:
393,305,24930,2,0,L|442:311,1,50,0|2,1:0|0:0,0:0:0:0:
480,279,25230,6,0,P|490:230|475:183,1,99.9999999999999,8|0,0:0|1:0,0:0:0:0:
399,118,25830,2,0,P|350:108|303:123,1,99.9999999999999,8|0,0:0|1:0,0:0:0:0:
240,201,26430,5,8,0:0:0:0:
187,285,26730,1,0,1:0:0:0:
87,289,27030,1,8,0:0:0:0:
18,216,27330,2,0,L|20:167,1,50,0|2,1:0|0:0,0:0:0:0:
60,136,27630,6,0,L|56:35,1,99.9999999999999,8|0,0:0|1:0,0:0:0:0:
154,51,28230,2,0,L|157:150,1,99.9999999999999,8|0,0:0|1:0,0:0:0:0:
164,250,28830,5,8,0:0:0:0:
241,313,29130,1,0,1:0:0:0:
322,371,29430,2,0,L|378:364,1,50,8|10,0:0|0:0,0:0:0:0:
421,367,29730,2,0,L|455:322,1,50,0|10,1:0|0:0,0:0:0:0:
450,277,30030,5,14,0:0:0:0:
495,187,30330,1,8,0:0:0:0:
457,94,30630,2,0,P|415:74|352:80,1,99.9999999999999,10|8,0:0|0:0,0:0:0:0:
296,152,31230,2,0,B|256:182|256:182|216:152,1,99.9999999999999,10|8,0:0|0:0,0:0:0:0:
149,75,31830,2,0,P|99:72|55:94,1,99.9999999999999,8|8,0:0|0:0,0:0:0:0:
17,186,32430,5,10,0:0:0:0:
33,284,32730,1,8,0:0:0:0:
122,328,33030,1,10,0:0:0:0:
220,311,33330,1,8,0:0:0:0:
280,231,33630,6,0,L|274:131,1,99.9999999999999,10|8,0:0|0:0,0:0:0:0:
367,94,34230,2,0,L|372:193,1,99.9999999999999,10|8,0:0|0:0,0:0:0:0:
404,239,34680,1,8,0:0:0:0:
404,239,34830,5,10,0:0:0:0:
363,329,35130,1,8,0:0:0:0:
267,300,35430,2,0,L|140:304,1,99.9999999999999,10|8,0:0|0:0,0:0:0:0:
83,248,36030,2,0,P|92:193|137:150,1,99.9999999999999,10|8,0:0|0:0,0:0:0:0:
211,121,36630,2,0,P|266:130|309:175,1,99.9999999999999,10|8,0:0|0:0,0:0:0:0:
318,209,37080,1,8,0:0:0:0:
318,209,37230,5,10,0:0:0:0:
388,279,37530,1,8,0:0:0:0:
482,245,37830,1,10,0:0:0:0:
498,146,38130,1,8,0:0:0:0:
429,73,38430,2,0,L|371:59,2,50,10|0|8,0:0|1:0|0:0,0:0:0:0:
373,156,39030,2,0,L|315:142,2,50,2|2|0,0:0|0:0|1:0,0:0:0:0:
318,239,39630,6,0,L|193:210,1,99.9999999999999,12|0,0:0|1:0,0:0:0:0:
142,153,40230,2,0,L|17:182,1,99.9999999999999,8|0,0:0|1:0,0:0:0:0:
19,272,40830,2,0,P|39:319|109:339,1,99.9999999999999,8|0,0:0|1:0,0:0:0:0:
130,343,41280,2,0,P|173:319|191:274,1,99.9999999999999,2|2,0:0|0:0,0:0:0:0:
191,223,41730,1,0,1:0:0:0:
145,134,42030,6,0,P|154:71|218:45,1,99.9999999999999,8|0,0:0|1:0,0:0:0:0:
271,9,42630,2,0,P|318:22|343:64,1,99.9999999999999,8|0,0:0|1:0,0:0:0:0:
381,162,43230,1,8,0:0:0:0:
381,162,43380,2,0,B|366:212|366:212|382:256,1,99.9999999999999,2|2,0:0|0:0,0:0:0:0:
412,296,43830,2,0,L|511:291,1,99.9999999999999,8|0,0:0|1:0,0:0:0:0:
458,375,44430,6,0,L|358:379,1,99.9999999999999,8|0,0:0|1:0,0:0:0:0:
281,314,45030,2,0,P|261:272|204:257,1,99.9999999999999,8|0,0:0|1:0,0:0:0:0:
124,303,45630,2,0,L|24:299,1,99.9999999999999,8|0,0:0|1:0,0:0:0:0:
26,249,46080,2,0,L|30:149,1,99.9999999999999,2|2,0:0|0:0,0:0:0:0:
33,99,46530,1,0,1:0:0:0:
115,42,46830,6,0,P|161:65|205:136,1,99.9999999999999,8|0,0:0|1:0,0:0:0:0:
255,178,47430,2,0,P|271:221|266:278,1,99.9999999999999,8|0,0:0|1:0,0:0:0:0:
252,372,48030,2,0,L|202:378,2,50,8|2|0,0:0|0:0|1:0,0:0:0:0:
358,363,48630,1,8,0:0:0:0:
358,363,48780,1,2,0:0:0:0:
358,363,48930,1,0,1:0:0:0:
397,270,49230,6,0,P|379:212|398:168,1,99.9999999999999,12|0,0:0|1:0,0:0:0:0:
425,140,49680,1,2,0:0:0:0:
425,140,49830,2,0,P|438:91|420:46,1,99.9999999999999,8|0,0:0|1:0,0:0:0:0:
323,21,50430,2,0,L|271:21,2,50,8|2|0,0:0|0:0|1:0,0:0:0:0:
302,118,51030,1,8,0:0:0:0:
212,149,51330,1,0,1:0:0:0:
212,149,51480,1,2,0:0:0:0:
212,149,51630,6,0,P|149:123|123:78,1,99.9999999999999,8|0,0:0|1:0,0:0:0:0:
106,53,52080,1,2,0:0:0:0:
106,53,52230,2,0,P|72:89|24:103,1,99.9999999999999,8|0,0:0|1:0,0:0:0:0:
10,202,52830,2,0,L|19:291,1,50,8|2,0:0|0:0,0:0:0:0:
62,268,53130,2,0,L|51:379,1,99.9999999999999,0|8,1:0|0:0,0:0:0:0:
160,366,53730,1,0,1:0:0:0:
259,354,54030,6,0,L|250:254,1,99.9999999999999,8|0,0:0|1:0,0:0:0:0:
211,232,54480,1,2,0:0:0:0:
211,232,54630,2,0,L|202:132,1,99.9999999999999,8|0,0:0|1:0,0:0:0:0:
171,37,55230,2,0,P|146:34|122:26,2,50,8|2|0,0:0|0:0|1:0,0:0:0:0:
269,15,55830,1,8,0:0:0:0:
365,69,56130,1,0,1:0:0:0:
365,69,56280,1,2,0:0:0:0:
364,68,56430,6,0,P|372:117|351:162,1,99.9999999999999,8|0,0:0|1:0,0:0:0:0:
311,189,56880,1,2,0:0:0:0:
311,189,57030,2,0,P|262:196|217:175,1,99.9999999999999,8|0,0:0|1:0,0:0:0:0:
124,138,57630,1,0,0:0:0:0:
43,196,57930,2,0,L|47:247,1,50,0|2,1:0|0:0,0:0:0:0:
36,294,58230,6,0,B|189:224|234:508|407:328|389:215|273:195|240:258,1,475,8|0,0:0|0:0,0:0:0:0:
165,180,60030,6,0,P|207:138|290:123,1,129.999994049072,4|0,0:0|1:0,0:0:0:0:
340,173,60930,1,2,0:0:0:0:
419,144,61230,2,0,P|450:117|457:85,1,64.9999970245362,2|8,0:0|0:0,0:0:0:0:
431,14,61830,1,0,1:0:0:0:
346,11,62130,1,2,0:0:0:0:
261,8,62430,6,0,L|123:14,1,129.999994049072,8|0,0:0|1:0,0:0:0:0:
69,71,63330,1,0,0:0:0:0:
50,153,63630,2,0,P|64:185|107:215,1,64.9999970245362,0|0,0:0|0:0,0:0:0:0:
163,239,64230,1,0,1:0:0:0:
310,158,64830,6,0,P|384:167|434:214,1,129.999994049072,8|0,0:0|1:0,0:0:0:0:
440,284,65730,1,2,0:0:0:0:
377,340,66030,2,0,L|312:337,1,64.9999970245362,2|8,0:0|0:0,0:0:0:0:
256,274,66630,1,0,1:0:0:0:
200,337,66930,1,2,0:0:0:0:
130,288,67230,6,0,P|98:222|124:158,1,129.999994049072,8|0,0:0|1:0,0:0:0:0:
167,106,68130,1,0,0:0:0:0:
235,155,68430,2,0,L|299:161,1,64.9999970245362,2|8,0:0|0:0,0:0:0:0:
381,140,69030,1,0,1:0:0:0:
348,305,69630,5,8,0:0:0:0:
256,192,69780,12,0,75630,0:0:0:0:
