osu file format v14

[General]
AudioFilename: audio.mp3
AudioLeadIn: 0
PreviewTime: 15875
Countdown: 1
SampleSet: None
StackLeniency: 0.7
Mode: 0
LetterboxInBreaks: 0
WidescreenStoryboard: 1

[Editor]
Bookmarks: 5000
DistanceSpacing: 0.2
BeatDivisor: 4
GridSize: 4
TimelineZoom: 1

[Metadata]
Title:063 - Ta - Supoponnponn
TitleUnicode:063 - Ta - Supoponnponn
Artist:saradisk
ArtistUnicode:saradisk
Creator:Stand Jush
Version:Supopopnn
Source:
Tags:
BeatmapID:2045786
BeatmapSetID:972188

[Difficulty]
HPDrainRate:5.2
CircleSize:3.8
OverallDifficulty:8
ApproachRate:8
SliderMultiplier:1.8
SliderTickRate:1

[Events]
//Background and Video events
0,0,"5012e537b477866782ba4234457fb1fa.jpg",0,0
//Break Periods
//Storyboard Layer 0 (Background)
//Storyboard Layer 1 (Fail)
//Storyboard Layer 2 (Pass)
//Storyboard Layer 3 (Foreground)
//Storyboard Sound Samples

[TimingPoints]
0,500,4,1,0,100,1,0
8000,-100,4,1,0,100,0,0
15500,-100,4,1,0,100,0,0
24000,-100,4,1,0,100,0,0
32000,-100,4,1,0,100,0,0
40000,-100,4,1,0,100,0,0
47000,-200,4,1,0,100,0,0

[HitObjects]
110,87,0,6,0,P|98:157|129:260,1,180
185,331,750,1,0,0:0:0:0:
266,240,1000,1,0,0:0:0:0:
308,345,1250,1,0,0:0:0:0:
388,272,1500,1,0,0:0:0:0:
430,348,1750,1,0,0:0:0:0:
445,226,2000,6,0,P|422:168|318:116,1,180
212,110,2750,1,0,0:0:0:0:
226,229,3000,1,0,0:0:0:0:
96,171,3250,1,0,0:0:0:0:
135,282,3500,1,0,0:0:0:0:
42,247,3750,1,0,0:0:0:0:
167,344,4000,6,0,P|226:345|337:288,1,180
422,233,4750,1,0,0:0:0:0:
297,152,5000,1,0,0:0:0:0:
428,117,5250,1,0,0:0:0:0:
320,67,5500,1,0,0:0:0:0:
408,35,5750,1,0,0:0:0:0:
276,85,6000,6,0,P|225:142|233:242,1,180
323,316,6750,1,0,0:0:0:0:
434,207,7000,1,0,0:0:0:0:
258,229,7250,1,0,0:0:0:0:
312,102,7500,1,0,0:0:0:0:
130,149,7750,1,0,0:0:0:0:
345,319,8250,5,0,0:0:0:0:
246,180,8500,1,0,0:0:0:0:
244,329,8750,1,0,0:0:0:0:
342,126,9000,1,0,0:0:0:0:
353,328,9250,1,0,0:0:0:0:
255,70,9500,1,0,0:0:0:0:
142,151,9750,2,0,P|104:205|104:233,1,70
104,324,10250,5,0,0:0:0:0:
306,240,10500,1,0,0:0:0:0:
102,226,10750,1,0,0:0:0:0:
373,325,11000,1,0,0:0:0:0:
104,324,11250,1,0,0:0:0:0:
440,219,11500,1,0,0:0:0:0:
355,101,11750,6,0,P|312:78|273:83,1,70
136,107,12250,1,0,0:0:0:0:
355,247,12500,1,0,0:0:0:0:
165,289,12750,1,0,0:0:0:0:
316,73,13000,1,0,0:0:0:0:
146,200,13250,1,0,0:0:0:0:
350,168,13500,1,0,0:0:0:0:
267,336,13750,1,0,0:0:0:0:
149,299,14000,6,0,P|128:257|127:248,1,35
125,229,14250,1,0,0:0:0:0:
132,124,14750,1,0,0:0:0:0:
368,270,15000,1,0,0:0:0:0:
310,280,16000,6,0,P|358:212|362:189,1,90
410,105,16500,1,0,0:0:0:0:
277,188,16750,1,0,0:0:0:0:
251,48,17000,1,0,0:0:0:0:
146,182,17250,1,0,0:0:0:0:
70,56,17500,1,0,0:0:0:0:
46,229,17750,1,0,0:0:0:0:
218,154,18000,6,0,P|283:177|297:194,1,90
376,248,18500,1,0,0:0:0:0:
246,349,18750,1,0,0:0:0:0:
269,216,19000,1,0,0:0:0:0:
128,310,19250,1,0,0:0:0:0:
186,164,19500,1,0,0:0:0:0:
49,235,19750,1,0,0:0:0:0:
136,99,20000,6,0,P|194:67|252:63,1,90
347,47,20500,1,0,0:0:0:0:
236,113,20750,1,0,0:0:0:0:
344,226,21000,1,0,0:0:0:0:
183,250,21250,1,0,0:0:0:0:
276,343,21500,1,0,0:0:0:0:
123,348,21750,1,0,0:0:0:0:
57,276,22000,6,0,P|46:226|71:194,1,90
167,170,22500,1,0,0:0:0:0:
290,37,22750,1,0,0:0:0:0:
224,235,23000,1,0,0:0:0:0:
382,139,23250,1,0,0:0:0:0:
250,311,23500,1,0,0:0:0:0:
419,278,23750,1,0,0:0:0:0:
87,315,24250,5,0,0:0:0:0:
174,101,24500,1,0,0:0:0:0:
178,313,24750,1,0,0:0:0:0:
86,57,25000,1,0,0:0:0:0:
88,333,25250,1,0,0:0:0:0:
182,37,25500,1,0,0:0:0:0:
197,268,25750,2,0,P|244:314|280:292,1,90
450,159,26250,5,0,0:0:0:0:
224,228,26500,1,0,0:0:0:0:
452,238,26750,1,0,0:0:0:0:
144,151,27000,1,0,0:0:0:0:
452,149,27250,1,0,0:0:0:0:
82,228,27500,1,0,0:0:0:0:
419,232,27750,2,0,P|458:270|416:298,1,90
307,341,28250,5,0,0:0:0:0:
211,154,28500,1,0,0:0:0:0:
361,269,28750,1,0,0:0:0:0:
86,145,29000,1,0,0:0:0:0:
307,341,29250,1,0,0:0:0:0:
114,47,29500,1,0,0:0:0:0:
361,269,29750,1,0,0:0:0:0:
186,286,30000,6,0,P|115:268|101:248,1,90
105,157,30750,1,0,0:0:0:0:
341,272,31000,1,0,0:0:0:0:
