osu file format v14

[General]
AudioFilename: audio.mp3
AudioLeadIn: 0
PreviewTime: 71421
Countdown: 0
SampleSet: Normal
StackLeniency: 0.7
Mode: 1
LetterboxInBreaks: 0
WidescreenStoryboard: 0

[Editor]
DistanceSpacing: 0.8
BeatDivisor: 4
GridSize: 32
TimelineZoom: 1

[Metadata]
Title:267_ddsk? (Ienaga Mugi)
TitleUnicode:267_ddsk?(家長むぎ)
Artist:saradisc
ArtistUnicode:saradisc
Creator:Jaltzu
Version:Oni
Source:
Tags:japanese electronic vtuber virtual youtuber remix nijisanji にじさんじ asmr saradisk dou desu ka
BeatmapID:2333055
BeatmapSetID:1116807

[Difficulty]
HPDrainRate:6
CircleSize:2
OverallDifficulty:5
ApproachRate:0
SliderMultiplier:1.4
SliderTickRate:1

[Events]
//Background and Video events
0,0,"ienaga-mugi.jpg",0,90
//Break Periods
//Storyboard Layer 0 (Background)
//Storyboard Layer 1 (Fail)
//Storyboard Layer 2 (Pass)
//Storyboard Layer 3 (Foreground)
//Storyboard Layer 4 (Overlay)
//Storyboard Sound Samples

[TimingPoints]
422,444.444444444444,4,1,0,60,1,0
14644,-100,4,1,0,50,0,0
15533,-133.333333333333,4,1,0,50,0,0
28866,-95.2380952380952,4,1,0,70,0,0
43088,-100,4,1,0,70,0,0
57310,-95.2380952380952,4,1,0,70,0,0
71533,-90.9090909090909,4,1,0,80,0,1
83977,-90.9090909090909,4,1,0,80,0,0
84310,-91.743119266055,4,1,0,70,0,0
84644,-94.3396226415094,4,1,0,70,0,0
84866,-96.1538461538461,4,1,0,60,0,0
84977,-97.0873786407767,4,1,0,60,0,0
85088,-98.0392156862745,4,1,0,60,0,0
85199,-99.009900990099,4,1,0,60,0,0
85310,-100,4,1,0,70,0,0
85755,-90.9090909090909,4,1,0,80,0,1
98199,-90.9090909090909,4,1,0,80,0,0
98421,-92.5925925925926,4,1,0,70,0,0
98533,-93.4579439252336,4,1,0,70,0,0
98644,-94.3396226415094,4,1,0,70,0,0
98866,-96.1538461538461,4,1,0,70,0,0
99088,-98.0392156862745,4,1,0,70,0,0
99199,-99.009900990099,4,1,0,70,0,0
99310,-100,4,1,0,70,0,0
99533,-105.263157894737,4,1,0,70,0,0
99755,-111.111111111111,4,1,0,70,0,0
99977,-117.647058823529,4,1,0,50,0,0
100421,-133.333333333333,4,1,0,50,0,0

[HitObjects]
256,192,421,5,8,0:0:0:0:
256,192,866,1,0,0:0:0:0:
256,192,1088,1,8,0:0:0:0:
256,192,1310,1,0,0:0:0:0:
256,192,1533,1,0,0:0:0:0:
256,192,1755,1,8,0:0:0:0:
256,192,2199,1,8,0:0:0:0:
256,192,2421,1,0,0:0:0:0:
256,192,2644,1,0,0:0:0:0:
256,192,2866,1,8,0:0:0:0:
256,192,3088,1,0,0:0:0:0:
256,192,3533,1,0,0:0:0:0:
256,192,3755,1,8,0:0:0:0:
256,192,3977,1,8,0:0:0:0:
256,192,4421,1,0,0:0:0:0:
256,192,4644,1,8,0:0:0:0:
256,192,4866,1,8,0:0:0:0:
256,192,5088,1,0,0:0:0:0:
256,192,5310,1,8,0:0:0:0:
256,192,5755,1,8,0:0:0:0:
256,192,5977,1,0,0:0:0:0:
256,192,6199,1,0,0:0:0:0:
256,192,6421,1,8,0:0:0:0:
256,192,6644,1,8,0:0:0:0:
256,192,7088,1,8,0:0:0:0:
256,192,7310,1,0,0:0:0:0:
256,192,7533,1,8,0:0:0:0:
256,192,7977,1,0,0:0:0:0:
256,192,8199,1,8,0:0:0:0:
256,192,8421,1,0,0:0:0:0:
256,192,8644,1,0,0:0:0:0:
256,192,8866,1,8,0:0:0:0:
256,192,9310,1,8,0:0:0:0:
256,192,9533,1,0,0:0:0:0:
256,192,9755,1,0,0:0:0:0:
256,192,9977,1,8,0:0:0:0:
256,192,10199,1,0,0:0:0:0:
256,192,10644,1,0,0:0:0:0:
256,192,10866,1,8,0:0:0:0:
256,192,11088,1,8,0:0:0:0:
256,192,11533,1,0,0:0:0:0:
256,192,11755,1,8,0:0:0:0:
256,192,11977,1,8,0:0:0:0:
256,192,12199,1,0,0:0:0:0:
256,192,12421,1,8,0:0:0:0:
256,192,12866,1,8,0:0:0:0:
256,192,13088,1,0,0:0:0:0:
256,192,13310,1,0,0:0:0:0:
256,192,13533,1,8,0:0:0:0:
256,192,13755,1,8,0:0:0:0:
256,192,14199,1,0,0:0:0:0:
256,192,14421,1,8,0:0:0:0:
256,192,14644,1,0,0:0:0:0:
256,192,15533,1,8,0:0:0:0:
256,192,16421,1,0,0:0:0:0:
256,192,17310,1,0,0:0:0:0:
256,192,18199,1,8,0:0:0:0:
256,192,19088,1,8,0:0:0:0:
256,192,19977,1,0,0:0:0:0:
256,192,20866,1,8,0:0:0:0:
256,192,21755,1,0,0:0:0:0:
256,192,22644,1,8,0:0:0:0:
256,192,23533,1,0,0:0:0:0:
256,192,24421,1,0,0:0:0:0:
256,192,25310,1,8,0:0:0:0:
256,192,26199,1,8,0:0:0:0:
256,192,27088,1,0,0:0:0:0:
256,192,27977,1,8,0:0:0:0:
256,192,28866,5,12,0:0:0:0:
256,192,29088,1,0,0:0:0:0:
256,192,29310,1,0,0:0:0:0:
256,192,29533,1,8,0:0:0:0:
256,192,29755,1,0,0:0:0:0:
256,192,29977,1,8,0:0:0:0:
256,192,30199,1,8,0:0:0:0:
256,192,30421,1,0,0:0:0:0:
256,192,30644,1,8,0:0:0:0:
256,192,31088,1,0,0:0:0:0:
256,192,31310,1,8,0:0:0:0:
256,192,31533,1,0,0:0:0:0:
256,192,31755,1,8,0:0:0:0:
256,192,31866,1,8,0:0:0:0:
256,192,31977,1,8,0:0:0:0:
256,192,32421,1,8,0:0:0:0:
256,192,32644,1,0,0:0:0:0:
256,192,32866,1,0,0:0:0:0:
256,192,33088,1,8,0:0:0:0:
256,192,33310,1,0,0:0:0:0:
256,192,33533,1,8,0:0:0:0:
256,192,33644,1,8,0:0:0:0:
256,192,33755,1,8,0:0:0:0:
256,192,33977,1,0,0:0:0:0:
256,192,34199,1,0,0:0:0:0:
256,192,34644,1,8,0:0:0:0:
256,192,34866,1,0,0:0:0:0:
256,192,35088,1,0,0:0:0:0:
256,192,35199,1,0,0:0:0:0:
256,192,35310,1,8,0:0:0:0:
256,192,35533,1,8,0:0:0:0:
256,192,35755,1,0,0:0:0:0:
256,192,35977,1,8,0:0:0:0:
256,192,36199,1,0,0:0:0:0:
256,192,36421,1,0,0:0:0:0:
256,192,36644,1,8,0:0:0:0:
256,192,36866,1,0,0:0:0:0:
256,192,37088,1,8,0:0:0:0:
256,192,37310,1,8,0:0:0:0:
256,192,37533,1,0,0:0:0:0:
256,192,37755,1,8,0:0:0:0:
256,192,38199,1,0,0:0:0:0:
256,192,38421,1,8,0:0:0:0:
256,192,38644,1,0,0:0:0:0:
256,192,38866,1,8,0:0:0:0:
256,192,38977,1,8,0:0:0:0:
256,192,39088,1,0,0:0:0:0:
256,192,39310,1,8,0:0:0:0:
256,192,39533,1,8,0:0:0:0:
256,192,39755,1,0,0:0:0:0:
256,192,39977,1,0,0:0:0:0:
256,192,40199,1,8,0:0:0:0:
256,192,40421,1,0,0:0:0:0:
256,192,40644,1,0,0:0:0:0:
256,192,40866,1,8,0:0:0:0:
256,192,41088,1,0,0:0:0:0:
256,192,41310,1,0,0:0:0:0:
256,192,41755,1,0,0:0:0:0:
256,192,41977,1,8,0:0:0:0:
256,192,42199,1,0,0:0:0:0:
256,192,42310,1,0,0:0:0:0:
256,192,42421,1,0,0:0:0:0:
256,192,42644,1,8,0:0:0:0:
256,192,43088,5,0,0:0:0:0:
256,192,43310,1,0,0:0:0:0:
256,192,43421,1,0,0:0:0:0:
256,192,43533,1,8,0:0:0:0:
256,192,43755,1,0,0:0:0:0:
256,192,43977,1,8,0:0:0:0:
256,192,44421,1,8,0:0:0:0:
256,192,44644,1,0,0:0:0:0:
256,192,44866,1,0,0:0:0:0:
256,192,45310,1,8,0:0:0:0:
256,192,45533,1,0,0:0:0:0:
256,192,45755,1,0,0:0:0:0:
256,192,45977,1,8,0:0:0:0:
256,192,46088,1,8,0:0:0:0:
256,192,46199,1,8,0:0:0:0:
256,192,46421,1,0,0:0:0:0:
256,192,46644,1,0,0:0:0:0:
256,192,46866,1,0,0:0:0:0:
256,192,46977,1,0,0:0:0:0:
256,192,47088,1,8,0:0:0:0:
256,192,47310,1,0,0:0:0:0:
256,192,47533,1,8,0:0:0:0:
256,192,47977,1,8,0:0:0:0:
256,192,48199,1,0,0:0:0:0:
256,192,48421,1,0,0:0:0:0:
256,192,48866,1,8,0:0:0:0:
256,192,49088,1,0,0:0:0:0:
256,192,49310,1,0,0:0:0:0:
256,192,49533,1,8,0:0:0:0:
256,192,49644,1,8,0:0:0:0:
256,192,49755,1,8,0:0:0:0:
256,192,49977,1,0,0:0:0:0:
256,192,50199,1,8,0:0:0:0:
256,192,50421,1,8,0:0:0:0:
256,192,50644,1,0,0:0:0:0:
256,192,50866,1,8,0:0:0:0:
256,192,51088,1,0,0:0:0:0:
256,192,51310,1,0,0:0:0:0:
256,192,51533,1,8,0:0:0:0:
256,192,51644,1,8,0:0:0:0:
256,192,51755,1,0,0:0:0:0:
256,192,51977,1,8,0:0:0:0:
256,192,52421,1,8,0:0:0:0:
256,192,52644,1,0,0:0:0:0:
256,192,52866,1,0,0:0:0:0:
256,192,53088,1,8,0:0:0:0:
256,192,53199,1,8,0:0:0:0:
256,192,53310,1,8,0:0:0:0:
256,192,53533,1,0,0:0:0:0:
256,192,53755,1,8,0:0:0:0:
256,192,53977,1,8,0:0:0:0:
256,192,54199,1,0,0:0:0:0:
256,192,54421,1,8,0:0:0:0:
256,192,54644,1,0,0:0:0:0:
256,192,54866,1,0,0:0:0:0:
256,192,55088,1,8,0:0:0:0:
256,192,55199,1,8,0:0:0:0:
256,192,55310,1,0,0:0:0:0:
256,192,55533,1,0,0:0:0:0:
256,192,55977,1,0,0:0:0:0:
256,192,56199,1,8,0:0:0:0:
256,192,56421,1,0,0:0:0:0:
256,192,56644,1,0,0:0:0:0:
256,192,56866,1,0,0:0:0:0:
256,192,56977,1,8,0:0:0:0:
256,192,57310,5,12,0:0:0:0:
256,192,57755,1,0,0:0:0:0:
256,192,58199,1,0,0:0:0:0:
256,192,58421,1,8,0:0:0:0:
256,192,58644,1,0,0:0:0:0:
256,192,58866,1,8,0:0:0:0:
256,192,58977,1,0,0:0:0:0:
256,192,59088,1,0,0:0:0:0:
256,192,59421,1,0,0:0:0:0:
256,192,59533,1,8,0:0:0:0:
256,192,59755,1,0,0:0:0:0:
256,192,59977,1,0,0:0:0:0:
256,192,60421,1,8,0:0:0:0:
256,192,60644,1,0,0:0:0:0:
256,192,60755,1,8,0:0:0:0:
256,192,60866,1,0,0:0:0:0:
256,192,61310,1,8,0:0:0:0:
256,192,61755,1,0,0:0:0:0:
256,192,61977,1,0,0:0:0:0:
256,192,62199,1,8,0:0:0:0:
256,192,62421,1,8,0:0:0:0:
256,192,62644,1,0,0:0:0:0:
256,192,62755,1,8,0:0:0:0:
256,192,62977,1,0,0:0:0:0:
256,192,63088,1,8,0:0:0:0:
256,192,63310,1,0,0:0:0:0:
256,192,63421,1,8,0:0:0:0:
256,192,63533,1,0,0:0:0:0:
256,192,63644,1,0,0:0:0:0:
256,192,63755,1,8,0:0:0:0:
256,192,63977,1,0,0:0:0:0:
256,192,64088,1,8,0:0:0:0:
256,192,64421,1,12,0:0:0:0:
256,192,64866,1,0,0:0:0:0:
256,192,65310,1,0,0:0:0:0:
256,192,65533,1,8,0:0:0:0:
256,192,65755,1,0,0:0:0:0:
256,192,65977,1,8,0:0:0:0:
256,192,66088,1,0,0:0:0:0:
256,192,66199,1,8,0:0:0:0:
256,192,66533,1,8,0:0:0:0:
256,192,66644,1,0,0:0:0:0:
256,192,66866,1,8,0:0:0:0:
256,192,67088,1,0,0:0:0:0:
256,192,67533,1,8,0:0:0:0:
256,192,67755,1,0,0:0:0:0:
256,192,67866,1,0,0:0:0:0:
256,192,67977,1,0,0:0:0:0:
256,192,68421,1,8,0:0:0:0:
256,192,68866,1,0,0:0:0:0:
256,192,68977,1,0,0:0:0:0:
256,192,69088,1,8,0:0:0:0:
256,192,69310,1,8,0:0:0:0:
256,192,69533,1,8,0:0:0:0:
256,192,69755,1,0,0:0:0:0:
256,192,69866,1,8,0:0:0:0:
256,192,69977,1,0,0:0:0:0:
256,192,70199,1,8,0:0:0:0:
256,192,70421,1,0,0:0:0:0:
256,192,70533,1,8,0:0:0:0:
256,192,70644,1,8,0:0:0:0:
256,192,70866,1,0,0:0:0:0:
256,192,71088,1,0,0:0:0:0:
256,192,71199,1,8,0:0:0:0:
256,192,71533,5,0,0:0:0:0:
256,192,71644,1,0,0:0:0:0:
256,192,71755,1,0,0:0:0:0:
256,192,71866,1,0,0:0:0:0:
256,192,71977,1,8,0:0:0:0:
256,192,72199,1,0,0:0:0:0:
256,192,72310,1,8,0:0:0:0:
256,192,72533,1,0,0:0:0:0:
256,192,72644,1,8,0:0:0:0:
256,192,72866,1,0,0:0:0:0:
256,192,72977,1,8,0:0:0:0:
256,192,73088,1,0,0:0:0:0:
256,192,73310,1,0,0:0:0:0:
256,192,73644,1,0,0:0:0:0:
256,192,73755,1,8,0:0:0:0:
256,192,74199,1,0,0:0:0:0:
256,192,74310,1,8,0:0:0:0:
256,192,74421,1,0,0:0:0:0:
256,192,74644,1,8,0:0:0:0:
256,192,74755,1,0,0:0:0:0:
256,192,74866,1,8,0:0:0:0:
256,192,75088,1,0,0:0:0:0:
256,192,75199,1,0,0:0:0:0:
256,192,75310,1,8,0:0:0:0:
256,192,75421,1,0,0:0:0:0:
256,192,75533,1,8,0:0:0:0:
256,192,75755,1,0,0:0:0:0:
256,192,75866,1,8,0:0:0:0:
256,192,76088,1,8,0:0:0:0:
256,192,76199,1,8,0:0:0:0:
256,192,76421,1,0,0:0:0:0:
256,192,76533,1,8,0:0:0:0:
256,192,76755,1,8,0:0:0:0:
256,192,76866,1,0,0:0:0:0:
256,192,77199,1,0,0:0:0:0:
256,192,77310,1,8,0:0:0:0:
256,192,77755,1,8,0:0:0:0:
256,192,77866,1,8,0:0:0:0:
256,192,77977,1,0,0:0:0:0:
256,192,78088,1,0,0:0:0:0:
256,192,78199,1,8,0:0:0:0:
256,192,78421,1,8,0:0:0:0:
256,192,78644,1,0,0:0:0:0:
256,192,78755,1,0,0:0:0:0:
256,192,78866,1,0,0:0:0:0:
256,192,78977,1,0,0:0:0:0:
256,192,79088,1,8,0:0:0:0:
256,192,79310,1,8,0:0:0:0:
256,192,79421,1,8,0:0:0:0:
256,192,79644,1,0,0:0:0:0:
256,192,79755,1,8,0:0:0:0:
256,192,79977,1,0,0:0:0:0:
256,192,80088,1,8,0:0:0:0:
256,192,80199,1,0,0:0:0:0:
256,192,80421,1,0,0:0:0:0:
256,192,80755,1,0,0:0:0:0:
256,192,80866,1,8,0:0:0:0:
256,192,81310,1,0,0:0:0:0:
256,192,81421,1,8,0:0:0:0:
256,192,81533,1,0,0:0:0:0:
256,192,81755,1,8,0:0:0:0:
256,192,81866,1,0,0:0:0:0:
256,192,81977,1,8,0:0:0:0:
256,192,82199,1,0,0:0:0:0:
256,192,82310,1,8,0:0:0:0:
256,192,82421,1,0,0:0:0:0:
256,192,82533,1,8,0:0:0:0:
256,192,82644,1,8,0:0:0:0:
256,192,82866,1,0,0:0:0:0:
256,192,82977,1,8,0:0:0:0:
256,192,83199,1,8,0:0:0:0:
256,192,83310,1,8,0:0:0:0:
256,192,83533,1,8,0:0:0:0:
256,192,83644,1,0,0:0:0:0:
256,192,83977,1,8,0:0:0:0:
256,192,84310,1,8,0:0:0:0:
256,192,84644,1,8,0:0:0:0:
256,192,84866,1,8,0:0:0:0:
256,192,84977,1,8,0:0:0:0:
256,192,85088,1,0,0:0:0:0:
256,192,85199,1,0,0:0:0:0:
256,192,85310,1,8,0:0:0:0:
256,192,85755,5,12,0:0:0:0:
256,192,85977,1,0,0:0:0:0:
256,192,86088,1,0,0:0:0:0:
256,192,86199,1,8,0:0:0:0:
256,192,86421,1,8,0:0:0:0:
256,192,86533,1,0,0:0:0:0:
256,192,86755,1,0,0:0:0:0:
256,192,86866,1,8,0:0:0:0:
256,192,87088,1,8,0:0:0:0:
256,192,87310,1,0,0:0:0:0:
256,192,87533,1,0,0:0:0:0:
256,192,87755,1,0,0:0:0:0:
256,192,87866,1,0,0:0:0:0:
256,192,87977,1,8,0:0:0:0:
256,192,88199,1,0,0:0:0:0:
256,192,88421,1,0,0:0:0:0:
256,192,88533,1,0,0:0:0:0:
256,192,88644,1,8,0:0:0:0:
256,192,88866,1,8,0:0:0:0:
256,192,89310,1,0,0:0:0:0:
256,192,89533,1,8,0:0:0:0:
256,192,89644,1,0,0:0:0:0:
256,192,89755,1,8,0:0:0:0:
256,192,89977,1,0,0:0:0:0:
256,192,90199,1,0,0:0:0:0:
256,192,90310,1,0,0:0:0:0:
256,192,90421,1,0,0:0:0:0:
256,192,90644,1,8,0:0:0:0:
256,192,91088,1,0,0:0:0:0:
256,192,91310,1,8,0:0:0:0:
256,192,91421,1,0,0:0:0:0:
256,192,91533,1,8,0:0:0:0:
256,192,91755,1,0,0:0:0:0:
256,192,91977,1,8,0:0:0:0:
256,192,92088,1,8,0:0:0:0:
256,192,92199,1,0,0:0:0:0:
256,192,92421,1,8,0:0:0:0:
256,192,92866,1,12,0:0:0:0:
256,192,93088,1,0,0:0:0:0:
256,192,93199,1,0,0:0:0:0:
256,192,93310,1,8,0:0:0:0:
256,192,93533,1,8,0:0:0:0:
256,192,93644,1,0,0:0:0:0:
256,192,93866,1,0,0:0:0:0:
256,192,93977,1,8,0:0:0:0:
256,192,94199,1,8,0:0:0:0:
256,192,94421,1,0,0:0:0:0:
256,192,94644,1,0,0:0:0:0:
256,192,94866,1,0,0:0:0:0:
256,192,94977,1,0,0:0:0:0:
256,192,95088,1,8,0:0:0:0:
256,192,95310,1,0,0:0:0:0:
256,192,95533,1,0,0:0:0:0:
256,192,95644,1,0,0:0:0:0:
256,192,95755,1,8,0:0:0:0:
256,192,95977,1,8,0:0:0:0:
256,192,96421,1,0,0:0:0:0:
256,192,96644,1,8,0:0:0:0:
256,192,96755,1,0,0:0:0:0:
256,192,96866,1,8,0:0:0:0:
256,192,97088,1,0,0:0:0:0:
256,192,97310,1,0,0:0:0:0:
256,192,97421,1,0,0:0:0:0:
256,192,97533,1,0,0:0:0:0:
256,192,97755,1,8,0:0:0:0:
256,192,98199,5,0,0:0:0:0:
256,192,98421,1,8,0:0:0:0:
256,192,98533,1,0,0:0:0:0:
256,192,98644,1,8,0:0:0:0:
256,192,98866,1,0,0:0:0:0:
256,192,99088,1,8,0:0:0:0:
256,192,99199,1,8,0:0:0:0:
256,192,99310,1,0,0:0:0:0:
256,192,99533,1,8,0:0:0:0:
256,192,99755,1,0,0:0:0:0:
256,192,99977,5,0,0:0:0:0:
256,192,100421,1,8,0:0:0:0:
256,192,100644,1,0,0:0:0:0:
256,192,100866,1,8,0:0:0:0:
256,192,101310,1,8,0:0:0:0:
256,192,101533,1,0,0:0:0:0:
256,192,101755,1,0,0:0:0:0:
256,192,102199,1,8,0:0:0:0:
256,192,102421,1,0,0:0:0:0:
256,192,102866,1,0,0:0:0:0:
256,192,103088,1,8,0:0:0:0:
256,192,103533,1,0,0:0:0:0:
256,192,103977,1,8,0:0:0:0:
256,192,104199,1,0,0:0:0:0:
256,192,104421,1,8,0:0:0:0:
256,192,104866,1,8,0:0:0:0:
256,192,105088,1,0,0:0:0:0:
256,192,105310,1,0,0:0:0:0:
256,192,105755,1,8,0:0:0:0:
256,192,105977,1,0,0:0:0:0:
256,192,106421,1,8,0:0:0:0:
256,192,106644,1,8,0:0:0:0:
256,192,107088,1,0,0:0:0:0:
256,192,107533,1,8,0:0:0:0:
256,192,107755,1,0,0:0:0:0:
256,192,107977,1,8,0:0:0:0:
256,192,108421,1,8,0:0:0:0:
256,192,108644,1,0,0:0:0:0:
256,192,108866,1,0,0:0:0:0:
256,192,109310,1,8,0:0:0:0:
256,192,109533,1,0,0:0:0:0:
256,192,109977,1,0,0:0:0:0:
256,192,110199,1,8,0:0:0:0:
256,192,110644,1,0,0:0:0:0:
256,192,111088,1,8,0:0:0:0:
256,192,111310,1,0,0:0:0:0:
256,192,111533,1,8,0:0:0:0:
256,192,111977,1,8,0:0:0:0:
256,192,112199,1,0,0:0:0:0:
256,192,112421,1,0,0:0:0:0:
256,192,112866,1,8,0:0:0:0:
256,192,113088,1,0,0:0:0:0:
256,192,113533,1,8,0:0:0:0:
256,192,113755,1,8,0:0:0:0:
