osu file format v14

[General]
AudioFilename: audio.mp3
AudioLeadIn: 0
PreviewTime: 71421
Countdown: 0
SampleSet: Normal
StackLeniency: 0.7
Mode: 1
LetterboxInBreaks: 0
WidescreenStoryboard: 0

[Editor]
DistanceSpacing: 0.8
BeatDivisor: 2
GridSize: 32
TimelineZoom: 1

[Metadata]
Title:267_ddsk? (Ienaga Mugi)
TitleUnicode:267_ddsk?(家長むぎ)
Artist:saradisc
ArtistUnicode:saradisc
Creator:Jaltzu
Version:Kantan
Source:
Tags:japanese electronic vtuber virtual youtuber remix nijisanji にじさんじ asmr saradisk dou desu ka
BeatmapID:2333053
BeatmapSetID:1116807

[Difficulty]
HPDrainRate:8
CircleSize:2
OverallDifficulty:2
ApproachRate:0
SliderMultiplier:1.4
SliderTickRate:1

[Events]
//Background and Video events
0,0,"ienaga-mugi.jpg",0,90
//Break Periods
//Storyboard Layer 0 (Background)
//Storyboard Layer 1 (Fail)
//Storyboard Layer 2 (Pass)
//Storyboard Layer 3 (Foreground)
//Storyboard Layer 4 (Overlay)
//Storyboard Sound Samples

[TimingPoints]
422,444.444444444444,4,1,0,60,1,0
14644,-100,4,1,0,50,0,0
28866,-100,4,1,0,70,0,0
71533,-100,4,1,0,80,0,1
83977,-100,4,1,0,80,0,0
85755,-100,4,1,0,80,0,1
98199,-100,4,1,0,80,0,0
99977,-100,4,1,0,50,0,0

[HitObjects]
256,192,421,5,8,0:0:0:0:
256,192,1310,1,0,0:0:0:0:
256,192,2199,1,8,0:0:0:0:
256,192,2644,1,0,0:0:0:0:
256,192,3088,1,0,0:0:0:0:
256,192,3977,1,8,0:0:0:0:
256,192,4866,1,8,0:0:0:0:
256,192,5755,1,0,0:0:0:0:
256,192,7533,1,8,0:0:0:0:
256,192,8421,1,0,0:0:0:0:
256,192,9310,1,8,0:0:0:0:
256,192,9755,1,0,0:0:0:0:
256,192,10199,1,0,0:0:0:0:
256,192,11088,1,8,0:0:0:0:
256,192,11977,1,0,0:0:0:0:
256,192,12866,1,0,0:0:0:0:
256,192,13310,1,0,0:0:0:0:
256,192,13755,1,8,0:0:0:0:
256,192,14644,1,0,0:0:0:0:
256,192,15533,1,8,0:0:0:0:
256,192,16421,1,0,0:0:0:0:
256,192,18199,1,8,0:0:0:0:
256,192,19088,1,8,0:0:0:0:
256,192,19977,1,0,0:0:0:0:
256,192,21755,1,0,0:0:0:0:
256,192,22644,1,8,0:0:0:0:
256,192,23533,1,0,0:0:0:0:
256,192,25310,1,8,0:0:0:0:
256,192,26199,1,8,0:0:0:0:
256,192,27088,1,0,0:0:0:0:
256,192,28866,5,12,0:0:0:0:
256,192,29310,1,0,0:0:0:0:
256,192,29755,1,0,0:0:0:0:
256,192,30644,1,8,0:0:0:0:
256,192,31533,1,8,0:0:0:0:
256,192,32421,1,8,0:0:0:0:
256,192,32866,1,0,0:0:0:0:
256,192,33310,1,8,0:0:0:0:
256,192,34199,1,0,0:0:0:0:
256,192,35088,1,8,0:0:0:0:
256,192,35977,1,8,0:0:0:0:
256,192,36421,1,0,0:0:0:0:
256,192,36866,1,0,0:0:0:0:
256,192,37755,1,8,0:0:0:0:
256,192,38644,1,8,0:0:0:0:
256,192,39533,1,8,0:0:0:0:
256,192,39977,1,0,0:0:0:0:
256,192,40421,1,8,0:0:0:0:
256,192,41310,1,0,0:0:0:0:
256,192,43088,5,0,0:0:0:0:
256,192,43977,1,8,0:0:0:0:
256,192,44866,1,0,0:0:0:0:
256,192,46199,1,8,0:0:0:0:
256,192,46644,1,0,0:0:0:0:
256,192,47533,1,8,0:0:0:0:
256,192,48421,1,0,0:0:0:0:
256,192,49755,1,0,0:0:0:0:
256,192,50199,1,8,0:0:0:0:
256,192,51088,1,0,0:0:0:0:
256,192,51977,1,8,0:0:0:0:
256,192,52421,1,8,0:0:0:0:
256,192,52866,1,0,0:0:0:0:
256,192,53755,1,8,0:0:0:0:
256,192,54644,1,0,0:0:0:0:
256,192,55533,1,0,0:0:0:0:
256,192,55977,1,8,0:0:0:0:
256,192,56421,1,0,0:0:0:0:
256,192,57310,5,12,0:0:0:0:
256,192,58644,1,0,0:0:0:0:
256,192,59088,1,8,0:0:0:0:
256,192,59977,1,0,0:0:0:0:
256,192,60866,1,0,0:0:0:0:
256,192,61755,1,0,0:0:0:0:
256,192,62199,1,8,0:0:0:0:
256,192,62644,1,0,0:0:0:0:
256,192,63533,1,0,0:0:0:0:
256,192,64421,1,12,0:0:0:0:
256,192,65755,1,0,0:0:0:0:
256,192,66199,1,8,0:0:0:0:
256,192,67088,1,8,0:0:0:0:
256,192,67977,1,0,0:0:0:0:
256,192,68866,1,0,0:0:0:0:
256,192,69310,1,8,0:0:0:0:
256,192,69755,1,0,0:0:0:0:
256,192,71088,1,8,0:0:0:0:
256,192,71533,5,0,0:0:0:0:
256,192,71977,1,8,0:0:0:0:
256,192,72421,1,8,0:0:0:0:
256,192,73310,1,0,0:0:0:0:
256,192,74199,1,0,0:0:0:0:
256,192,74644,1,8,0:0:0:0:
256,192,75088,1,0,0:0:0:0:
256,192,75533,1,8,0:0:0:0:
256,192,76421,1,8,0:0:0:0:
256,192,76866,1,0,0:0:0:0:
256,192,77755,1,8,0:0:0:0:
256,192,78199,1,0,0:0:0:0:
256,192,78644,1,0,0:0:0:0:
256,192,79088,1,8,0:0:0:0:
256,192,79977,1,8,0:0:0:0:
256,192,80421,1,0,0:0:0:0:
256,192,81310,1,0,0:0:0:0:
256,192,81755,1,8,0:0:0:0:
256,192,82199,1,0,0:0:0:0:
256,192,83088,1,0,0:0:0:0:
256,192,83533,1,8,0:0:0:0:
256,192,83977,1,8,0:0:0:0:
256,192,85755,5,12,0:0:0:0:
256,192,86644,1,0,0:0:0:0:
256,192,87088,1,8,0:0:0:0:
256,192,87533,1,0,0:0:0:0:
256,192,87977,1,0,0:0:0:0:
256,192,88421,1,8,0:0:0:0:
256,192,89310,1,0,0:0:0:0:
256,192,90199,1,0,0:0:0:0:
256,192,90644,1,8,0:0:0:0:
256,192,91088,1,0,0:0:0:0:
256,192,91977,1,8,0:0:0:0:
256,192,92421,1,0,0:0:0:0:
256,192,92866,1,12,0:0:0:0:
256,192,93755,1,0,0:0:0:0:
256,192,94199,1,8,0:0:0:0:
256,192,94644,1,0,0:0:0:0:
256,192,95088,1,0,0:0:0:0:
256,192,95533,1,8,0:0:0:0:
256,192,96421,1,0,0:0:0:0:
256,192,97310,1,0,0:0:0:0:
256,192,97755,1,8,0:0:0:0:
256,192,98199,5,0,0:0:0:0:
256,192,99977,5,0,0:0:0:0:
256,192,100866,1,8,0:0:0:0:
256,192,101755,1,0,0:0:0:0:
256,192,103088,1,8,0:0:0:0:
256,192,103533,1,0,0:0:0:0:
256,192,104421,1,8,0:0:0:0:
256,192,105310,1,0,0:0:0:0:
256,192,106644,1,8,0:0:0:0:
256,192,107088,1,0,0:0:0:0:
256,192,107977,1,8,0:0:0:0:
256,192,108866,1,0,0:0:0:0:
256,192,110199,1,8,0:0:0:0:
256,192,110644,1,0,0:0:0:0:
256,192,111533,1,8,0:0:0:0:
256,192,112421,1,0,0:0:0:0:
256,192,113310,1,0,0:0:0:0:
256,192,113755,1,8,0:0:0:0:
