osu file format v14

[General]
AudioFilename: audio.mp3
AudioLeadIn: 0
PreviewTime: 26992
Countdown: 1
SampleSet: Soft
StackLeniency: 0.7
Mode: 0
LetterboxInBreaks: 0
WidescreenStoryboard: 1

[Editor]
DistanceSpacing: 2
BeatDivisor: 4
GridSize: 8
TimelineZoom: 1

[Metadata]
Title:walls
TitleUnicode:walls
Artist:sapientdream
ArtistUnicode:sapientdream
Creator:Walshy
Version:subsided
Source:
Tags:lofi lo-fi
BeatmapID:1522505
BeatmapSetID:720954

[Difficulty]
HPDrainRate:3
CircleSize:3.5
OverallDifficulty:4
ApproachRate:5.5
SliderMultiplier:1.4
SliderTickRate:1

[Events]
//Background and Video events
0,0,"z-w-gu-trains2.jpg",0,0
//Break Periods
//Storyboard Layer 0 (Background)
//Storyboard Layer 1 (Fail)
//Storyboard Layer 2 (Pass)
//Storyboard Layer 3 (Foreground)
//Storyboard Sound Samples

[TimingPoints]
3146,769.230769230769,4,2,0,18,1,0
27761,-80,4,2,0,22,0,1
50838,-80,4,2,0,14,0,1
51222,-80,4,2,0,10,0,1
51607,-80,4,2,0,8,0,0

[Colours]
Combo1 : 152,143,201
Combo2 : 206,138,206

[HitObjects]
288,199,3145,5,2,2:0:0:0:
131,99,3914,2,0,P|120:143|113:195,1,70,0|0,0:0|2:1,0:0:0:0:
269,266,5068,2,0,P|275:300|286:333,2,70,2|0|0,0:0|0:0|0:0,0:0:0:0:
341,211,6222,6,0,P|352:244|358:278,1,70,2|0,0:0|0:0,0:0:0:0:
448,290,6991,2,0,P|454:256|465:223,2,70
358,278,8145,2,0,P|352:312|341:345,2,70,2|0|0,0:0|0:0|0:0,0:0:0:0:
287,220,9299,6,0,L|207:238,1,70,2|0,0:0|0:0,0:0:0:0:
127,237,10068,1,0,0:0:0:0:
127,237,10453,1,0,0:0:0:0:
184,65,11222,2,0,P|265:68|310:125,1,140,2|0,2:0|0:0,0:0:0:0:
222,149,12376,6,0,L|152:158,1,70,2|0,0:0|0:0,0:0:0:0:
83,216,13145,1,0,0:0:0:0:
83,216,13530,1,0,0:0:0:0:
254,276,14299,2,0,P|336:288|407:242,1,140,2|0,2:0|0:0,0:0:0:0:
411,177,15453,6,0,L|402:81,1,70,2|0,0:0|0:0,0:0:0:0:
315,87,16222,2,0,L|306:-9,1,70
228,179,17376,2,0,L|221:248,2,70,2|0|0,0:0|0:0|0:0,0:0:0:0:
279,103,18530,6,0,B|246:89|211:92,1,70,2|0,0:0|0:0,0:0:0:0:
156,18,19299,2,0,B|121:15|88:29,2,70
133,106,20453,2,0,B|168:103|201:117,2,70,2|0|0,0:0|0:0|0:0,0:0:0:0:
145,196,21607,6,0,P|149:236|158:284,1,70,2|0,0:0|0:0,0:0:0:0:
224,322,22376,1,0,0:0:0:0:
314,310,22761,1,0,0:0:0:0:
192,174,23530,5,2,2:0:0:0:
263,129,23914,2,0,L|353:143,2,70,0|0|2,0:0|0:0|0:0,0:0:0:0:
174,149,25068,1,0,0:0:0:0:
118,77,25453,2,0,L|48:66,2,70,2|0|2,2:0|0:0|0:0,0:0:0:0:
75,157,26607,5,2,0:0:0:0:
264,213,27761,5,8,3:0:0:0:
84,319,28530,2,0,P|88:266|107:227,1,87.5,8|0,0:0|0:0,0:0:0:0:
203,92,29299,1,0,1:0:0:0:
272,253,29684,1,0,1:0:0:0:
101,235,30068,2,0,P|105:182|124:143,1,87.5,8|0,3:0|0:0,0:0:0:0:
245,30,30837,6,0,L|153:39,1,87.5,8|0,3:0|0:0,0:0:0:0:
31,160,31607,2,0,L|118:151,1,87.5,8|0,0:0|0:0,0:0:0:0:
289,189,32376,1,0,1:0:0:0:
342,355,32761,1,0,1:0:0:0:
484,253,33145,2,0,B|416:257|416:257|390:265,1,87.5,8|0,3:0|0:0,0:0:0:0:
339,96,33914,6,0,B|256:56|272:133|168:80,1,175,8|8,3:0|0:0,0:0:0:0:
89,112,35068,1,0,0:0:0:0:
226,219,35453,1,0,1:0:0:0:
116,355,35837,1,0,1:0:0:0:
1,222,36222,2,0,B|40:199|69:200|112:209,1,87.5,8|0,3:0|0:0,0:0:0:0:
228,307,36991,6,0,P|268:229|181:190,1,175,8|8,3:0|0:0,0:0:0:0:
127,156,38145,1,0,0:0:0:0:
292,98,38530,1,0,1:0:0:0:
123,57,38914,1,0,1:0:0:0:
292,98,39299,2,0,L|284:185,1,87.5,8|0,3:0|0:0,0:0:0:0:
390,324,40068,6,0,L|405:148,1,175,8|8,3:0|0:0,0:0:0:0:
355,77,41222,1,0,0:0:0:0:
199,161,41607,1,0,1:0:0:0:
369,200,41991,1,0,1:0:0:0:
268,342,42376,2,0,P|281:290|276:246,1,87.5,8|0,3:0|0:0,0:0:0:0:
90,238,43145,6,0,L|185:246,1,87.5,8|0,3:0|0:0,0:0:0:0:
346,177,43914,2,0,L|258:169,1,87.5,8|0,0:0|0:0,0:0:0:0:
97,100,44684,1,0,1:0:0:0:
215,228,45068,1,0,1:0:0:0:
212,53,45453,2,0,B|282:57|282:57|307:68,1,87.5,8|0,3:0|0:0,0:0:0:0:
420,189,46222,6,0,B|337:172|354:240|252:203,1,175,8|8,3:0|0:0,0:0:0:0:
165,214,47376,1,0,0:0:0:0:
177,39,47761,1,0,1:0:0:0:
22,120,48145,1,0,1:0:0:0:
202,133,48530,2,0,L|288:122,2,87.5,8|0|8,3:0|0:0|3:0,0:0:0:0:
88,316,50068,6,0,L|1:326,2,87.5,0|0|0,0:0|0:0|1:0,0:0:0:0:
107,140,51222,1,0,1:0:0:0:
272,216,51607,1,8,3:0:0:0:
