osu file format v14

[General]
AudioFilename: audio.mp3
AudioLeadIn: 0
PreviewTime: 26799
Countdown: 0
SampleSet: Soft
StackLeniency: 0.7
Mode: 2
LetterboxInBreaks: 0
WidescreenStoryboard: 1

[Editor]
DistanceSpacing: 1.6
BeatDivisor: 4
GridSize: 8
TimelineZoom: 1

[Metadata]
Title:walls
TitleUnicode:walls
Artist:sapientdream
ArtistUnicode:sapientdream
Creator:Nelly
Version:salad
Source:
Tags:lofi lo-fi walshy
BeatmapID:2066771
BeatmapSetID:987933

[Difficulty]
HPDrainRate:5
CircleSize:3.5
OverallDifficulty:6
ApproachRate:6
SliderMultiplier:1.9
SliderTickRate:2

[Events]
//Background and Video events
0,0,"bg.jpg",0,0
//Break Periods
//Storyboard Layer 0 (Background)
//Storyboard Layer 1 (Fail)
//Storyboard Layer 2 (Pass)
//Storyboard Layer 3 (Foreground)
//Storyboard Sound Samples

[TimingPoints]
3146,769.230769230769,4,2,0,18,1,0
27761,-100,4,2,0,22,0,1
50838,-100,4,2,0,14,0,1
51222,-100,4,2,0,10,0,1
51607,-100,4,2,0,8,0,0

[Colours]
Combo1 : 152,143,201
Combo2 : 206,138,206

[HitObjects]
193,283,3146,6,0,L|383:280,1,190,2|0,2:0|0:0,0:0:0:0:
97,136,4299,2,0,P|62:157|102:277,1,190,0|2,2:1|0:0,0:0:0:0:
248,275,5453,1,0,0:0:0:0:
96,275,5838,1,0,0:0:0:0:
360,62,6222,5,2,0:0:0:0:
224,72,6607,1,0,0:0:0:0:
88,153,6992,1,0,0:0:0:0:
224,163,7377,1,0,0:0:0:0:
376,167,7761,2,0,L|472:170,1,95,0|2,0:0|0:0,0:0:0:0:
301,325,8530,2,0,L|397:328,1,95,0|0,0:0|0:0,0:0:0:0:
120,48,9299,6,0,P|65:117|119:187,1,190,2|0,0:0|0:0,0:0:0:0:
386,186,10453,2,0,L|197:188,1,190,0|2,0:0|2:0,0:0:0:0:
305,93,11607,2,0,L|403:97,1,95
90,331,12376,6,0,P|80:291|175:195,1,190,2|0,0:0|0:0,0:0:0:0:
431,98,13530,2,0,L|242:96,1,190,0|2,0:0|2:0,0:0:0:0:
111,197,14684,2,0,L|106:102,1,95
408,341,15453,6,0,P|431:276|351:201,1,190,2|0,0:0|0:0,0:0:0:0:
77,183,16607,2,0,P|24:113|79:44,1,190,0|2,0:0|0:0,0:0:0:0:
222,43,17761,2,0,L|320:45,1,95,0|0,0:0|0:0,0:0:0:0:
45,348,18530,6,0,L|42:250,1,95,2|0,0:0|0:0,0:0:0:0:
231,240,19299,2,0,L|234:142,1,95,0|0,0:0|0:0,0:0:0:0:
424,315,20069,2,0,L|421:217,1,95,0|2,0:0|0:0,0:0:0:0:
234,145,20838,2,0,L|139:142,1,95,0|0,0:0|0:0,0:0:0:0:
429,30,21607,6,0,P|484:98|431:169,1,190,2|0,0:0|0:0,0:0:0:0:
153,179,22761,2,0,L|342:177,1,190,0|2,0:0|2:0,0:0:0:0:
200,81,23915,2,0,L|105:80,1,95,0|0,0:0|0:0,0:0:0:0:
387,305,24684,6,0,P|407:262|318:176,1,190,2|2,0:0|2:0,0:0:0:0:
139,172,25838,2,0,P|71:108|117:41,1,190,2|2,0:0|0:0,0:0:0:0:
272,41,26992,1,0,0:0:0:0:
115,41,27376,1,0,0:0:0:0:
398,248,27761,6,0,L|402:153,1,95,8|0,0:0|0:0,0:0:0:0:
217,254,28530,2,0,L|212:159,1,95,8|0,0:0|0:0,0:0:0:0:
353,142,29299,1,0,1:0:0:0:
495,130,29684,1,0,1:0:0:0:
226,57,30069,2,0,L|323:59,1,95,8|0,3:0|0:0,0:0:0:0:
35,334,30838,6,0,L|30:240,1,95,8|0,3:0|0:0,0:0:0:0:
296,208,31607,2,0,L|390:211,1,95,8|0,0:0|0:0,0:0:0:0:
201,184,32376,2,0,L|196:90,1,95,0|0,1:0|1:0,0:0:0:0:
351,48,33145,2,0,L|445:45,1,95,8|0,3:0|0:0,0:0:0:0:
121,44,33915,6,0,P|66:112|119:183,1,190,8|8,3:0|0:0,0:0:0:0:
275,193,35069,2,0,L|279:97,1,95,0|0,0:0|1:0,0:0:0:0:
87,299,35838,2,0,L|182:302,2,95,0|8|0,1:0|3:0|0:0,0:0:0:0:
378,25,36992,6,0,P|434:35|499:143,1,190,8|8,3:0|0:0,0:0:0:0:
320,193,38146,2,0,L|225:190,2,95,0|0|0,0:0|1:0|0:0,0:0:0:0:
30,308,39299,2,0,L|125:305,1,95,8|0,3:0|0:0,0:0:0:0:
415,314,40069,6,0,L|403:218,1,95,8|0,0:0|0:0,0:0:0:0:
217,164,40838,2,0,L|122:159,1,95,8|0,0:0|0:0,0:0:0:0:
280,61,41607,1,0,1:0:0:0:
122,58,41992,1,0,1:0:0:0:
396,250,42376,2,0,L|336:325,1,95,8|0,3:0|0:0,0:0:0:0:
32,49,43145,6,0,L|28:148,1,95,8|0,0:0|0:0,0:0:0:0:
287,216,43915,2,0,L|383:211,1,95,8|0,0:0|0:0,0:0:0:0:
181,123,44684,2,0,L|275:125,1,95,0|0,1:0|1:0,0:0:0:0:
428,307,45453,2,0,L|334:309,1,95,8|0,3:0|0:0,0:0:0:0:
28,260,46222,6,0,P|17:192|105:126,1,190,8|8,3:0|0:0,0:0:0:0:
273,121,47376,1,0,0:0:0:0:
105,126,47761,2,0,L|101:225,1,95,0|0,1:0|1:0,0:0:0:0:
268,300,48530,2,0,L|170:303,1,95,8|0,3:0|0:0,0:0:0:0:
468,302,49299,6,0,L|476:206,1,95,8|0,3:0|0:0,0:0:0:0:
344,132,50069,1,0,0:0:0:0:
202,122,50453,2,0,L|107:126,2,95,0|0|0,0:0|1:0|1:0,0:0:0:0:
370,55,51607,1,8,3:0:0:0:
