osu file format v14

[General]
AudioFilename: audio.mp3
AudioLeadIn: 0
PreviewTime: 26799
Countdown: 0
SampleSet: Soft
StackLeniency: 0.7
Mode: 2
LetterboxInBreaks: 0
WidescreenStoryboard: 1

[Editor]
DistanceSpacing: 1.7
BeatDivisor: 4
GridSize: 8
TimelineZoom: 1

[Metadata]
Title:walls
TitleUnicode:walls
Artist:sapientdream
ArtistUnicode:sapientdream
Creator:Nelly
Version:cup
Source:
Tags:lofi lo-fi walshy
BeatmapID:2066770
BeatmapSetID:987933

[Difficulty]
HPDrainRate:4
CircleSize:2.5
OverallDifficulty:5
ApproachRate:5
SliderMultiplier:1.6
SliderTickRate:1

[Events]
//Background and Video events
0,0,"bg.jpg",0,0
//Break Periods
//Storyboard Layer 0 (Background)
//Storyboard Layer 1 (Fail)
//Storyboard Layer 2 (Pass)
//Storyboard Layer 3 (Foreground)
//Storyboard Sound Samples

[TimingPoints]
3146,769.230769230769,4,2,0,18,1,0
27761,-100,4,2,0,22,0,1
50838,-100,4,2,0,14,0,1
51222,-100,4,2,0,10,0,1
51607,-100,4,2,0,8,0,0

[Colours]
Combo1 : 152,143,201
Combo2 : 206,138,206

[HitObjects]
103,291,3146,6,0,L|265:289,1,160,2|0,2:0|0:0,0:0:0:0:
374,287,4299,1,0,2:1:0:0:
191,29,5069,1,2,0:0:0:0:
88,43,5453,2,0,L|84:123,1,80,0|0,0:0|0:0,0:0:0:0:
195,195,6222,6,0,L|359:192,1,160,2|0,0:0|0:0,0:0:0:0:
242,296,7376,2,0,L|78:293,1,160,0|2,0:0|0:0,0:0:0:0:
423,328,9299,6,0,P|461:313|423:230,1,160,2|0,0:0|0:0,0:0:0:0:
310,229,10453,1,0,0:0:0:0:
156,224,11222,2,0,L|77:220,2,80,2|0|0,2:0|0:0|0:0,0:0:0:0:
269,224,12376,6,0,P|277:182|178:96,1,160,2|0,0:0|0:0,0:0:0:0:
95,98,13530,1,0,0:0:0:0:
296,58,14299,1,2,2:0:0:0:
405,79,14684,2,0,L|409:159,1,80,0|0,0:0|0:0,0:0:0:0:
297,260,15453,6,0,L|135:258,1,160,2|0,0:0|0:0,0:0:0:0:
26,256,16606,1,0,0:0:0:0:
195,78,17376,1,2,0:0:0:0:
291,78,17761,2,0,L|389:80,1,80,0|0,0:0|0:0,0:0:0:0:
258,184,18530,6,0,L|96:177,1,160,2|0,0:0|0:0,0:0:0:0:
210,294,19684,2,0,L|372:287,1,160,0|2,0:0|0:0,0:0:0:0:
89,328,21607,6,0,P|51:313|89:230,1,160,2|0,0:0|0:0,0:0:0:0:
202,229,22761,1,0,0:0:0:0:
356,224,23530,2,0,L|435:220,2,80,2|0|0,2:0|0:0|0:0,0:0:0:0:
243,224,24684,6,0,P|235:182|334:96,1,160,2|2,0:0|2:0,0:0:0:0:
417,98,25838,1,0,0:0:0:0:
216,58,26607,1,2,0:0:0:0:
107,79,26992,2,0,L|103:159,1,80,0|0,0:0|0:0,0:0:0:0:
227,167,27761,6,0,L|389:163,1,160,8|8,3:0|0:0,0:0:0:0:
249,267,28915,2,0,L|168:265,2,80,0|0|0,0:0|1:0|1:0,0:0:0:0:
375,164,30069,2,0,L|294:162,1,80,8|0,3:0|0:0,0:0:0:0:
168,50,30838,6,0,P|122:51|52:131,1,160,8|8,3:0|0:0,0:0:0:0:
207,227,31992,2,0,L|288:225,2,80,0|0|0,0:0|1:0|1:0,0:0:0:0:
63,230,33145,2,0,L|144:233,1,80,8|0,3:0|0:0,0:0:0:0:
325,333,33915,6,0,L|165:339,1,160,8|8,3:0|0:0,0:0:0:0:
316,355,35069,2,0,L|320:275,1,80,0|0,0:0|1:0,0:0:0:0:
170,250,35838,2,0,L|166:170,1,80,0|8,1:0|3:0,0:0:0:0:
294,134,36607,1,0,0:0:0:0:
430,38,36992,6,0,L|270:32,1,160,8|8,3:0|0:0,0:0:0:0:
390,126,38145,2,0,L|470:123,2,80,0|0|0,0:0|1:0|0:0,0:0:0:0:
246,215,39299,2,0,L|325:217,1,80,8|0,3:0|0:0,0:0:0:0:
470,340,40069,6,0,L|310:334,1,160,8|8,3:0|0:0,0:0:0:0:
166,323,41222,2,0,L|86:320,2,80,0|0|0,0:0|1:0|1:0,0:0:0:0:
316,223,42376,2,0,L|236:226,1,80,8|0,3:0|0:0,0:0:0:0:
86,232,43145,6,0,P|84:188|168:116,1,160,8|8,3:0|0:0,0:0:0:0:
293,108,44299,1,0,0:0:0:0:
408,106,44684,1,0,1:0:0:0:
416,217,45069,1,0,1:0:0:0:
286,225,45453,1,8,3:0:0:0:
40,33,46222,6,0,L|200:27,1,160,8|8,3:0|0:0,0:0:0:0:
89,137,47376,2,0,L|9:134,2,80,0|0|0,0:0|1:0|1:0,0:0:0:0:
235,226,48530,2,0,L|156:228,1,80,8|0,3:0|0:0,0:0:0:0:
309,324,49299,6,0,L|469:330,1,160,8|0,3:0|0:0,0:0:0:0:
323,223,50453,2,0,L|317:143,1,80,0|0,0:0|1:0,0:0:0:0:
465,146,51222,2,0,L|471:66,1,80,0|8,1:0|3:0,0:0:0:0:
