osu file format v14

[General]
AudioFilename: audio.mp3
AudioLeadIn: 0
PreviewTime: 44875
Countdown: 0
SampleSet: Soft
StackLeniency: 0.2
Mode: 0
LetterboxInBreaks: 0
WidescreenStoryboard: 1

[Editor]
Bookmarks: 11513,22547,39358,39829,40651,44961,67029,72547,78064,83581,89443,94271,100478,105305,110822,132891,154961,182892,204960,210133,214960,220823,227374,232202,237719,248753,303334
DistanceSpacing: 0.8
BeatDivisor: 16
GridSize: 16
TimelineZoom: 2.899999

[Metadata]
Title:last minute (sakuraburst remix)
TitleUnicode:last minute (sakuraburst remix)
Artist:sanj
ArtistUnicode:sanj
Creator:ScubDomino
Version:the nature of withering
Source:
Tags:dnb drum and n bass early discography neurofunk sanjaux sanjaudio WWWsounds w-w-w-collective vol.1 anime girl anime_girl celektus edgy sakura_burst flatline
BeatmapID:1705176
BeatmapSetID:813036

[Difficulty]
HPDrainRate:5.5
CircleSize:4
OverallDifficulty:8.5
ApproachRate:9.3
SliderMultiplier:2.5
SliderTickRate:0.5

[Events]
//Background and Video events
0,0,"IGUKRZDQ.jpeg",0,0
//Break Periods
//Storyboard Layer 0 (Background)
//Storyboard Layer 1 (Fail)
//Storyboard Layer 2 (Pass)
//Storyboard Layer 3 (Foreground)
//Storyboard Sound Samples

[TimingPoints]
479,344.827586206897,4,2,3,30,1,0
479,-1000,4,2,3,30,0,0
1858,-100,4,2,3,5,0,0
2547,-100,4,2,3,10,0,0
3237,-100,4,2,3,15,0,0
3927,-100,4,2,3,20,0,0
4616,-100,4,2,3,25,0,0
5306,-100,4,2,3,30,0,0
7892,-1000,4,2,99,5,0,0
7979,-1000,4,2,3,5,0,0
8151,-1000,4,2,3,10,0,0
8323,-1000,4,2,3,15,0,0
8496,-1000,4,2,3,20,0,0
8668,-1000,4,2,3,23,0,0
8841,-1000,4,2,3,25,0,0
9013,-1000,4,2,3,28,0,0
9185,-1000,4,2,3,30,0,0
9358,-1000,4,2,3,33,0,0
9530,-1000,4,2,3,35,0,0
9703,-1000,4,2,3,38,0,0
9875,-1000,4,2,3,40,0,0
10047,-1000,4,2,3,43,0,0
10220,-1000,4,2,3,45,0,0
10392,-1000,4,2,3,48,0,0
10565,-1000,4,2,3,50,0,0
10737,-1000,4,2,3,53,0,0
10910,-1000,4,2,3,55,0,0
11082,-1000,4,2,3,58,0,0
11341,-1000,4,2,3,60,0,0
11513,-285.714285714284,4,2,3,30,0,0
21858,-66.6666666666667,4,2,3,60,0,1
22547,-400,4,2,3,40,0,0
25306,-285.714285714286,4,2,3,40,0,0
28065,-100,4,2,3,40,0,0
32892,-1000,4,2,3,40,0,0
33582,-100,4,2,3,40,0,0
39099,-66.6666666666667,4,2,3,40,0,0
39616,-100,4,2,3,40,0,0
39789,-66.6666666666667,4,2,3,40,0,0
40392,-100,4,2,3,40,0,0
41858,-250,4,2,3,50,0,0
43927,-285.714285714284,4,2,3,50,0,0
44530,-1000,4,2,3,50,0,0
44961,344.827586206897,4,2,3,65,1,1
44961,-66.6666666666667,4,2,3,65,0,1
45047,-66.6666666666667,4,2,3,65,0,0
45305,-500,4,2,3,65,0,0
46685,-214.285717346939,4,2,3,65,0,0
47029,-500,4,2,3,65,0,0
47374,-142.857142857143,4,2,3,65,0,0
47547,-100,4,2,3,65,0,0
47719,-66.6666666666667,4,2,3,65,0,0
48064,-500,4,2,3,65,0,0
49444,-214.285717346939,4,2,3,65,0,0
49788,-500,4,2,3,65,0,0
50133,-133.333333333333,4,2,3,65,0,0
50478,-66.6666666666667,4,2,3,65,0,0
50823,-333.333333333333,4,2,3,65,0,0
52202,-142.857142857143,4,2,3,65,0,0
52892,-500,4,2,3,65,0,0
52978,-500,4,2,3,10,0,0
53236,-100,4,2,3,12,0,0
53581,-100,4,2,3,14,0,0
53926,-71.4285714285714,4,2,3,16,0,0
54271,-66.6666666666667,4,2,3,18,0,0
54616,-55.5555555555556,4,2,3,20,0,0
54961,-50,4,2,3,50,0,0
55047,-133.333333333333,4,2,3,50,0,0
55305,-66.6666666666667,4,2,3,50,0,0
55650,-500,4,2,3,50,0,0
55995,-133.333333333333,4,2,3,50,0,1
56017,-133.333333333333,4,2,3,50,0,0
56340,-105.263157894737,4,2,3,50,0,0
56685,-86.9565217391303,4,2,3,50,0,0
57029,-74.0740740740741,4,2,3,50,0,0
57374,-64.5161290322581,4,2,3,50,0,0
57719,-57.1428571428571,4,2,3,50,0,0
58064,-500,4,2,3,50,0,0
58409,-66.6666666666667,4,2,3,50,0,0
58754,-133.333333333333,4,2,3,55,0,1
58775,-133.333333333333,4,2,3,55,0,0
59099,-105.263157894737,4,2,3,55,0,0
59444,-86.9565217391303,4,2,3,55,0,0
59788,-74.0740740740741,4,2,3,55,0,0
60133,-64.5161290322581,4,2,3,55,0,0
60478,-57.1428571428571,4,2,3,55,0,0
60823,-1000,4,2,3,55,0,0
60909,-1000,4,2,3,30,0,0
61512,-34.4827586206897,4,2,3,60,0,1
61534,-34.4827586206897,4,2,3,60,0,0
61664,-37.037037037037,4,2,3,60,0,0
61836,-40,4,2,3,60,0,0
61857,-40,4,2,3,50,0,0
62008,-43.4782608695652,4,2,3,50,0,0
62181,-47.6190476190476,4,2,3,50,0,0
62202,-47.6190476190476,4,2,3,40,0,0
62353,-52.6315789473684,4,2,3,40,0,0
62526,-58.8235294117647,4,2,3,40,0,0
62547,-58.8235294117647,4,2,3,30,0,0
62698,-66.6666666666667,4,2,3,30,0,0
62892,-66.6666666666667,4,2,3,20,0,0
62978,-66.6666666666667,4,2,3,25,0,0
63064,-66.6666666666667,4,2,3,30,0,0
63150,-66.6666666666667,4,2,3,35,0,0
63236,-66.6666666666667,4,2,3,40,0,0
63323,-66.6666666666667,4,2,3,45,0,0
63409,-66.6666666666667,4,2,3,50,0,0
63495,-66.6666666666667,4,2,3,55,0,0
63581,-66.6666666666667,4,2,3,60,0,0
63926,-500,4,2,3,60,0,0
64012,-500,4,2,3,15,0,0
64270,-100,4,2,3,15,0,0
64271,-100,4,2,3,20,0,0
64616,-100,4,2,3,15,0,0
64961,-100,4,2,3,10,0,0
65305,-100,4,2,3,15,0,0
65650,-100,4,2,3,20,0,0
65995,-100,4,2,3,60,0,0
66685,344.827586206897,4,2,3,60,1,0
67029,-66.6666666666667,4,2,3,60,0,1
67719,-66.6666666666667,4,2,3,60,0,0
76685,-66.6666666666667,4,2,3,60,0,1
77029,-100,4,2,3,60,0,1
78064,-66.6666666666667,4,2,3,60,0,0
87374,-100,4,2,3,60,0,0
87719,-100,4,2,3,60,0,1
88064,-166.666666666667,4,2,3,60,0,1
89098,-100,4,2,3,60,0,1
89443,-66.6666666666667,4,2,3,60,0,0
93926,-100,4,2,3,60,0,0
94271,-100,4,2,3,60,0,1
94788,-66.6666666666667,4,2,3,60,0,0
99788,-100,4,2,3,60,0,1
100478,-66.6666666666667,4,2,3,60,0,0
105305,-100,4,2,3,60,0,1
105995,-66.6666666666667,4,2,3,60,0,0
110822,-1000,4,2,3,30,0,0
111512,-666.666666666667,4,2,3,30,0,0
112202,-500,4,2,3,30,0,0
112891,-400,4,2,3,30,0,0
113581,-333.333333333333,4,2,3,30,0,0
114271,-400,4,2,3,30,0,0
114960,-500,4,2,3,30,0,0
115650,-666.666666666667,4,2,3,30,0,0
116340,-1000,4,2,3,30,0,0
117029,-666.666666666667,4,2,3,30,0,0
117719,-500,4,2,3,30,0,0
118409,-400,4,2,3,30,0,0
119099,-333.333333333333,4,2,3,30,0,0
119788,-400,4,2,3,30,0,0
120478,-500,4,2,3,30,0,0
121167,-666.666666666667,4,2,3,30,0,0
121857,-500,4,2,3,45,0,0
123236,-285.714285714286,4,2,3,45,0,0
127374,-181.818181818182,4,2,3,45,0,0
130133,-133.333333333333,4,2,3,45,0,0
130822,-133.333333333333,4,2,3,35,0,0
131512,-133.333333333333,4,2,3,25,0,0
132202,-133.333333333333,4,2,3,15,0,0
132891,-333.333333333333,4,2,3,40,0,0
134271,-400,4,2,3,40,0,0
135650,-500,4,2,3,40,0,0
138409,-333.333333333333,4,2,3,40,0,0
139789,377.358490566038,4,2,3,40,1,0
139789,-400,4,2,3,40,0,0
140543,312.5,4,2,3,40,1,0
141168,344.827586206897,4,2,3,40,1,0
141168,-500,4,2,3,40,0,0
143926,-333.333333333333,4,2,3,40,0,0
145306,-400,4,2,3,40,0,0
146685,-500,4,2,3,40,0,0
149443,-333.333333333333,4,2,3,40,0,0
150823,379.746835443038,4,2,3,30,1,0
150823,-400,4,2,3,30,0,0
151582,310.880829015544,4,2,3,30,1,0
152203,344.827586206897,4,2,3,45,1,0
153582,-333.333333333333,4,2,3,45,0,0
154961,-333.333333333333,4,2,3,40,0,0
155651,-333.333333333333,4,2,99,40,0,0
155672,-333.333333333333,4,2,3,40,0,0
157720,-400,4,2,3,40,0,0
159099,-1000,4,2,3,40,0,0
160478,-333.333333333333,4,2,3,40,0,0
161858,-377.358490566038,4,2,3,40,0,0
162547,-333.333333333333,4,2,99,40,0,0
162568,-333.333333333333,4,2,3,40,0,0
163237,-377.358490566038,4,2,3,40,0,0
165996,-333.333333333333,4,2,3,40,0,0
167375,-400,4,2,3,40,0,0
168754,-500,4,2,3,40,0,0
171513,-666.666666666667,4,2,3,40,0,0
172892,-750.001875004687,4,2,3,40,0,0
173582,-333.333333333333,4,2,99,40,0,0
173603,-333.333333333333,4,2,3,40,0,0
174271,-500,4,2,3,40,0,0
174961,-333.333333333333,4,2,99,40,0,0
174982,-333.333333333333,4,2,3,40,0,0
177030,-1000,4,2,3,40,0,0
179875,-1000,4,2,99,5,0,0
179896,-1000,4,2,3,40,0,0
182526,-1000,4,2,99,5,0,0
182547,-100,4,2,3,40,0,0
182634,-1000,4,2,3,40,0,0
182892,344.827586206897,4,2,3,60,1,0
182892,-66.6666666666667,4,2,3,60,0,0
183236,-333.333333333333,4,2,3,60,0,0
184616,-142.857142857143,4,2,3,60,0,0
184960,-500,4,2,3,60,0,0
185305,-142.857142857143,4,2,3,60,0,0
185478,-100,4,2,3,60,0,0
185650,-66.6666666666667,4,2,3,60,0,0
185994,-333.333333333333,4,2,3,60,0,0
187374,-142.857142857143,4,2,3,60,0,0
188064,-33.3333333333333,4,2,3,60,0,0
188409,-66.6666666666667,4,2,3,60,0,0
188754,-333.333333333333,4,2,3,60,0,0
190133,-142.857142857143,4,2,3,60,0,0
190823,-500,4,2,3,60,0,0
190909,-500,4,2,3,10,0,0
191167,-100,4,2,3,50,0,0
191254,-100,4,2,3,12,0,0
191512,-100,4,2,3,14,0,0
191857,-66.6666666666667,4,2,3,50,0,0
191943,-66.6666666666667,4,2,3,16,0,0
192202,-66.6666666666667,4,2,3,18,0,0
192547,-50,4,2,3,50,0,0
192633,-50,4,2,3,20,0,0
192892,-50,4,2,3,50,0,0
192978,-133.333333333333,4,2,3,50,0,0
193236,-66.6666666666667,4,2,3,50,0,0
193581,-500,4,2,3,50,0,0
193926,-133.333333333333,4,2,3,50,0,0
194271,-105.263157894737,4,2,3,50,0,0
194616,-86.9565217391303,4,2,3,50,0,0
194960,-74.0740740740741,4,2,3,50,0,0
195305,-64.5161290322581,4,2,3,50,0,0
195650,-57.1428571428571,4,2,3,50,0,0
195995,-500,4,2,3,50,0,0
196340,-66.6666666666667,4,2,3,50,0,0
196685,-133.333333333333,4,2,3,50,0,0
197030,-105.263157894737,4,2,3,50,0,0
197375,-86.9565217391303,4,2,3,50,0,0
197719,-74.0740740740741,4,2,3,50,0,0
198064,-64.5161290322581,4,2,3,50,0,0
198409,-57.1428571428571,4,2,3,50,0,0
198754,-1000,4,2,3,50,0,0
198840,-1000,4,2,3,40,0,0
199098,-100,4,2,3,40,0,0
199443,-34.4827586206897,4,2,3,50,0,0
199616,-37.037037037037,4,2,3,50,0,0
199788,-40,4,2,3,50,0,0
199960,-43.4782608695652,4,2,3,50,0,0
200133,-47.6190476190476,4,2,3,40,0,0
200305,-52.6315789473684,4,2,3,40,0,0
200478,-58.8235294117647,4,2,3,30,0,0
200650,-66.6666666666667,4,2,3,30,0,0
200823,-66.6666666666667,4,2,3,20,0,0
200909,-66.6666666666667,4,2,3,25,0,0
200995,-66.6666666666667,4,2,3,30,0,0
201081,-66.6666666666667,4,2,3,35,0,0
201167,-66.6666666666667,4,2,3,40,0,0
201254,-66.6666666666667,4,2,3,45,0,0
201340,-66.6666666666667,4,2,3,50,0,0
201426,-66.6666666666667,4,2,3,55,0,0
201512,-66.6666666666667,4,2,3,60,0,0
201857,-500,4,2,3,60,0,0
201943,-500,4,2,3,15,0,0
202201,-100,4,2,3,15,0,0
202202,-100,4,2,3,20,0,0
202547,-100,4,2,3,15,0,0
202892,-100,4,2,3,10,0,0
203236,-100,4,2,3,15,0,0
203581,-100,4,2,3,20,0,0
203926,-100,4,2,3,60,0,0
204616,344.827586206897,4,2,3,60,1,0
204960,-66.6666666666667,4,2,3,60,0,1
205650,-66.6666666666667,4,2,3,60,0,0
214616,-66.6666666666667,4,2,3,60,0,1
214960,-100,4,2,3,60,0,1
215995,-66.6666666666667,4,2,3,60,0,0
225305,-100,4,2,3,60,0,0
225650,-100,4,2,3,60,0,1
225995,-166.666666666667,4,2,3,60,0,1
227029,-100,4,2,3,60,0,1
227374,-66.6666666666667,4,2,3,60,0,0
232202,-100,4,2,3,60,0,1
232719,-66.6666666666667,4,2,3,60,0,0
237719,-100,4,2,3,60,0,1
238409,-66.6666666666667,4,2,3,60,0,0
243236,-100,4,2,3,60,0,1
243926,-66.6666666666667,4,2,3,60,0,0
248409,-66.6666666666667,4,2,3,60,0,1
248753,-1000,4,2,3,30,0,0
249443,-666.666666666667,4,2,3,30,0,0
250133,-500,4,2,3,30,0,0
250822,-400,4,2,3,30,0,0
251512,-333.333333333333,4,2,3,30,0,0
252202,-400,4,2,3,30,0,0
252891,-500,4,2,3,30,0,0
253581,-666.666666666667,4,2,3,30,0,0
254271,-1000,4,2,3,30,0,0
254960,-666.666666666667,4,2,3,30,0,0
255650,-500,4,2,3,30,0,0
256340,-400,4,2,3,30,0,0
257029,-333.333333333333,4,2,3,30,0,0
257719,-400,4,2,3,30,0,0
258409,-500,4,2,3,30,0,0
259098,-666.666666666667,4,2,3,30,0,0
259788,-500,4,2,3,40,0,0
261167,-285.714285714286,4,2,3,40,0,0
265305,-181.818181818182,4,2,3,40,0,0
268064,-133.333333333333,4,2,3,40,0,0
270822,574.162679425837,4,2,3,30,1,0
270822,-181.818181818181,4,2,3,30,0,0
271971,851.063829787234,4,2,3,30,1,0
271971,-285.714285714284,4,2,3,30,0,0
275375,631.578947368421,4,2,3,30,1,0
275375,-285.714285714284,4,2,3,30,0,0
276006,576.923076923077,4,2,3,30,1,0
276006,-500,4,2,3,30,0,0
276582,342.857142857143,4,2,3,30,1,0
276654,681.818181818182,4,2,3,30,1,0
276654,-181.818181818181,4,2,3,30,0,0
278030,540.540540540541,4,2,3,30,1,0
278097,779.220779220779,4,2,3,30,1,0
278097,-181.818181818181,4,2,3,30,0,0
279655,465.116279069767,4,2,3,30,1,0
279693,960,4,2,3,30,1,0
279693,-181.818181818181,4,2,3,30,0,0
281633,863.309352517986,4,2,3,30,1,0
285086,400,4,2,3,30,1,0
285186,447.761194029851,4,2,3,30,1,0
285186,-181.818181818181,4,2,3,30,0,0
285633,673.400673400673,4,2,3,30,1,0
286306,514.13881748072,4,2,3,30,1,0
286306,-363.636363636364,4,2,3,30,0,0
287334,600,4,2,3,30,1,0
287934,340.909090909091,4,2,3,30,1,0
288019,456.62100456621,4,2,3,30,1,0
289845,458.015267175573,4,2,3,30,1,0
289845,-285.714285714284,4,2,3,30,0,0
290761,387.096774193548,4,2,3,30,1,0
291536,428.571428571429,4,2,3,30,1,0
291643,606.060606060606,4,2,3,30,1,0
291794,392.156862745098,4,2,3,30,1,0
291990,662.983425414365,4,2,3,30,1,0
292002,-285.714285714284,4,2,3,30,0,0
293743,666.666666666667,4,2,3,30,1,0
293753,-1000,4,2,3,30,0,0
298326,-1000,4,2,99,5,0,0
298419,677.966101694915,4,2,3,30,1,0
298419,-166.666666666667,4,2,3,30,0,0
303164,681.818181818182,4,2,3,30,1,0
303164,-166.666666666667,4,2,3,30,0,0
304527,722.89156626506,4,2,3,30,1,0
306695,600,4,2,3,30,1,0
307816,794.176042356056,4,2,3,30,1,0
307882,-293.255131964809,4,2,3,30,0,0
308697,769.230769230769,4,2,3,30,1,0
309278,937.5,4,2,3,30,1,0
309519,1052.63157894736,4,2,3,30,1,0
309798,967.741935483873,4,2,3,30,1,0
310059,769.230769230769,4,2,3,30,1,0
310440,882.352941176471,4,2,3,30,1,0
310440,-333.333333333333,4,2,3,30,0,0
310912,677.966101694915,4,2,3,30,1,0
310912,-331.12582781457,4,2,3,30,0,0
311012,677.966101694915,4,2,3,30,1,0
314979,1379.31034482759,4,2,3,30,1,0
320410,-100,4,2,99,5,0,0
320496,-1000,4,2,3,50,0,1
320582,-1000,4,2,3,50,0,0
320668,-1000,4,2,3,50,0,1
320754,-1000,4,2,3,50,0,0
320841,-1000,4,2,3,50,0,1
320927,-1000,4,2,3,50,0,0
321013,-1000,4,2,3,50,0,1
321099,-1000,4,2,3,50,0,0
321185,-1000,4,2,3,50,0,1
321272,-1000,4,2,3,50,0,0
321358,-1000,4,2,3,50,0,1
321444,-1000,4,2,3,50,0,0
321530,-1000,4,2,3,50,0,1
321616,-1000,4,2,3,50,0,0
321703,-1000,4,2,3,50,0,1
321789,-1000,4,2,3,50,0,0
321875,-1000,4,2,3,50,0,1
321961,-1000,4,2,3,50,0,0
322047,-1000,4,2,3,50,0,1
322134,-1000,4,2,3,50,0,0
322220,-1000,4,2,3,50,0,1
322306,-1000,4,2,3,50,0,0
322392,-1000,4,2,3,50,0,1
322479,-1000,4,2,3,50,0,0
322565,-1000,4,2,3,50,0,1
322651,-1000,4,2,3,50,0,0
322737,-1000,4,2,3,50,0,1
322823,-1000,4,2,3,50,0,0
322910,-1000,4,2,3,50,0,1
322996,-1000,4,2,3,50,0,0
323082,-1000,4,2,3,50,0,1
323168,-1000,4,2,3,50,0,0
323254,-1000,4,2,99,50,0,1
323341,-1000,4,2,3,50,0,0
323427,-1000,4,2,3,50,0,1
323513,-1000,4,2,3,50,0,0
323599,-1000,4,2,3,50,0,1
323685,-1000,4,2,3,50,0,0
323772,-1000,4,2,3,50,0,1
323858,-1000,4,2,3,50,0,0
323944,-1000,4,2,3,50,0,1
324030,-1000,4,2,99,5,0,0

[Colours]
Combo1 : 183,135,106
Combo2 : 193,168,164
Combo3 : 137,139,163
Combo4 : 138,165,122

[HitObjects]
254,106,479,6,0,P|256:278|256:106,1,537.5,6|0,0:2|0:0,0:1:0:0:
256,192,8065,12,0,11341,2:3:0:0:
135,371,11513,6,0,L|190:363,1,43.749998664856,4|0,3:2|0:0,0:0:0:0:
178,364,11772,2,0,L|163:397,1,21.874999332428,0|2,3:1|0:1,0:0:0:0:
67,305,12030,2,0,L|-7:295,2,65.624997997284,0|0|2,3:0|3:0|3:1,0:0:0:0:
195,291,12806,2,0,P|172:263|144:249,3,65.624997997284,0|0|0|0,3:0|3:0|3:1|3:0,0:0:0:0:
256,383,13841,5,0,3:0:0:0:
256,383,13927,2,0,L|256:361,3,21.874999332428,2|2|0|2,0:1|1:3|3:1|1:3,0:0:0:0:
377,371,14272,6,0,L|322:363,1,43.749998664856,0|0,3:0|0:0,0:0:0:0:
333,364,14531,2,0,L|347:397,1,21.874999332428,0|2,3:1|0:1,0:0:0:0:
445,305,14789,2,0,L|519:295,2,65.624997997284,0|0|2,3:0|3:0|3:1,0:0:0:0:
317,291,15565,2,0,P|339:263|367:249,3,65.624997997284,0|0|0|0,3:0|3:0|3:1|3:0,0:0:0:0:
256,362,16600,5,0,3:0:0:0:
256,362,16686,2,0,L|256:383,2,21.874999332428,2|0|0,0:1|0:0|3:1,0:0:0:0:
256,224,17030,6,0,L|256:144,1,65.624997997284,4|0,3:2|3:1,0:0:0:0:
256,64,17547,5,0,3:0:0:0:
256,160,17806,1,0,3:0:0:0:
297,88,18065,5,0,3:1:0:0:
214,135,18324,1,0,3:0:0:0:
297,135,18582,5,0,3:0:0:0:
214,87,18841,1,0,3:1:0:0:
256,160,19099,5,0,3:0:0:0:
192,240,19358,2,0,L|217:240,1,21.874999332428,0|2,3:0|0:1,0:0:0:0:
298,240,19530,2,0,L|320:240,2,21.874999332428,2|0|2,1:3|3:1|1:3,0:0:0:0:
256,304,19789,6,0,L|256:336,1,21.874999332428,0|0,3:0|0:0,0:0:0:0:
322,377,20047,5,0,3:1:0:0:
392,351,20306,1,0,3:0:0:0:
450,293,20565,5,0,3:0:0:0:
483,205,20823,1,0,3:1:0:0:
467,100,21082,5,0,3:0:0:0:
384,15,21341,1,0,3:0:0:0:
256,0,21599,5,0,3:1:0:0:
208,288,21858,6,0,B|208:272|208:272|223:257|223:257|223:329|223:329|215:337|215:337|127:337|127:337|119:329|119:329|119:249|119:249|151:217|151:217|151:137|151:137|143:129|143:129|143:65|143:65|151:57|151:57|199:57|199:57|207:65|207:65|207:97|207:97|199:105|199:105|157:105,1,656.250025033952,6|0,3:1|0:0,0:0:0:0:
159,81,22547,6,0,L|191:81,1,31.25,4|0,3:2|0:0,0:0:0:0:
333,200,22806,2,0,L|307:181,1,31.25,0|0,3:1|0:0,0:0:0:0:
263,1,23065,2,0,L|272:31,1,31.25,0|8,3:0|0:2,0:0:0:0:
203,204,23323,2,0,L|212:173,1,31.25,0|0,3:0|0:0,0:0:0:0:
371,75,23582,2,0,L|345:93,1,31.25,2|0,3:1|0:0,0:0:0:0:
203,204,23841,6,0,L|212:173,1,31.25,0|0,3:0|0:0,0:0:0:0:
330,298,24099,2,0,L|339:328,1,31.25,0|2,3:0|0:1,0:0:0:0:
172,296,24358,2,0,L|137:271,1,31.25,0|0,3:1|0:0,0:0:0:0:
301,205,24616,2,0,L|333:204,1,31.25,8|0,3:2|0:0,0:0:0:0:
250,353,24875,2,0,L|224:371,1,31.25,0|2,3:0|1:3,0:0:0:0:
203,204,25134,2,0,L|207:188,1,15.625,0|0,3:1|0:0,0:0:0:0:
226,70,25306,6,0,P|250:85|255:106,1,43.749998664856,2|0,3:2|0:0,0:0:0:0:
58,103,25565,2,0,P|47:84|50:62,1,43.749998664856,0|0,3:1|0:0,0:0:0:0:
211,173,25823,2,0,P|209:195|194:210,1,43.749998664856,0|8,3:0|0:2,0:0:0:0:
129,25,26082,2,0,P|144:9|165:5,1,43.749998664856,0|0,3:0|0:0,0:0:0:0:
109,193,26340,2,0,P|87:198|68:188,1,43.749998664856,2|0,3:1|0:0,0:0:0:0:
238,61,26599,6,0,P|262:76|267:97,1,43.749998664856,0|0,3:0|0:0,0:0:0:0:
441,163,26858,2,0,P|412:165|395:150,1,43.749998664856,0|0,3:0|0:0,0:0:0:0:
210,199,27116,2,0,P|232:180|253:182,1,43.749998664856,0|0,3:1|0:0,0:0:0:0:
378,42,27375,2,0,P|371:70|352:81,1,43.749998664856,8|0,3:2|0:0,0:0:0:0:
338,267,27634,2,0,P|327:240|335:220,1,43.749998664856,0|0,3:0|0:0,0:0:0:0:
357,347,27892,2,0,L|354:380,1,21.874999332428,0|0,3:1|3:1,0:0:0:0:
113,248,28065,6,0,B|92:268|92:268|214:255,1,125,4|0,3:2|0:0,0:0:0:0:
270,228,28323,2,0,B|275:199|275:199|184:281,1,125,0|0,3:1|0:0,0:0:0:0:
154,336,28582,2,0,B|166:362|166:362|191:242,1,125,0|8,3:0|0:2,0:0:0:0:
185,181,28841,2,0,B|159:167|159:167|209:279,1,125,0|0,3:0|0:0,0:0:0:0:
251,324,29099,2,0,B|279:320|279:320|173:258,1,125,2|0,3:1|0:0,0:0:0:0:
131,129,29358,6,0,B|102:132|102:132|208:194,1,125,0|0,3:0|0:0,0:0:0:0:
269,205,29616,2,0,B|290:185|290:185|168:198,1,125,0|2,3:0|0:1,0:0:0:0:
112,224,29875,2,0,B|106:252|106:252|197:170,1,125,0|0,3:1|0:0,0:0:0:0:
228,117,30134,2,0,B|215:91|215:91|190:210,1,125,8|0,3:2|0:0,0:0:0:0:
197,271,30392,2,0,B|222:284|222:284|172:172,1,125,0|2,3:0|1:3,0:0:0:0:
256,56,30651,2,0,L|256:128,1,62.5,0|2,3:1|1:3,0:0:0:0:
344,220,30823,6,0,B|310:186|344:140|344:140|394:112|428:157,1,125,2|0,3:2|0:0,0:0:0:0:
511,192,31082,2,0,B|518:239|464:256|464:256|406:249|405:192,1,125,0|0,3:1|0:0,0:0:0:0:
360,116,31341,2,0,B|381:73|435:91|435:91|477:131|445:177,1,125,0|8,3:0|0:2,0:0:0:0:
437,266,31599,2,0,B|394:287|361:241|361:241|350:184|404:166,1,125,0|0,3:0|0:0,0:0:0:0:
463,99,31858,2,0,B|510:106|509:163|509:163|484:215|430:199,1,125,2|0,3:1|0:0,0:0:0:0:
282,247,32117,6,0,B|244:277|203:238|203:238|180:185|228:156,1,125,0|2,3:0|0:0,0:0:0:0:
289,140,32375,2,0,B|333:157|321:212|321:212|286:258|236:231,1,125,0|2,3:1|0:1,0:0:0:0:
193,188,32634,2,0,B|185:140|239:123|239:123|297:130|298:187,1,125,0|0,3:0|0:0,0:0:0:0:
256,381,32892,6,0,L|256:344,1,37.5,8|0,3:2|0:0,0:0:0:0:
24,328,33582,6,0,P|100:370|130:335,1,125,6|2,3:2|0:2,0:0:0:0:
118,286,33841,2,0,P|31:293|26:339,1,125,0|0,3:1|0:0,0:0:0:0:
122,349,34100,2,0,P|132:317|125:290,1,62.5,0|0,3:0|0:0,0:0:0:0:
10,209,34272,5,10,0:2:0:0:
4,202,34358,2,0,P|-6:170|51:104,1,125,0|0,3:0|0:0,0:0:0:0:
195,209,34616,2,0,B|137:202|137:202|130:189|130:189|66:183,1,125,2|0,3:1|0:0,0:0:0:0:
191,0,34875,6,0,B|246:80|246:80|221:67,1,125,0|0,3:0|0:0,0:0:0:0:
177,127,35134,2,0,B|219:39|219:39|220:66,1,125,2|2,3:2|0:1,0:0:0:0:
295,74,35393,2,0,B|197:81|197:81|221:66,1,125,0|0,3:1|0:0,0:0:0:0:
488,56,35651,6,0,P|412:14|382:49,1,125,10|2,3:2|0:2,0:0:0:0:
394,98,35910,2,0,P|481:91|486:45,1,125,0|0,3:1|0:0,0:0:0:0:
390,35,36169,2,0,P|380:67|387:94,1,62.5,0|0,3:0|0:0,0:0:0:0:
501,197,36341,6,0,P|511:229|454:295,1,125,6|2,3:2|0:2,0:0:0:0:
358,292,36599,2,0,P|380:267|466:283,1,125,0|0,3:1|0:0,0:0:0:0:
480,326,36858,2,0,P|453:313|448:283,1,62.5,0|0,3:0|0:0,0:0:0:0:
365,184,37030,5,10,0:2:0:0:
365,184,37116,2,0,B|313:188|313:188|306:201|306:201|248:208,1,125,0|0,3:0|0:0,0:0:0:0:
140,245,37375,2,0,P|192:300|250:261,1,125,2|0,3:1|0:0,0:0:0:0:
332,67,37634,6,0,B|251:11|251:11|264:36,1,125,0|0,3:0|0:0,0:0:0:0:
255,122,37893,2,0,B|342:79|342:79|315:78,1,125,2|2,3:2|0:1,0:0:0:0:
247,31,38151,2,0,B|239:128|239:128|254:104,1,125,0|0,3:1|0:0,0:0:0:0:
11,187,38410,6,0,P|1:155|58:89,1,125,10|2,3:2|0:2,0:0:0:0:
131,86,38668,1,0,3:0:0:0:
125,90,38754,2,0,P|101:107|73:95,1,62.5,2|0,0:1|0:2,0:0:0:0:
31,57,38927,2,0,P|58:69|62:99,1,62.5,0|0,3:1|3:2,0:0:0:0:
0,327,39099,6,0,P|63:321|67:193,1,187.500007152558,6|2,3:2|0:2,0:0:0:0:
142,347,39358,2,0,P|105:295|-7:355,1,187.500007152558,0|0,3:1|0:0,0:0:0:0:
182,151,39616,2,0,L|176:226,1,62.5,0|0,3:0|0:0,0:0:0:0:
321,361,39789,5,10,0:2:0:0:
321,361,39875,2,0,P|253:338|274:232,1,187.500007152558,0|0,3:0|0:0,0:0:0:0:
512,310,40134,2,0,B|430:303|430:303|418:290|418:290|331:282,1,187.500007152558,2|0,3:1|0:0,0:0:0:0:
333,190,40392,5,0,3:0:0:0:
333,190,40479,2,0,P|385:171|386:136,1,62.5,2|0,0:2|0:0,0:0:0:0:
377,88,40651,2,0,P|317:130|334:197,1,125,2|2,3:2|0:1,0:0:0:0:
475,165,40910,2,0,P|447:106|387:84,1,125,0|0,3:1|0:0,0:0:0:0:
184,102,41168,6,0,P|244:60|227:-7,1,125,10|0,3:2|0:1,0:0:0:0:
86,25,41427,2,0,P|114:84|174:106,1,125,0|0,3:1|0:0,0:0:0:0:
228,0,41685,2,0,P|176:19|175:54,1,62.5,2|0,0:2|0:0,0:0:0:0:
2,177,41858,6,0,P|3:216|23:234,1,50,6|2,3:2|0:2,0:0:0:0:
231,179,42203,2,0,P|197:160|172:169,1,50,2|0,3:1|0:0,0:0:0:0:
117,374,42547,2,0,P|149:354|155:327,1,50,2|2,3:2|0:2,0:0:0:0:
176,83,42892,5,2,3:1:0:0:
127,234,43065,1,0,3:2:0:0:
256,328,43237,1,2,3:2:0:0:
384,234,43409,1,2,3:2:0:0:
335,82,43582,1,2,3:1:0:0:
255,208,43754,5,8,0:3:0:0:
255,208,43841,1,4,0:3:0:0:
255,208,43927,2,0,B|241:295|298:253|283:352,1,153.124995326996,4|0,3:2|0:0,0:0:0:0:
284,353,44961,6,0,B|252:349|228:326|219:287|219:287|227:279|227:279|228:289|228:289|199:338|114:337|86:273,1,281.250010728836,6|0,3:1|0:0,0:0:0:0:
93,286,45305,6,0,P|100:334|70:361,1,87.5,2|0,0:1|0:0,0:0:0:0:
63,369,45995,2,0,P|16:350|7:311,1,87.5,2|0,0:1|0:0,0:0:0:0:
6,301,46685,6,0,P|45:269|84:281,1,87.5,2|0,0:1|0:0,0:0:0:0:
93,286,47029,6,0,L|88:246,1,37.5,8|0,0:2|0:0,0:0:0:0:
153,182,47374,6,0,B|153:180|153:180|153:177|153:177|153:176|153:176|152:174|152:174|150:172|150:172|148:171|148:171|144:170|144:170|142:171|142:171|140:173|140:173|139:175|139:175|138:179|138:179|139:181|139:181|140:184|140:184|141:185|141:185|144:186|144:186|146:186|146:186|149:185|149:185|149:185|151:185|151:185|152:183,1,43.749998664856,0|0,0:0|0:0,0:0:0:0:
63,165,47547,2,0,B|27:162|27:162|65:170,1,62.5
228,31,47719,6,0,B|259:34|283:57|292:96|292:96|284:104|284:104|283:94|283:94|312:45|397:46|425:110,1,281.250010728836,6|0,3:1|0:0,0:0:0:0:
419,98,48064,6,0,P|412:50|442:23,1,87.5,2|0,0:1|0:0,0:0:0:0:
449,15,48754,2,0,P|496:34|505:73,1,87.5,2|0,0:1|0:0,0:0:0:0:
506,83,49444,6,0,P|466:114|427:102,1,87.5,2|0,0:1|0:0,0:0:0:0:
419,98,49788,5,8,0:2:0:0:
256,56,49961,1,0,3:0:0:0:
392,180,50133,6,0,L|298:170,1,93.7500035762788
292,168,50363,5,0,0:0:0:0:
235,223,50478,6,0,B|212:261|238:339|302:335|302:335|302:350|302:350|343:330|355:292|337:261,1,281.250010728836,6|0,3:1|0:0,0:0:0:0:
309,73,50823,6,0,P|274:51|203:105,1,131.249995994568,2|0,0:1|0:0,0:0:0:0:
206,104,51512,2,0,P|242:84|231:-4,1,131.249995994568,2|0,0:1|0:0,0:0:0:0:
229,0,52202,6,0,P|229:40|310:75,1,131.249995994568,2|0,0:1|0:0,0:0:0:0:
309,73,52547,5,8,0:2:0:0:
118,131,52719,1,8,0:3:0:0:
256,260,52892,2,0,L|256:220,1,37.5,4|8,3:2|0:2,0:0:0:0:
224,204,53236,6,0,L|286:204,7,62.5,2|8|8|8|8|8|8|8,0:1|0:2|0:2|0:2|0:2|0:2|0:2|0:2,0:0:0:0:
300,192,53926,6,0,L|214:192,7,87.499997329712,2|8|8|8|8|8|8|8,0:1|0:2|0:2|0:2|0:2|0:2|0:2|0:2,0:0:0:0:
198,181,54616,6,0,L|310:181,3,112.499996566773,2|8|8|8,0:1|0:2|0:2|0:2,0:0:0:0:
256,160,54961,1,0,3:0:0:0:
256,144,55047,2,0,L|256:84,1,46.8750017881394,8|0,0:2|0:0,0:0:0:0:
328,0,55219,5,0,3:0:0:0:
328,0,55305,2,0,B|336:56|336:56|504:40,1,187.500007152558,10|8,1:2|1:3,0:0:0:0:
466,340,55650,6,2,B|424:336|424:336,1,37.5,2|0,0:1|0:0,0:0:0:0:
364,140,55995,6,0,P|426:168|434:235,1,140.625005364418,6|0,3:1|0:0,0:0:0:0:
297,264,56340,2,0,P|289:179|357:127,1,178.124995243549,2|0,3:1|0:0,0:0:0:0:
461,260,56685,6,0,P|376:318|281:279,1,215.625004112721,0|0,3:0|0:0,0:0:0:0:
353,92,57029,2,0,P|462:143|478:263,1,253.125000965595,2|0,3:1|0:0,0:0:0:0:
251,295,57374,6,0,P|239:156|349:71,1,290.625002217293,0|0,3:0|0:0,0:0:0:0:
512,292,57719,2,0,P|383:381|238:321,1,328.125003129244,2|0,3:1|0:0,0:0:0:0:
357,155,58064,6,0,L|362:197,1,37.5,8|0,0:2|0:0,0:0:0:0:
107,351,58409,6,0,P|160:354|180:418,1,93.7500035762788,0|0,0:0|0:0,0:0:0:0:
330,384,58581,2,0,P|359:349|404:350,1,93.7500035762788,0|0,0:0|0:0,0:0:0:0:
148,244,58754,6,0,P|86:216|78:149,1,140.625005364418,6|0,3:1|0:0,0:0:0:0:
215,120,59099,2,0,P|223:205|155:257,1,178.124995243549,2|0,3:1|0:0,0:0:0:0:
51,124,59444,6,0,P|136:66|231:105,1,215.625004112721,0|0,3:0|0:0,0:0:0:0:
159,292,59788,2,0,P|50:241|34:121,1,253.125000965595,2|0,3:1|0:0,0:0:0:0:
261,89,60133,6,0,P|273:228|163:313,1,290.625002217293,0|0,3:0|0:0,0:0:0:0:
0,92,60478,2,0,P|129:3|274:63,1,328.125003129244,2|0,3:1|0:0,0:0:0:0:
151,208,60823,6,0,B|149:190|149:190|151:186|151:186|148:186|148:186|147:175,1,37.5,10|0,0:2|0:0,0:0:0:0:
191,35,61512,6,0,P|252:96|327:58,1,181.250005531311,6|0,3:1|0:0,0:0:0:0:
325,58,61685,2,0,P|269:1|201:36,1,168.75000064373,0|0,3:0|0:0,0:0:0:0:
200,36,61857,6,0,P|253:88|316:55,1,156.25,2|0,3:1|0:0,0:0:0:0:
315,56,62029,2,0,P|267:7|209:37,1,143.750002741814,0|0,3:0|0:0,0:0:0:0:
208,37,62202,6,0,P|252:81|306:53,1,131.249995994568,0|0,3:0|0:0,0:0:0:0:
305,54,62374,2,0,P|266:13|218:39,1,118.749996829033,0|0,3:0|0:0,0:0:0:0:
217,38,62547,6,0,P|253:73|296:51,1,106.250002026558,2|0,3:1|0:0,0:0:0:0:
295,50,62719,2,0,P|264:18|226:38,1,93.7500035762788,0|0,3:0|0:0,0:0:0:0:
229,44,62892,5,0,3:0:0:0:
233,60,62978,1,0,3:0:0:0:
237,83,63064,1,0,3:0:0:0:
242,113,63150,1,0,3:0:0:0:
249,148,63236,1,2,3:1:0:0:
256,192,63322,1,0,3:0:0:0:
265,243,63409,1,0,3:0:0:0:
276,301,63495,1,0,3:0:0:0:
256,376,63581,5,8,1:2:0:0:
416,128,63754,1,8,1:3:0:0:
256,192,63926,2,0,L|256:152,1,37.5,0|8,3:0|0:2,0:0:0:0:
176,201,64271,6,0,B|145:255|145:255|199:286,2,125,8|0|8,0:2|0:0|0:2,0:0:0:0:
287,118,64788,5,8,0:2:0:0:
287,118,64874,1,8,0:2:0:0:
287,118,64961,2,0,B|256:64|256:64|202:95,2,125,8|0|8,0:2|0:0|0:2,0:0:0:0:
304,256,65478,5,8,0:2:0:0:
304,256,65564,1,8,0:2:0:0:
304,256,65650,2,0,B|366:256|366:256|366:193,1,125,8|8,0:2|0:2,0:0:0:0:
256,336,65995,5,8,1:2:0:0:
96,176,66167,1,0,3:0:0:0:
96,336,66340,5,10,1:2:0:0:
96,336,66426,1,8,1:3:0:0:
96,336,66512,2,0,L|96:272,1,62.5,8|0,1:3|0:0,0:0:0:0:
0,0,66685,6,0,B|71:5|71:5|100:40|100:40|170:46,1,187.5,2|0,0:1|0:0,0:0:0:0:
240,16,67029,6,0,B|288:16|288:16|288:96,1,93.7500035762788,14|0,0:2|0:0,0:0:0:0:
224,160,67202,1,0,0:0:0:0:
224,144,67288,1,8,0:2:0:0:
224,128,67374,1,0,0:0:0:0:
400,144,67547,6,0,L|304:144,1,93.7500035762788,0|0,3:0|0:0,0:0:0:0:
128,192,67719,2,0,B|128:320|128:320|208:320|208:320|208:224,1,281.250010728836,10|0,0:2|0:0,0:0:0:0:
288,224,68064,5,0,0:0:0:0:
48,224,68236,1,0,3:0:0:0:
224,66,68409,2,0,L|224:178,1,93.7500035762788,10|0,0:2|0:0,0:0:0:0:
80,16,68581,2,0,B|144:16|144:16|144:48,1,93.7500035762788,0|8,0:0|0:2,0:0:0:0:
379,34,68754,6,0,B|379:66|379:66|203:66,1,187.500007152558,0|0,0:0|3:0,0:0:0:0:
0,144,69098,2,0,B|0:112|0:112|80:112|80:112|80:288,1,281.250010728836,10|0,0:2|0:0,0:0:0:0:
0,336,69443,5,0,3:0:0:0:
0,32,69616,1,0,3:0:0:0:
192,160,69788,6,0,B|192:224|192:224|128:224,1,93.7500035762788,10|0,0:2|0:0,0:0:0:0:
48,304,69961,2,0,B|48:256|48:256|112:256,1,93.7500035762788,0|8,0:0|0:2,0:0:0:0:
288,352,70133,6,0,B|144:352|144:352|144:288,1,187.500007152558,0|0,0:0|3:0,0:0:0:0:
224,128,70478,2,0,B|224:272|224:272|320:272|320:272|320:224,1,281.250010728836,10|0,0:2|0:0,0:0:0:0:
344,144,70822,5,0,0:0:0:0:
432,272,70995,2,0,B|432:208|432:208|400:208,1,93.7500035762788,0|0,3:0|0:0,0:0:0:0:
368,352,71167,5,10,0:2:0:0:
400,352,71254,1,0,1:3:0:0:
432,352,71340,2,0,B|512:352|512:352|512:320,1,93.7500035762788,0|8,3:0|0:2,0:0:0:0:
464,112,71512,6,0,B|432:112|432:112|432:192|432:192|507:192,1,187.500007152558,0|0,0:0|3:0,0:0:0:0:
512,32,71857,2,0,B|480:32|480:32|480:0,5,62.5000023841859,10|0|0|0|0|0,0:2|0:0|0:0|0:0|0:0|0:0,0:0:0:0:
416,80,72202,6,0,L|160:80,1,187.500007152558,6|0,3:2|0:0,0:0:0:0:
144,80,72461,1,0,0:0:0:0:
144,96,72547,2,0,B|144:192|144:192|224:192|224:192|224:128,1,187.500007152558,14|0,0:2|0:0,0:0:0:0:
228,80,72805,5,8,0:2:0:0:
228,64,72892,1,0,0:0:0:0:
32,144,73064,1,0,3:0:0:0:
160,304,73236,2,0,B|160:160|160:160|16:160|16:160,1,281.250010728836,10|0,0:2|0:0,0:0:0:0:
0,240,73581,5,0,0:0:0:0:
96,336,73754,2,0,L|189:336,1,93.7500035762788,0|0,3:0|0:0,0:0:0:0:
272,368,73926,2,0,B|272:288|272:288|224:288,1,93.7500035762788,10|0,0:2|0:0,0:0:0:0:
240,208,74098,2,0,B|240:256|240:256|320:256,1,93.7500035762788,0|8,3:0|0:2,0:0:0:0:
336,128,74271,2,0,L|112:128,1,187.500007152558,0|0,0:0|3:0,0:0:0:0:
368,272,74616,6,0,B|368:208|368:208|416:208|416:208|416:64|416:64|352:64,1,281.250010728836,10|0,0:2|0:0,0:0:0:0:
304,48,74961,1,0,3:0:0:0:
496,192,75133,1,0,3:0:0:0:
224,272,75305,6,0,B|288:272|288:272|288:320,1,93.7500035762788,10|0,0:2|0:0,0:0:0:0:
128,352,75478,2,0,L|240:352,1,93.7500035762788,0|8,0:0|0:2,0:0:0:0:
416,288,75650,6,0,B|304:288|304:288|304:368,1,187.500007152558,0|0,0:0|3:0,0:0:0:0:
64,256,75995,2,0,B|64:320|64:320|144:320|144:320|144:176,1,281.250010728836,10|0,0:2|0:0,0:0:0:0:
144,160,76340,6,0,B|64:160|64:160|64:176,1,93.7500035762788,0|0,3:0|0:0,0:0:0:0:
0,32,76512,2,0,B|0:80|0:80|48:80,1,93.7500035762788,0|0,3:0|0:0,0:0:0:0:
224,0,76685,6,0,B|224:112|224:112|288:112|288:112|288:80,1,187.500007152558,10|0,0:2|0:0,0:0:0:0:
445,154,76943,5,0,0:0:0:0:
445,154,77029,2,0,P|461:93|440:152,1,187.5
468,85,77374,6,0,P|465:163|465:84,1,250,10|2,0:2|0:1,0:0:0:0:
448,240,77892,6,0,L|528:240,1,62.5,0|0,0:0|3:0,0:0:0:0:
384,304,78064,2,0,B|336:304|336:304|336:208,1,93.7500035762788,14|0,0:2|0:0,0:0:0:0:
464,320,78236,5,0,0:0:0:0:
464,336,78323,1,8,0:2:0:0:
464,352,78409,1,0,0:0:0:0:
272,224,78581,6,0,L|416:224,1,93.7500035762788,0|0,3:0|0:0,0:0:0:0:
256,384,78754,2,0,B|176:384|176:384|176:304|176:304|320:304,1,281.250010728836,10|0,0:2|0:0,0:0:0:0:
384,304,79098,5,0,0:0:0:0:
80,304,79271,1,0,3:0:0:0:
64,96,79443,6,0,B|112:96|112:96|112:144,1,93.7500035762788,10|0,0:2|0:0,0:0:0:0:
16,240,79616,2,0,B|0:240|0:240|0:144,1,93.7500035762788,0|8,3:0|0:2,0:0:0:0:
288,224,79788,6,0,L|100:224,1,187.500007152558,0|0,0:0|3:0,0:0:0:0:
320,64,80133,2,0,B|320:160|320:160|304:160|304:160|304:288|304:288|368:288,1,281.250010728836,10|0,0:2|0:0,0:0:0:0:
432,288,80478,5,0,3:0:0:0:
224,144,80650,1,0,3:0:0:0:
448,208,80823,6,0,B|400:208|400:208|400:144,1,93.7500035762788,10|0,0:2|0:0,0:0:0:0:
512,64,80995,2,0,B|512:128|512:128|480:128,1,93.7500035762788,0|8,0:0|0:2,0:0:0:0:
304,0,81167,6,0,B|416:0|416:0|416:96,1,187.500007152558,0|0,0:0|3:0,0:0:0:0:
304,304,81512,2,0,B|304:224|304:224|320:224|320:224|320:128,1,187.500007152558,10|0,0:2|0:0,0:0:0:0:
224,64,81857,5,0,0:0:0:0:
240,64,81943,1,0,0:0:0:0:
256,64,82029,1,0,3:0:0:0:
176,208,82202,6,0,B|128:208|128:208|128:144,1,93.7500035762788,10|0,0:2|0:0,0:0:0:0:
75,2,82374,2,0,B|91:2|91:2|91:82,1,93.7500035762788,0|8,0:0|0:2,0:0:0:0:
16,192,82547,6,0,B|16:80|16:80|128:80,1,187.500007152558,0|0,0:0|3:0,0:0:0:0:
176,384,82892,2,0,B|0:384|0:384|0:272,1,281.250010728836,10|0,0:2|0:0,0:0:0:0:
160,160,83236,6,0,B|160:304|160:304|80:304|80:304|80:192,1,281.250010728836,6|0,0:2|0:0,0:0:0:0:
176,208,83581,2,0,B|240:208|240:208|240:256,1,93.7500035762788,14|0,0:2|0:0,0:0:0:0:
240,368,83754,2,0,B|240:320|240:320|304:320,1,93.7500035762788,0|8,0:0|0:2,0:0:0:0:
416,368,83926,6,0,B|320:368|320:368|320:208,1,187.500007152558,0|0,0:0|3:0,0:0:0:0:
480,240,84271,2,0,B|480:272|480:272|400:272|400:272|400:144,1,187.500007152558,10|0,0:2|0:0,0:0:0:0:
480,48,84616,6,0,L|480:144,1,93.7500035762788,0|0,0:0|0:0,0:0:0:0:
336,0,84788,2,0,B|400:0|400:0|400:80,1,93.7500035762788,0|0,3:0|0:0,0:0:0:0:
320,176,84961,5,10,0:2:0:0:
320,144,85047,1,0,1:3:0:0:
320,112,85133,1,0,3:0:0:0:
352,112,85219,1,8,0:2:0:0:
384,112,85305,1,0,0:0:0:0:
176,32,85478,6,0,B|256:32|256:32|256:48,1,93.7500035762788,0|0,3:0|0:0,0:0:0:0:
400,208,85650,2,0,B|272:208|272:208|272:224|272:224|96:224,1,281.250010728836,10|0,0:2|0:0,0:0:0:0:
48,192,85995,1,0,3:0:0:0:
224,128,86167,1,0,3:0:0:0:
80,320,86340,6,0,B|32:320|32:320|32:256,1,93.7500035762788,10|0,0:2|0:0,0:0:0:0:
208,381,86512,2,0,B|208:320|208:320|176:320,1,93.7500035762788,0|8,0:0|0:2,0:0:0:0:
16,240,86685,6,0,B|16:144|16:144|112:144,1,187.500007152558,0|0,0:0|3:0,0:0:0:0:
272,288,86943,1,0,0:0:0:0:
272,308,87029,2,0,B|128:308|128:308|128:228|128:228|240:228,1,281.250010728836,10|0,0:2|0:0,0:0:0:0:
272,224,87374,5,0,3:0:0:0:
16,240,87547,2,0,B|48:240|48:240|48:192,1,62.5
169,63,87719,6,0,P|149:138|105:63,1,187.5,10|0,0:2|0:0,0:0:0:0:
295,0,88064,6,0,P|313:134|387:2,1,374.999988555909,2|2,0:2|0:2,0:0:0:0:
339,62,89098,6,0,B|339:158|339:158|355:158|355:158|355:270,1,187.5
240,304,89443,2,0,B|240:240|240:240|288:240,1,93.7500035762788,2|0,0:2|0:0,0:0:0:0:
352,336,89616,2,0,L|160:336,1,187.500007152558,2|8,3:2|0:2,0:0:0:0:
258,148,89960,6,0,B|235:274,1,93.7500035762788,2|0,0:2|0:0,0:0:0:0:
39,359,90133,2,0,B|61:232|61:232|172:252,1,187.500007152558,2|0,3:2|0:0,0:0:0:0:
383,72,90478,6,0,B|429:88|429:88|395:178,1,93.7500035762788,10|0,0:2|0:0,0:0:0:0:
305,224,90650,2,0,B|245:201|245:201|273:126|273:126|317:143,1,187.500007152558,2|0,0:2|0:0,0:0:0:0:
289,378,90995,6,0,B|233:346|233:346|265:290,1,93.7500035762788,2|0,3:2|0:0,0:0:0:0:
468,228,91167,2,0,B|404:338|404:338|418:346|418:346|370:429,1,187.500007152558,10|0,0:2|0:0,0:0:0:0:
252,194,91512,6,0,L|316:82,1,93.7500035762788,2|0,3:2|0:0,0:0:0:0:
459,16,91685,2,0,B|426:71|426:71|316:7,1,187.500007152558,2|8,0:2|0:2,0:0:0:0:
53,268,92029,6,0,B|32:243|32:243|93:192,1,93.7500035762788,2|0,0:2|0:0,0:0:0:0:
55,6,92202,2,0,B|157:128|157:128|117:163,1,187.500007152558,2|0,0:2|3:2,0:0:0:0:
68,352,92547,6,0,B|26:376|26:376|-5:320,1,93.7500035762788,10|0,0:2|0:0,0:0:0:0:
249,163,92719,2,0,B|289:232|289:232|219:272|219:272|195:230,1,187.500007152558,2|0,0:2|3:2,0:0:0:0:
263,0,93064,6,0,L|295:90,1,93.7500035762788,2|0,3:2|3:2,0:0:0:0:
100,258,93236,2,0,B|50:121|50:121|110:99,1,187.500007152558,10|0,0:2|0:0,0:0:0:0:
465,223,93581,6,0,B|477:286|477:286|414:297,1,93.7500035762788,2|0,0:2|3:2,0:0:0:0:
348,377,93754,2,0,B|296:386|296:386|285:323,1,93.7500035762788,2|0,3:2|0:0,0:0:0:0:
257,175,93926,2,0,B|353:175|353:175|353:287,1,187.500007152558,12|0,0:2|0:0,0:0:0:0:
164,272,94271,6,0,B|68:272|68:272|68:192|68:192|116:192,1,187.5,2|0,0:2|0:0,0:0:0:0:
208,16,94616,2,0,B|256:16|256:16|256:96,1,125,8|0,0:2|0:0,0:0:0:0:
80,192,94874,6,0,B|80:96|80:96|192:96,1,187.500007152558,4|0,3:2|0:0,0:0:0:0:
256,192,95133,2,0,L|161:175,1,93.7500035762788,2|0,3:2|0:0,0:0:0:0:
364,129,95305,2,0,B|411:137|411:137|400:200,1,93.7500035762788,10|0,0:2|0:0,0:0:0:0:
383,295,95478,1,2,0:2:0:0:
158,65,95650,6,0,B|179:4|179:4|255:32,1,93.7500035762788,2|0,3:2|0:0,0:0:0:0:
350,50,95822,1,0,0:0:0:0:
240,256,95995,6,0,L|158:209,1,93.7500035762788,10|0,0:2|0:0,0:0:0:0:
243,91,96167,2,0,B|270:107|270:107|222:190,1,93.7500035762788,2|0,0:2|0:0,0:0:0:0:
159,301,96340,1,0,0:0:0:0:
344,163,96512,6,0,B|405:214|405:214|395:224,1,93.7500035762788,2|0,3:2|0:0,0:0:0:0:
408,384,96685,2,0,B|358:342|358:342|400:293,1,93.7500035762788,10|0,0:2|0:0,0:0:0:0:
488,192,96857,1,0,0:0:0:0:
192,128,97029,6,0,L|277:56,1,93.7500035762788,2|0,3:2|0:0,0:0:0:0:
384,9,97202,2,0,B|414:45|414:45|365:86,1,93.7500035762788,2|0,0:2|0:0,0:0:0:0:
201,16,97374,1,8,0:2:0:0:
256,224,97547,6,0,B|186:264|186:264|162:222,1,93.7500035762788,2|0,0:2|0:0,0:0:0:0:
64,48,97719,2,0,B|105:24|105:24|129:65,1,93.7500035762788,2|0,0:2|0:0,0:0:0:0:
0,240,97891,1,0,3:2:0:0:
223,135,98064,6,0,L|261:240,1,93.7500035762788,10|0,0:2|0:0,0:0:0:0:
102,384,98236,2,0,B|85:338|85:338|145:317,1,93.7500035762788,2|0,0:2|0:0,0:0:0:0:
392,227,98409,1,0,3:2:0:0:
144,224,98581,6,0,B|146:239|146:239|225:225,1,93.7500035762788,2|0,3:2|0:0,0:0:0:0:
464,368,98753,2,0,B|455:320|455:320|376:334,1,93.7500035762788,10|0,0:2|0:0,0:0:0:0:
256,317,98926,1,0,0:0:0:0:
256,32,99098,6,0,L|256:152,1,93.7500035762788,2|0,3:2|0:0,0:0:0:0:
256,304,99271,1,2,3:2:0:0:
397,104,99443,6,0,B|115:104,1,281.250010728836,12|0,0:2|0:0,0:0:0:0:
69,24,99788,6,0,B|444:24,1,375,6|0,3:2|0:0,0:0:0:0:
397,104,100478,2,0,B|397:184|397:184|429:184,1,93.7500035762788,2|0,3:2|0:0,0:0:0:0:
512,342,100650,2,0,B|512:230|512:230|496:230|496:230|496:166,1,187.500007152558,10|0,0:2|0:0,0:0:0:0:
455,64,100995,6,0,B|460:92|460:92|396:103,1,93.7500035762788,2|0,3:2|0:0,0:0:0:0:
328,249,101167,2,0,B|332:277|332:277|411:262|411:262|397:184,1,187.500007152558,10|0,0:2|0:0,0:0:0:0:
201,165,101512,6,0,L|95:204,1,93.7500035762788,2|0,3:2|0:0,0:0:0:0:
88,309,101685,2,0,B|115:384|115:384|220:345,1,187.500007152558,10|0,0:2|0:0,0:0:0:0:
288,32,102029,6,0,B|267:7|267:7|218:48,1,93.7500035762788,2|0,3:2|0:0,0:0:0:0:
114,198,102202,2,0,B|187:136|187:136|146:87|146:87|85:138,1,187.500007152558,10|0,0:2|0:0,0:0:0:0:
336,320,102547,6,0,L|396:248,1,93.7500035762788,2|0,3:2|0:0,0:0:0:0:
190,256,102719,2,0,B|159:292|159:292|281:395,1,187.500007152558,10|0,0:2|0:0,0:0:0:0:
299,123,103064,6,0,B|275:164|275:164|316:188,1,93.7500035762788,2|0,3:2|0:0,0:0:0:0:
508,128,103236,2,0,B|424:80|424:80|416:93|416:93|333:45,1,187.500007152558,10|0,0:2|0:0,0:0:0:0:
32,144,103581,6,0,L|152:187,1,93.7500035762788,2|0,3:2|0:0,0:0:0:0:
232,63,103753,2,0,B|156:35|156:35|134:95|134:95|210:123,1,187.500007152558,10|0,0:2|0:0,0:0:0:0:
192,368,104098,1,2,3:2:0:0:
192,368,104185,1,0,3:2:0:0:
192,368,104271,2,0,B|208:273|208:273|192:270|192:270|212:160,1,187.500007152558,10|0,0:2|0:0,0:0:0:0:
496,192,104616,6,0,B|448:183|448:183|440:230,1,93.7500035762788,2|0,3:2|0:0,0:0:0:0:
336,288,104788,2,0,B|330:351|330:351|394:357,1,93.7500035762788,10|0,0:2|0:0,0:0:0:0:
512,320,104960,6,0,B|512:256|512:256|240:256,1,281.250010728836,2|0,0:2|0:0,0:0:0:0:
336,80,105305,2,0,B|336:176|336:176|416:176|416:176|416:64,1,250,0|0,3:2|1:0,0:0:0:0:
256,32,105822,6,0,L|256:128,1,62.5,8|0,0:2|0:0,0:0:0:0:
128,96,105995,2,0,B|128:48|128:48|208:48,1,93.7500035762788,6|0,3:2|0:0,0:0:0:0:
304,128,106167,2,0,B|212:128|212:128|212:224,1,187.500007152558,10|0,0:2|0:0,0:0:0:0:
16,352,106512,5,2,3:2:0:0:
16,352,106598,1,0,3:2:0:0:
16,352,106685,2,0,B|110:335|110:335|113:351|113:351|223:331,1,187.500007152558,10|0,0:2|0:0,0:0:0:0:
428,152,107029,5,2,3:2:0:0:
428,152,107116,1,0,3:2:0:0:
428,152,107202,2,0,B|352:178|352:178|380:253|380:253|425:237,1,187.500007152558,10|0,0:2|0:0,0:0:0:0:
144,96,107547,5,2,3:2:0:0:
144,96,107633,1,0,3:2:0:0:
144,96,107719,2,0,B|47:152|47:152|103:248,1,187.500007152558,10|0,0:2|0:0,0:0:0:0:
368,384,108064,5,2,3:2:0:0:
368,384,108150,1,0,3:2:0:0:
368,384,108237,2,0,B|306:310|306:310|318:300|318:300|246:214,1,187.500007152558,10|0,0:2|0:0,0:0:0:0:
288,64,108581,5,2,3:2:0:0:
288,64,108667,1,0,3:2:0:0:
288,64,108753,2,0,B|337:105|337:105|388:43|388:43|327:-7,1,187.500007152558,10|0,0:2|0:0,0:0:0:0:
141,329,109098,5,2,3:2:0:0:
141,329,109185,1,0,3:2:0:0:
141,329,109271,2,0,B|177:359|177:359|229:298,1,93.7500035762788,10|0,0:2|0:0,0:0:0:0:
216,146,109444,2,0,L|159:242,1,93.7500035762788,0|0,3:2|0:0,0:0:0:0:
358,274,109616,2,0,L|252:235,1,93.7500035762788,0|0,3:2|0:0,0:0:0:0:
12,253,109788,6,0,B|75:264|75:264|91:169,1,93.7500035762788,8|0,0:2|0:0,0:0:0:0:
206,67,109960,2,0,B|202:112|202:112|217:113|217:113|215:145,1,93.7500035762788,0|0,3:2|3:2,0:0:0:0:
512,0,110133,5,0,3:2:0:0:
488,0,110219,1,0,3:2:0:0:
464,0,110305,1,0,3:2:0:0:
440,0,110391,1,0,3:2:0:0:
416,0,110478,2,0,P|344:80|472:72,1,281.250010728836,12|0,0:2|0:0,0:0:0:0:
260,0,110822,6,0,L|256:39,1,37.5,6|0,3:1|0:0,0:0:0:0:
164,39,111512,2,0,L|187:89,1,56.2499982833863,2|0,0:2|0:0,0:0:0:0:
76,142,112202,2,0,L|137:185,1,75,2|0,0:2|0:0,0:0:0:0:
26,280,112891,2,0,L|119:288,1,93.75,2|0,0:2|0:0,0:0:0:0:
230,270,113581,6,0,L|106:290,1,112.499996566773,2|0,0:2|0:0,0:0:0:0:
336,288,114271,2,0,L|272:368,1,93.75,2|0,0:2|0:0,0:0:0:0:
428,256,114960,2,0,L|428:336,1,75,2|0,0:2|0:0,0:0:0:0:
480,184,115650,2,0,L|512:232,1,56.2499982833863,2|0,0:2|0:0,0:0:0:0:
444,172,116340,6,0,L|481:184,1,37.5,2|0,0:2|0:0,0:0:0:0:
388,99,117029,2,0,L|447:87,1,56.2499982833863,2|0,0:2|0:0,0:0:0:0:
274,57,117719,2,0,L|344:13,1,75,2|0,0:2|0:0,0:0:0:0:
134,77,118409,2,0,L|189:-4,1,93.75,2|0,0:2|0:0,0:0:0:0:
171,162,119098,6,0,L|130:68,1,93.75,2|0,0:2|0:0,0:0:0:0:
263,98,119788,2,0,L|275:-3,1,93.75,2|0,0:2|0:0,0:0:0:0:
375,72,120478,2,0,L|428:16,1,75,2|0,0:2|0:0,0:0:0:0:
457,118,121167,2,0,L|513:108,1,56.2499982833863,2|0,0:2|0:0,0:0:0:0:
260,36,121857,6,0,P|210:30|170:1,3,100,6|2|2|2,0:2|0:2|0:2|0:2,0:0:0:0:
226,129,124616,6,0,P|311:118|382:67,3,174.999994659424,2|2|2|2,0:2|0:2|0:2|0:2,0:0:0:0:
276,234,127374,6,0,P|140:218|25:145,3,275.000008392334,2|2|2|2,3:2|0:2|0:2|0:2,0:0:0:0:
167,352,130133,6,0,P|351:331|509:233,2,375.000014305115,2|2|2,0:2|0:2|0:2,0:0:0:0:
166,351,132202,2,0,L|159:297,7,46.8750017881394,2|0|0|0|0|0|0|0,0:2|0:0|0:0|0:0|0:0|0:0|0:0|0:0,0:0:0:0:
160,220,132891,6,0,B|314:232|198:301|365:314,1,224.999993133545,6|0,0:2|0:0,0:0:0:0:
334,224,134271,2,0,B|207:233|304:290|176:301,1,187.5,2|0,0:2|0:0,0:0:0:0:
194,231,135650,2,0,B|294:238|218:284|320:292,1,150,2|2,0:2|0:2,0:0:0:0:
256,192,137029,5,2,0:2:0:0:
256,216,137719,1,2,0:2:0:0:
360,136,138409,6,0,P|380:224|432:236,1,149.999995422363,2|2,0:2|0:2,0:0:0:0:
317,227,139789,2,0,P|367:194|361:135,1,125,2|2,0:2|0:2,0:0:0:0:
398,220,141168,2,0,P|356:198|318:226,1,100,2|2,0:2|0:2,0:0:0:0:
318,226,142288,5,2,0:2:0:0:
205,302,142547,2,0,L|304:313,1,100,2|2,0:2|0:2,0:0:0:0:
352,24,143926,6,0,B|198:36|314:105|146:119,1,224.999993133545,6|0,0:2|0:0,0:0:0:0:
178,28,145306,2,0,B|304:38|207:95|335:106,1,187.5,2|0,0:2|0:0,0:0:0:0:
318,35,146685,2,0,B|217:43|293:89|191:97,1,150,2|2,0:2|0:2,0:0:0:0:
256,192,148064,5,2,0:2:0:0:
256,216,148754,1,2,0:2:0:0:
132,248,149443,6,0,P|112:160|60:148,1,149.999995422363,2|2,0:2|0:2,0:0:0:0:
175,157,150823,2,0,P|125:189|131:248,1,125,2|2,0:2|0:2,0:0:0:0:
256,384,152203,5,6,0:2:0:0:
256,0,153582,5,2,0:2:0:0:
256,96,154271,1,2,0:2:0:0:
175,192,154961,6,0,B|265:231|246:151|335:192,1,168.749994850159,2|2,0:2|0:2,0:0:0:0:
246,69,156340,2,0,B|176:121|246:141|175:192,1,149.999995422363,2|2,0:2|0:2,0:0:0:0:
305,171,157720,6,0,B|296:99|252:141|245:69,1,125,2|2,0:2|0:2,0:0:0:0:
192,172,158754,1,2,0:2:0:0:
256,332,159099,6,0,L|256:384,1,50,2|2,0:2|0:2,0:0:0:0:
0,368,160478,6,0,P|100:364|134:319,1,149.999995422363,2|2,0:2|0:2,0:0:0:0:
386,332,161858,2,0,P|441:375|511:365,1,144.921875221133,2|0,0:2|0:0,0:0:0:0:
432,240,163237,6,0,P|384:296|328:272,1,132.500000202179,2|2,0:2|0:2,0:0:0:0:
256,240,164358,5,2,0:2:0:0:
176,281,164616,2,0,P|114:292|79:239,1,132.500000202179,2|2,0:2|0:2,0:0:0:0:
181,7,165996,6,0,P|246:96|242:206,1,224.999993133545,6|0,0:2|0:0,0:0:0:0:
350,45,167375,2,0,P|258:55|180:7,1,187.5,2|0,0:2|0:0,0:0:0:0:
256,148,168754,2,0,P|285:80|350:45,1,150,2|2,0:2|0:2,0:0:0:0:
256,48,170134,6,0,L|256:155,1,100,2|2,0:2|0:2,0:0:0:0:
104,328,171513,6,0,B|155:321|128:308|181:301,1,74.9999977111817,2|2,0:2|0:2,0:0:0:0:
336,304,172892,2,0,B|380:308|357:319|402:325,1,70.83315463641,2|0,0:2|0:0,0:0:0:0:
256,141,174271,6,0,B|240:217|271:187|256:263,1,125,2|0,0:2|0:0,0:0:0:0:
193,340,175651,5,6,0:2:0:0:
193,340,177030,6,0,B|64:311|111:400|-2:383,1,206.25,6|0,2:2|0:0,0:0:0:0:
256,192,179961,12,0,182526,0:0:0:0:
256,144,182547,6,0,B|244:108|267:120|256:84,1,62.5,10|0,2:1|0:0,0:0:0:0:
132,239,182892,6,0,B|189:246|198:306|198:306|209:299|209:299|249:335|323:340|368:285|368:285,1,281.250010728836,6|0,3:1|0:0,0:0:0:0:
362,292,183236,6,0,B|347:319|369:369|405:379|405:379|428:373,1,131.249995994568,2|0,0:1|0:0,0:0:0:0:
447,382,183926,2,0,B|478:380|510:336|500:300|500:300|484:283,1,131.249995994568,2|0,0:1|0:0,0:0:0:0:
483,263,184616,6,0,B|466:237|412:231|386:257|386:257|379:280,1,131.249995994568,2|0,0:1|0:0,0:0:0:0:
379,279,184960,6,0,L|384:320,1,37.5,8|0,0:2|0:0,0:0:0:0:
310,213,185305,6,0,B|308:212|308:212|305:212|305:212|304:212|304:212|302:213|302:213|300:215|300:215|299:217|299:217|298:221|298:221|299:223|299:223|301:225|301:225|303:226|303:226|307:227|307:227|309:226|309:226|312:225|312:225|313:224|313:224|314:221|314:221|314:219|314:219|313:216|313:216|313:216|313:214|313:214|311:213,1,43.749998664856
293,303,185478,2,0,B|290:339|290:339|298:301,1,62.5,0|0,0:0|0:0,0:0:0:0:
380,145,185650,6,0,B|323:138|314:78|314:78|303:85|303:85|263:49|189:44|144:99|144:99,1,281.250010728836,6|0,3:1|0:0,0:0:0:0:
150,92,185994,6,0,B|164:64|142:14|106:4|106:4|83:10,1,131.249995994568,2|0,0:1|0:0,0:0:0:0:
65,2,186684,2,0,B|33:3|1:47|11:83|11:83|27:100,1,131.249995994568,2|0,0:1|0:0,0:0:0:0:
29,121,187374,6,0,B|46:147|100:153|126:127|126:127|133:104,1,131.249995994568,2|0,0:1|0:0,0:0:0:0:
150,92,187718,5,8,0:2:0:0:
4,213,187892,1,0,3:0:0:0:
256,336,188064,6,0,B|248:312|248:312|256:288|256:288|264:312|264:312|256:336,7,93.7500035762788
256,288,188409,6,0,B|296:256|360:248|408:280|408:280|408:272|408:272|450:240|433:175|380:149,1,281.250010728836,6|0,3:1|0:0,0:0:0:0:
256,56,188754,6,0,B|284:101|333:92|333:92|382:84,1,131.249995994568,2|0,0:1|0:0,0:0:0:0:
384,68,189443,2,0,B|330:69|313:116|313:116|296:163,1,131.249995994568,2|0,0:1|0:0,0:0:0:0:
309,172,190133,6,0,B|334:124|302:86|302:86|270:49,1,131.249995994568,2|0,0:1|0:0,0:0:0:0:
256,56,190478,5,8,0:2:0:0:
411,173,190650,1,8,0:3:0:0:
256,320,190823,2,0,L|256:358,1,37.5,4|8,3:2|0:2,0:0:0:0:
225,207,191167,6,0,B|240:207|240:207|248:203|248:203|263:203|263:203|271:207|271:207|286:207,7,62.5,2|8|8|8|8|8|8|8,0:1|0:2|0:2|0:2|0:2|0:2|0:2|0:2,0:0:0:0:
300,192,191857,6,0,B|277:192|277:192|266:186|266:186|243:186|243:186|232:192|232:192|210:192,7,93.7500035762788,2|8|8|8|8|8|8|8,0:1|0:2|0:2|0:2|0:2|0:2|0:2|0:2,0:0:0:0:
195,179,192547,6,0,B|225:179|225:179|240:171|240:171|270:171|270:171|285:179|285:179|315:179,3,125,2|8|8|8,0:1|0:2|0:2|0:2,0:0:0:0:
255,149,192892,5,0,3:0:0:0:
255,133,192978,2,0,L|255:85,1,46.8750017881394,8|0,0:2|3:0,0:0:0:0:
12,0,193150,1,0,3:0:0:0:
12,0,193236,2,0,B|89:11|89:11|104:39|104:39|179:49,1,187.500007152558,10|8,1:2|1:3,0:0:0:0:
500,0,193581,6,0,B|461:5,1,37.5,2|0,0:1|0:0,0:0:0:0:
360,130,193926,6,0,P|294:140|255:86,1,140.625005364418,6|0,3:1|0:0,0:0:0:0:
246,217,194271,2,0,P|275:137|359:129,1,178.124995243549,2|0,3:1|0:0,0:0:0:0:
223,45,194616,6,0,P|288:124|245:217,1,215.625004112721,0|0,3:0|0:0,0:0:0:0:
411,123,194960,2,0,P|292:142|222:45,1,253.125000965595,2|0,3:1|0:0,0:0:0:0:
225,265,195305,6,0,P|273:136|409:122,1,290.625002217293,0|0,3:0|0:0,0:0:0:0:
191,4,195650,2,0,P|289:123|226:265,1,328.125003129244,2|0,3:1|0:0,0:0:0:0:
398,238,195995,6,0,L|358:234,1,37.5,8|0,0:2|0:0,0:0:0:0:
112,365,196340,6,0,P|155:374|176:336,1,93.7500035762788,0|0,0:0|0:0,0:0:0:0:
335,336,196512,2,0,P|356:375|399:366,1,93.7500035762788,0|0,0:0|0:0,0:0:0:0:
152,254,196685,6,0,P|218:244|257:298,1,140.625005364418,6|0,3:1|0:0,0:0:0:0:
266,167,197030,2,0,P|237:247|153:255,1,178.124995243549,2|0,3:1|0:0,0:0:0:0:
289,339,197375,6,0,P|224:260|267:167,1,215.625004112721,0|0,3:0|0:0,0:0:0:0:
101,261,197719,2,0,P|220:242|290:339,1,253.125000965595,2|0,3:1|0:0,0:0:0:0:
287,119,198064,6,0,P|239:248|103:262,1,290.625002217293,0|0,3:0|0:0,0:0:0:0:
321,380,198409,2,0,P|223:261|286:119,1,328.125003129244,2|0,3:1|0:0,0:0:0:0:
118,146,198754,6,0,B|136:148|136:148|140:146|140:146|140:149|140:149|151:150,1,37.5,10|0,0:2|0:0,0:0:0:0:
318,349,199443,6,0,B|310:291|310:291|213:276|213:276|181:335,1,181.250005531311,6|0,3:1|0:0,0:0:0:0:
201,298,199616,2,0,B|208:351|208:351|298:365|298:365|309:345,1,168.75000064373,0|0,3:0|0:0,0:0:0:0:
309,346,199788,6,0,B|302:295|302:295|218:282|218:282|208:301,1,156.25,2|0,3:1|0:0,0:0:0:0:
208,302,199960,2,0,B|214:348|214:348|291:360|291:360|300:342,1,143.750002741814,0|0,3:0|0:0,0:0:0:0:
300,344,200133,6,0,B|294:302|294:302|224:291|224:291|215:306,1,131.249995994568,0|0,3:0|0:0,0:0:0:0:
215,308,200305,2,0,B|220:345|220:345|283:355|283:355|290:341,1,118.749996829033,0|0,3:0|0:0,0:0:0:0:
291,341,200478,6,0,B|286:307|286:307|229:298|229:298|222:310,1,106.250002026558,2|0,3:1|0:0,0:0:0:0:
222,312,200650,2,0,B|226:342|226:342|276:349|276:349|282:338,1,93.7500035762788,0|0,3:0|0:0,0:0:0:0:
282,339,200823,5,0,3:0:0:0:
278,323,200909,1,0,3:0:0:0:
274,300,200995,1,0,3:0:0:0:
269,270,201081,1,0,3:0:0:0:
262,235,201167,1,2,3:1:0:0:
255,191,201253,1,0,3:0:0:0:
246,140,201340,1,0,3:0:0:0:
235,82,201426,1,0,3:0:0:0:
255,7,201512,5,8,1:2:0:0:
419,258,201685,1,8,1:3:0:0:
256,154,201857,2,0,L|256:192,1,37.5,0|0,3:0|0:2,0:0:0:0:
214,280,202202,6,0,B|192:274|192:274|152:205|152:205|158:183,2,125,8|0|8,0:2|0:0|0:2,0:0:0:0:
353,183,202720,5,8,0:2:0:0:
353,183,202806,1,8,0:2:0:0:
353,183,202892,2,0,B|359:205|359:205|319:274|319:274|297:280,2,125,8|0|8,0:2|0:0|0:2,0:0:0:0:
200,120,203408,5,8,0:2:0:0:
200,120,203494,1,8,0:2:0:0:
200,120,203581,2,0,B|216:104|216:104|296:104|296:104|312:120,1,125,8|8,0:2|0:2,0:0:0:0:
144,56,203926,5,8,0:2:0:0:
368,56,204098,1,0,3:0:0:0:
224,16,204271,5,10,1:2:0:0:
224,16,204357,1,8,1:3:0:0:
224,16,204443,2,0,L|288:16,1,62.5,8|0,1:3|0:0,0:0:0:0:
456,16,204616,6,0,B|449:87|449:87|478:122|478:122|472:192,1,187.5,2|0,0:1|0:0,0:0:0:0:
320,192,204960,6,0,B|376:192|376:192|384:200|384:200|384:232,1,93.7500035762788,14|0,0:2|0:0,0:1:0:0:
352,305,205133,1,0,0:0:0:0:
352,336,205219,1,8,0:2:0:0:
352,368,205305,1,0,0:0:0:0:
504,272,205478,6,0,B|504:290|504:290|496:298|496:298|432:298,1,93.7500035762788,0|0,3:0|0:0,0:0:0:0:
192,272,205650,6,0,B|168:272|168:272|160:280|160:280|160:344|160:344|168:352|168:352|264:352|264:352|272:344|272:344|272:208,1,281.250010728836,10|0,0:2|0:0,0:1:0:0:
256,192,205995,1,0,0:0:0:0:
80,368,206167,1,0,3:0:0:0:
174,152,206340,6,0,B|174:184|174:184|166:192|166:192|86:192,1,93.7500035762788,10|0,0:2|0:0,0:1:0:0:
16,80,206512,2,0,B|56:80|56:80|64:88|64:88|64:152,1,93.7500035762788,0|8,0:0|0:2,0:1:0:0:
0,264,206685,2,0,B|0:216|0:216|8:208|8:208|152:208,1,187.500007152558,0|0,0:0|3:0,0:1:0:0:
304,72,207029,2,0,B|152:72|152:72|144:64|144:64|144:8|144:8|152:0|152:0|224:0,1,281.250010728836,10|0,0:2|0:0,0:0:0:0:
336,40,207374,6,0,L|336:160,1,93.7500035762788,0|0,3:0|0:0,0:0:0:0:
488,16,207547,2,0,B|488:0|488:0|384:0,1,93.7500035762788,0|0,3:0|0:0,0:0:0:0:
424,168,207719,5,10,0:2:0:0:
456,168,207805,1,0,0:0:0:0:
488,168,207892,1,0,0:0:0:0:
488,136,207978,1,8,0:2:0:0:
488,104,208064,1,0,0:0:0:0:
256,152,208236,6,0,B|256:208|256:208|264:216|264:216|320:216,1,93.7500035762788,0|0,3:0|0:0,0:0:0:0:
448,248,208409,2,0,B|384:248|384:248|376:240|376:240|208:239|208:239|200:248|200:248|200:320,1,281.250010728836,10|0,0:2|0:0,0:0:0:0:
176,352,208754,1,0,0:0:0:0:
176,160,208926,1,0,3:0:0:0:
400,104,209098,6,0,B|400:136|400:136|392:144|392:144|312:144,1,93.7500035762788,10|0,0:2|2:3,0:0:0:0:
288,0,209270,2,0,B|328:0|328:0|336:8|336:8|336:72,1,93.7500035762788,0|8,3:0|0:2,0:0:0:0:
128,128,209443,2,0,B|128:72|128:72|136:64|136:64|192:64|192:64|200:72|200:72|296:72,1,187.500007152558,0|0,0:0|3:0,0:0:0:0:
88,200,209788,2,0,B|56:200|56:200|56:169,5,62.5000023841859,10|0|0|0|0|0,0:2|0:0|0:0|0:0|0:0|0:0,0:0:0:0:
208,152,210133,6,0,B|352:152|352:152|360:160|360:160|360:240,1,187.500007152558,6|0,3:2|0:0,0:0:0:0:
248,288,210392,1,0,0:0:0:0:
248,288,210478,2,0,B|248:240|248:240|256:232|256:232|368:232,1,93.7500035762788,10|0,0:2|0:0,0:0:0:0:
392,177,210650,2,0,B|392:248|392:248|360:280|360:280|360:352,1,187.500007152558,0|0,0:0|0:0,0:0:0:0:
448,320,210995,5,0,3:0:0:0:
128,320,211167,2,0,B|128:352|128:352|136:360|136:360|268:360|268:360|276:352|276:352|276:280|276:280|268:272|268:272|220:268,1,281.250010728836,10|0,0:2|0:0,0:0:0:0:
160,240,211512,5,0,0:0:0:0:
129,240,211598,1,0,0:0:0:0:
97,240,211684,1,0,3:0:0:0:
208,104,211857,2,0,B|264:104|264:104|272:112|272:112|272:144,1,93.7500035762788,10|0,0:2|0:0,0:0:0:0:
160,240,212029,2,0,B|160:192|160:192|168:184|168:184|240:184,1,93.7500035762788,0|8,3:0|0:2,0:0:0:0:
408,96,212202,6,0,B|408:144|408:144|400:152|400:152|256:152,1,187.500007152558,0|0,0:0|3:0,0:0:0:0:
48,32,212547,2,2,B|48:103|48:103|80:135|80:135|80:208|80:208|72:216|72:216|24:216|24:216|16:208|16:208|16:160,1,281.250010728836,10|0,0:2|0:0,0:0:0:0:
256,232,212892,6,0,L|162:232,1,93.7500035762788,0|0,3:0|0:0,0:0:0:0:
0,288,213064,2,0,B|0:301|0:301|80:301,1,93.7500035762788,0|0,3:0|0:0,0:0:0:0:
232,320,213236,5,10,0:2:0:0:
200,320,213322,1,0,0:0:0:0:
168,320,213409,1,0,0:0:0:0:
168,352,213495,1,8,0:2:0:0:
168,384,213581,1,0,0:0:0:0:
352,232,213754,6,0,B|352:168|352:168|344:160|344:160|304:160,1,93.7500035762788,0|0,3:0|0:0,0:0:0:0:
168,320,213926,2,0,B|232:320|232:320|240:312|240:312|368:312|368:312|376:320|376:320|464:320|464:320,1,281.250010728836,10|0,0:2|0:0,0:0:0:0:
504,224,214271,5,0,3:0:0:0:
264,224,214443,1,0,3:0:0:0:
384,104,214616,6,2,B|304:104|304:104|296:96|296:96|215:96|215:96|216:128,1,187.5,10|0,0:2|0:0,0:0:0:0:
264,224,214874,5,0,0:0:0:0:
264,224,214960,2,0,P|324:232|264:216,1,187.5,0|0,0:0|0:0,0:0:0:0:
334,234,215305,6,0,P|256:231|335:231,1,250,10|2,0:2|0:1,0:0:0:0:
32,224,215823,2,0,B|32:232|32:232|32:240|32:240|32:248|32:248|32:256|32:256|32:264|32:264|32:272|32:272|32:280|32:280|32:288|32:288|32:296|32:296,1,62.5,0|0,0:0|3:0,0:0:0:0:
180,183,215995,6,0,B|124:183|124:183|116:175|116:175|116:143,1,93.7500035762788,14|0,0:2|0:0,0:0:0:0:
152,8,216168,1,0,0:0:0:0:
152,40,216254,1,8,0:2:0:0:
152,71,216340,1,0,0:0:0:0:
0,104,216513,6,0,B|0:86|0:86|8:78|8:78|72:78,1,93.7500035762788,0|0,3:0|0:0,0:0:0:0:
160,0,216685,2,0,B|240:0|240:0|272:32|272:32|416:32|416:32|416:0,1,281.250010728836,10|0,0:2|0:0,0:0:0:0:
496,8,217029,5,0,0:0:0:0:
320,184,217202,1,0,3:0:0:0:
480,96,217374,6,0,B|504:96|504:96|504:192,1,93.7500035762788,10|0,0:2|0:0,0:0:0:0:
344,96,217547,2,0,B|344:48|344:48|408:48,1,93.7500035762788,0|8,3:0|0:2,0:0:0:0:
488,176,217719,6,0,B|448:176|448:176|440:184|440:184|360:184|360:184|352:176|352:176|264:176,1,187.500007152558,0|0,0:0|3:0,0:0:0:0:
496,336,218064,2,0,B|528:336|528:336|536:328|536:328|536:272|536:272|528:264|528:264|416:264|416:264|408:272|408:272|408:360,1,281.250010728836,10|0,0:2|0:0,0:0:0:0:
256,384,218409,6,0,L|350:384,1,93.7500035762788,0|0,3:0|0:0,0:0:0:0:
200,224,218581,2,0,B|216:224|216:224|216:304,1,93.7500035762788,0|0,3:0|0:0,0:0:0:0:
368,296,218754,5,10,0:2:0:0:
336,296,218840,1,0,0:0:0:0:
304,296,218926,1,0,0:0:0:0:
304,264,219013,1,8,0:2:0:0:
304,232,219099,1,0,0:0:0:0:
88,336,219271,6,0,B|88:280|88:280|96:272|96:272|152:272,1,93.7500035762788,0|0,3:0|0:0,0:0:0:0:
240,144,219443,2,0,B|240:176|240:176|232:184|232:184|32:184|32:184|24:176|24:176|24:72,1,281.250010728836,10|0,0:2|0:0,0:0:0:0:
88,96,219788,5,0,0:0:0:0:
256,264,219960,1,0,3:0:0:0:
344,24,220133,6,0,B|320:24|320:24|312:32|312:32|312:112,1,93.7500035762788,10|0,0:2|0:0,0:0:0:0:
448,168,220305,2,0,B|448:120|448:120|440:112|440:112|384:112,1,93.7500035762788,0|8,0:0|0:2,0:0:0:0:
240,176,220478,2,0,B|320:176|320:176|328:168|328:168|328:56,1,187.500007152558,0|0,0:0|3:0,0:0:0:0:
512,24,220823,6,0,L|440:24,6,46.8750017881394,10|0|0|0|0|0|0,0:2|0:0|0:0|0:0|0:0|0:0|0:0,0:0:0:0:
472,104,221167,6,0,B|472:184|472:184|440:216|440:216|440:328,1,187.500007152558,6|0,0:2|0:0,0:0:0:0:
280,312,221426,1,0,0:0:0:0:
280,312,221512,2,0,B|328:312|328:312|336:320|336:320|432:320,1,93.7500035762788,10|0,0:2|0:0,0:0:0:0:
512,312,221685,6,0,B|528:312|528:312|536:320|536:320|536:376|536:376|528:384|528:384|392:384,1,187.500007152558,0|0,0:0|0:0,0:0:0:0:
296,384,222029,1,0,3:0:0:0:
456,224,222202,2,0,B|392:224|392:224|384:232|384:232|280:232|280:232|280:168,1,187.500007152558,10|0,0:2|0:0,0:0:0:0:
384,40,222547,5,0,0:0:0:0:
384,72,222633,1,0,0:0:0:0:
384,103,222719,1,0,3:0:0:0:
264,144,222892,6,0,B|264:88|264:88|272:80|272:80|328:80,1,93.7500035762788,10|0,2:2|2:3,0:0:0:0:
384,192,223064,2,0,L|384:288,1,93.7500035762788,0|8,3:0|0:2,0:0:0:0:
232,176,223236,6,0,B|296:176|296:176|304:184|304:184|304:240|304:240|296:248|296:248|200:248,1,187.500007152558,0|0,0:0|3:0,0:0:0:0:
72,24,223581,2,0,B|72:96|72:96|80:104|80:104|192:104,1,187.500007152558,10|0,0:2|0:0,0:0:0:0:
251,248,223926,6,0,L|157:248,1,93.7500035762788,0|0,3:0|0:0,0:0:0:0:
64,384,224098,2,0,B|8:384|8:384|0:376|0:376|0:320,1,93.7500035762788,0|0,3:0|0:0,0:0:0:0:
8,224,224271,5,10,0:2:0:0:
40,224,224357,1,0,0:0:0:0:
72,224,224443,1,0,0:0:0:0:
72,256,224530,1,8,0:2:0:0:
72,288,224616,1,0,0:0:0:0:
152,128,224788,5,0,3:0:0:0:
152,144,224874,1,0,3:0:0:0:
152,160,224960,2,0,B|152:224|152:224|160:232|160:232|160:360|160:360|152:368|152:368|64:368|64:368,1,281.250010728836,10|0,0:2|0:0,0:0:0:0:
72,288,225305,5,0,3:0:0:0:
312,288,225478,1,2,0:3:0:0:
152,160,225650,6,0,P|123:213|227:202,1,187.5,10|0,0:2|0:0,0:0:0:0:
316,379,225995,6,0,P|375:234|417:367,1,374.999988555909,2|2,0:2|0:2,0:0:0:0:
359,311,227029,6,0,B|358:245|358:245|391:212|391:212|391:81,1,187.5,0|0,0:0|0:0,0:0:0:0:
424,16,227374,2,0,B|424:48|424:48|416:56|416:56|336:56,1,93.7500035762788,2|0,0:2|0:0,0:0:0:0:
216,121,227547,2,0,B|240:145|240:145|320:145|320:145|328:137|328:137|408:137|408:137,1,187.500007152558,2|8,3:2|0:2,0:0:0:0:
233,28,227891,6,0,B|216:120,1,93.7500035762788,2|0,0:2|0:0,0:0:0:0:
49,204,228064,2,0,B|65:109|65:109|74:102|74:102|130:112|130:112|136:121|136:121|119:216,1,187.500007152558,2|0,3:2|0:0,0:0:0:0:
203,304,228409,6,0,B|150:284|150:284|145:274|145:274|156:244,1,93.7500035762788,10|0,0:2|0:0,0:0:0:0:
342,154,228581,2,0,B|424:184|424:184|429:194|429:194|534:232,1,187.500007152558,2|0,0:2|0:0,0:0:0:0:
326,22,228926,6,0,B|290:84|290:84|269:72,1,93.7500035762788,2|0,3:2|0:0,0:0:0:0:
96,160,229098,2,0,B|114:128|114:128|125:125|125:125|169:48|169:48|166:38|166:38|186:3,1,187.500007152558,10|0,0:2|0:0,0:0:0:0:
296,256,229443,6,0,L|216:189,1,93.7500035762788,2|0,3:2|0:0,0:0:0:0:
0,168,229616,2,0,B|30:131|30:131|42:130|42:130|152:222,1,187.500007152558,2|8,0:2|0:2,0:0:0:0:
360,192,229960,6,0,B|327:219|327:219|326:230|326:230|295:256,1,93.7500035762788,2|0,0:2|0:0,0:0:0:0:
148,378,230133,2,0,B|124:350|124:350|125:339|125:339|68:271|68:271|57:270|57:270|32:240,1,187.500007152558,2|0,0:2|3:2,0:0:0:0:
240,16,230478,6,0,B|264:57|264:57|261:68|261:68|198:104,1,93.7500035762788,10|0,0:2|0:0,0:0:0:0:
207,320,230650,2,0,B|158:236|158:236|161:225|161:225|210:197|210:197|221:200|221:200|269:284,1,187.500007152558,2|0,0:2|3:2,0:0:0:0:
401,383,230995,6,0,L|374:282,1,93.7500035762788,2|0,3:2|3:2,0:0:0:0:
333,134,231167,2,0,B|398:116|398:116|435:131|435:131|512:110,1,187.500007152558,10|0,0:2|0:0,0:0:0:0:
176,64,231512,6,0,B|231:59|231:59|240:66|240:66|246:130,1,93.7500035762788,2|0,0:2|3:2,0:0:0:0:
391,293,231684,2,0,B|239:306|230:298,1,93.7500035762788,2|0,3:2|0:0,0:0:0:0:
64,232,231857,6,0,B|64:175|64:175|72:167|72:167|224:168|224:168|232:176|232:176|232:240|232:240,1,281.250010728836,12|0,0:2|0:0,0:0:0:0:
0,312,232202,6,0,B|80:312|80:312|104:336|104:336|200:336,1,187.5,2|0,0:2|0:0,0:0:0:0:
216,384,232547,2,0,B|216:310|216:310|224:302|224:302|264:302,1,125,8|0,0:2|0:0,0:0:0:0:
496,360,232805,6,0,B|368:360|368:360|360:352|360:352|360:288,1,187.500007152558,4|0,3:2|0:0,0:0:0:0:
416,96,233064,2,0,B|447:98|447:98|455:107|455:107|448:179,1,93.7500035762788,2|0,3:2|0:0,0:0:0:0:
318,233,233236,2,0,B|326:185|326:185|452:207,1,93.7500035762788,10|0,0:2|0:0,0:0:0:0:
485,254,233409,1,2,0:2:0:0:
232,160,233581,6,0,B|243:110|243:110|254:107|254:107|270:46,1,93.7500035762788,2|0,3:2|0:0,0:0:0:0:
296,4,233753,1,0,0:0:0:0:
56,160,233926,6,0,B|79:109|79:109|90:105|90:105|155:135,1,93.7500035762788,10|0,0:2|0:0,0:0:0:0:
201,261,234099,2,0,B|159:237|159:237|156:226|156:226|100:190,1,93.7500035762788,2|0,0:2|0:0,0:0:0:0:
51,242,234271,1,0,0:0:0:0:
368,208,234443,6,0,L|299:306,1,93.7500035762788,2|0,3:2|0:0,0:0:0:0:
200,368,234616,2,0,B|228:339|228:339|239:339|239:339|307:407,1,93.7500035762788,10|0,0:2|0:0,0:0:0:0:
232,176,234788,1,0,0:0:0:0:
389,141,234960,6,0,B|349:168|349:168|347:179|347:179|375:218,1,93.7500035762788,2|0,3:2|0:0,0:0:0:0:
512,333,235133,2,0,B|476:290|476:290|464:289|464:289|439:258,1,93.7500035762788,2|0,0:2|0:0,0:0:0:0:
416,56,235305,1,8,0:2:0:0:
148,5,235478,6,0,L|212:115,1,93.7500035762788,2|0,0:2|0:0,0:0:0:0:
337,216,235650,2,0,B|322:184|322:184|326:174|326:174|306:130,1,93.7500035762788,2|0,0:2|0:0,0:0:0:0:
256,8,235822,1,0,3:2:0:0:
83,119,235995,6,0,B|95:165|95:165|105:171|105:171|167:154,1,93.7500035762788,10|0,0:2|0:0,0:0:0:0:
384,100,236167,2,0,B|385:107|385:107|378:117|378:117|284:133,1,93.7500035762788,2|0,0:2|0:0,0:0:0:0:
224,192,236340,1,0,3:2:0:0:
459,197,236512,6,0,B|425:202|425:202|418:211|418:211|427:259,1,93.7500035762788,2|0,3:2|0:0,0:0:0:0:
66,292,236685,2,0,L|159:284,1,93.7500035762788,10|0,0:2|0:0,0:0:0:0:
256,384,236857,1,0,0:0:0:0:
256,96,237029,6,0,L|256:216,1,93.7500035762788,2|0,3:2|0:0,0:0:0:0:
256,368,237202,1,2,3:2:0:0:
120,104,237374,6,0,B|184:104|184:104|192:96|192:96|320:96|320:96|328:104|328:104|424:104,1,281.250010728836,12|0,0:2|0:0,0:0:0:0:
440,24,237719,6,0,B|360:24|360:24|352:16|352:16|160:16|160:16|152:24|152:24|72:24,1,375.000014305115,2|0,3:2|0:0,0:0:0:0:
0,142,238409,2,0,B|0:168|0:168|8:176|8:176|64:176,1,93.7500035762788,6|0,3:2|0:0,0:0:0:0:
152,264,238581,2,0,B|152:112|152:112|144:104|144:104|80:104,1,187.500007152558,10|0,0:2|0:0,0:0:0:0:
59,280,238926,6,0,L|151:263,1,93.7500035762788,2|0,3:2|0:0,0:0:0:0:
341,207,239098,2,0,B|327:128|327:128|333:119|333:119|316:24,1,187.500007152558,10|0,0:2|0:0,0:0:0:0:
239,271,239443,6,0,B|256:317|256:317|251:327|251:327|273:387,1,93.7500035762788,2|0,3:2|0:0,0:0:0:0:
459,273,239616,2,0,B|427:183|427:183|416:179|416:179|319:214,1,187.500007152558,10|0,0:2|0:0,0:0:0:0:
169,261,239960,6,0,B|186:291|186:291|197:294|197:294|238:270,1,93.7500035762788,2|0,3:2|0:0,0:0:0:0:
285,68,240133,2,0,B|245:92|245:92|242:102|242:102|187:134|187:134|176:132|176:132|128:160,1,187.500007152558,10|0,0:2|0:0,0:0:0:0:
0,144,240478,6,0,L|82:242,1,93.7500035762788,2|0,3:2|0:0,0:0:0:0:
280,280,240650,2,0,B|269:267|269:267|258:266|258:266|178:333|178:333|177:344|177:344|229:406,1,187.500007152558,10|0,0:2|0:0,0:0:0:0:
8,352,240995,6,0,B|25:331|25:331|37:331|37:331|80:367,1,93.7500035762788,2|0,3:2|0:0,0:0:0:0:
256,160,241167,2,0,B|237:144|237:144|226:145|226:145|128:262,1,187.500007152558,10|0,0:2|0:0,0:0:0:0:
416,352,241512,6,0,L|472:255,1,93.7500035762788,2|0,3:2|0:0,0:0:0:0:
413,71,241685,2,0,B|387:117|387:117|376:120|376:120|348:169|348:169|351:180|351:180|400:208,1,187.500007152558,10|0,0:2|0:0,0:0:0:0:
272,336,242029,5,2,3:2:0:0:
272,336,242116,1,0,3:2:0:0:
272,336,242202,2,0,B|314:351|314:351|324:346|324:346|343:293|343:293|338:283|338:283|278:261,1,187.500007152558,10|0,0:2|0:0,0:0:0:0:
216,120,242547,6,0,B|210:151|210:151|201:158|201:158|122:144,1,93.7500035762788,2|0,3:2|0:0,0:0:0:0:
0,240,242719,2,0,B|3:199|3:199|12:192|12:192|76:198,1,93.7500035762788,10|0,0:2|0:0,0:0:0:0:
80,0,242892,6,0,B|127:0|127:0|135:7|135:7|134:247,1,281.250010728836,2|0,0:2|0:0,0:0:0:0:
0,320,243236,2,0,B|96:320|96:320|136:360|136:360|248:360,1,250,0|0,3:2|2:3,0:0:0:0:
232,160,243753,6,0,L|144:160,1,62.5,8|0,0:2|0:0,0:0:0:0:
312,312,243926,2,0,B|344:312|344:312|352:304|352:304|352:200,1,93.7500035762788,6|0,3:2|0:0,0:0:0:0:
256,64,244098,2,0,B|256:128|256:128|264:136|264:136|264:184|264:184|256:192|256:192|256:248,1,187.500007152558,10|0,0:2|0:0,0:0:0:0:
464,152,244443,5,2,3:2:0:0:
464,152,244529,1,0,3:2:0:0:
464,152,244616,2,0,B|451:81|451:81|442:74|442:74|316:96,1,187.500007152558,10|0,0:2|0:0,0:0:0:0:
88,16,244960,5,2,3:2:0:0:
88,16,245047,1,0,3:2:0:0:
88,16,245133,2,0,B|142:166|142:166|152:171|152:171|250:135,1,187.500007152558,10|0,0:2|0:0,0:0:0:0:
456,336,245478,5,2,3:2:0:0:
456,336,245565,1,0,3:2:0:0:
456,336,245650,2,0,B|429:290|429:290|432:279|432:279|408:237|408:237|397:234|397:234|365:179,1,187.500007152558,10|0,0:2|0:0,0:0:0:0:
56,272,245994,5,2,3:2:0:0:
56,272,246080,1,0,0:0:0:0:
56,272,246167,2,0,B|102:327|102:327|113:328|113:328|211:245,1,187.500007152558,10|0,0:2|0:0,0:0:0:0:
264,16,246512,5,2,3:2:0:0:
264,16,246598,1,0,3:2:0:0:
264,16,246685,2,0,B|218:70|218:70|173:74|173:74|126:129,1,187.500007152558,10|0,0:2|0:0,0:0:0:0:
365,179,247029,5,2,3:2:0:0:
365,179,247116,1,0,3:2:0:0:
365,179,247202,2,0,B|316:151|316:151|305:153|305:153|261:230,1,93.7500035762788,10|0,0:2|0:0,0:0:0:0:
400,288,247374,2,0,L|464:177,1,93.7500035762788,0|0,3:2|0:0,0:0:0:0:
240,256,247547,2,0,B|281:280|281:280|284:290|284:290|346:326,1,93.7500035762788,0|0,3:2|0:0,0:0:0:0:
400,8,247719,6,0,B|375:75|375:75|380:85|380:85|432:105,1,93.7500035762788,8|0,0:2|0:0,0:0:0:0:
204,174,247891,2,0,B|210:131|210:131|204:121|204:121|148:112,1,93.7500035762788,0|0,3:2|3:2,0:0:0:0:
0,0,248064,5,0,3:2:0:0:
0,24,248150,1,0,3:2:0:0:
0,48,248236,1,0,3:2:0:0:
0,72,248322,1,0,3:2:0:0:
0,96,248409,2,0,P|80:168|72:40,1,281.250010728836,12|0,0:2|0:0,0:0:0:0:
0,240,248753,6,0,L|38:245,1,37.5,6|0,3:1|0:0,0:0:0:0:
123,300,249443,2,0,L|71:321,1,56.2499982833863,2|0,0:2|0:0,0:0:0:0:
190,370,250133,2,0,L|236:311,1,75,2|0,0:2|0:0,0:0:0:0:
338,287,250822,2,0,L|326:379,1,93.75,2|0,0:2|0:0,0:0:0:0:
336,286,251512,6,0,L|294:183,1,112.499996566773,2|0,0:2|0:0,0:0:0:0:
377,177,252202,2,0,L|451:233,1,93.75,2|0,0:2|0:0,0:0:0:0:
512,133,252891,2,0,L|438:124,1,75,2|0,0:2|0:0,0:0:0:0:
461,46,253581,2,0,L|512:24,1,56.2499982833863,2|0,0:2|0:0,0:0:0:0:
423,50,254271,6,0,L|461:44,1,37.5,2|0,0:2|0:0,0:0:0:0:
384,119,254960,2,0,L|331:97,1,56.2499982833863,2|0,0:2|0:0,0:0:0:0:
205,79,255650,2,0,L|251:139,1,75,2|0,0:2|0:0,0:0:0:0:
94,96,256340,2,0,L|82:2,1,93.75,2|0,0:2|0:0,0:0:0:0:
94,96,257029,6,0,L|51:200,1,112.499996566773,2|0,0:2|0:0,0:0:0:0:
176,193,257719,2,0,L|250:136,1,93.75,2|0,0:2|0:0,0:0:0:0:
364,216,258409,2,0,L|290:226,1,75,2|0,0:2|0:0,0:0:0:0:
358,298,259098,2,0,L|410:319,1,56.2499982833863,2|0,0:2|0:0,0:0:0:0:
329,74,259788,6,0,P|298:140|300:186,3,100,6|2|2|2,0:2|0:2|0:2|0:2,0:0:0:0:
146,109,262547,6,0,P|192:186|199:288,3,174.999994659424,2|2|2|2,0:2|0:2|0:2|0:2,0:0:0:0:
443,93,265305,6,0,P|367:206|349:342,3,275.000008392334,2|2|2|2,3:2|0:2|0:2|0:2,0:0:0:0:
0,35,268064,6,0,P|99:191|124:376,2,375.000014305115,2|2|2,0:2|0:2|0:2,0:0:0:0:
123,376,270133,6,0,L|70:382,7,46.8750017881394,2|0|0|0|0|0|0|0,0:2|0:0|0:0|0:0|0:0|0:0|0:0|0:0,0:0:0:0:
190,309,270823,6,0,P|255:375|320:309,1,206.250006294251,6|0,0:2|0:0,0:0:0:0:
254,137,271971,2,0,P|257:244|257:137,1,328.12498998642,2|0,0:2|0:0,0:0:0:0:
176,192,275375,6,0,P|150:216|105:222,1,65.624997997284,6|0,0:2|0:0,0:0:0:0:
48,188,276006,2,0,P|40:183|16:185,1,25,2|0,0:2|0:0,0:0:0:0:
16,90,276582,5,2,0:2:0:0:
16,90,276654,2,0,P|96:96|156:-23,1,206.250006294251,2|0,0:2|0:0,0:0:0:0:
352,0,278030,5,2,0:2:0:0:
352,0,278097,2,0,P|397:87|496:90,1,206.250006294251,2|0,0:2|0:0,0:0:0:0:
256,32,279655,5,2,0:2:0:0:
256,32,279693,2,0,B|209:142|307:118|257:227,1,206.250006294251,2|0,0:2|0:0,0:0:0:0:
256,384,281633,5,2,0:2:0:0:
90,351,285086,5,6,0:2:0:0:
95,355,285186,2,0,P|163:339|163:274,1,137.500004196167,2|2,0:2|0:2,0:0:0:0:
344,280,286306,6,0,P|353:344|417:355,1,137.500004196167,2|2,0:2|0:2,0:0:0:0:
256,112,287934,1,2,0:2:0:0:
256,128,288019,1,2,0:2:0:0:
174,287,289845,6,0,B|271:331|241:241|338:287,1,174.999994659424,2|2,0:2|0:2,0:0:0:0:
256,368,291536,5,2,0:2:0:0:
256,376,291643,2,0,L|256:313,1,62.5,2|2,0:2|0:2,0:0:0:0:
256,264,291990,1,2,0:2:0:0:
256,240,292652,5,2,0:2:0:0:
256,224,293743,5,2,0:2:0:0:
256,192,293826,12,0,298326,0:0:0:0:
48,368,298419,6,0,P|32:264|152:328,1,299.999990844727,6|2,0:2|0:2,0:0:0:0:
464,368,303164,6,0,P|480:264|360:328,1,299.999990844727,6|2,0:2|0:2,0:0:0:0:
256,192,306695,5,6,0:2:0:0:
256,192,306745,1,2,0:2:0:0:
440,196,307816,5,2,0:2:0:0:
440,196,307882,2,0,B|431:147|458:159|449:110,1,87.499997329712,2|2,0:2|0:2,0:0:0:0:
425,291,309278,5,2,0:2:0:0:
370,348,309519,5,2,0:2:0:0:
282,364,309798,5,2,0:2:0:0:
173,339,310059,5,2,0:2:0:0:
76,214,310440,6,0,L|70:182,1,28.1249991416931,2|0,0:2|0:0,0:0:0:0:
71,187,310912,6,0,B|175:54|303:192|256:192|207:192|335:328|440:197,1,449.99998626709,2|4,0:2|0:2,0:0:0:0:
256,192,315065,12,0,320410,0:0:0:0:
31,2,320496,6,0,B|-29:-20|-29:-20,1,64.0625,6|0,0:1|0:0,0:1:0:0:
