osu file format v14

[General]
AudioFilename: audio.mp3
AudioLeadIn: 0
PreviewTime: 29788
Countdown: 0
SampleSet: Soft
StackLeniency: 0.7
Mode: 0
LetterboxInBreaks: 0
WidescreenStoryboard: 0

[Editor]
DistanceSpacing: 0.6
BeatDivisor: 8
GridSize: 4
TimelineZoom: 1.8

[Metadata]
Title:Szampan (Cut Ver.)
TitleUnicode:Szampan (Cut Ver.)
Artist:sanah
ArtistUnicode:sanah
Creator:Skubi
Version:Szalony
Source:
Tags:Królowa Dram Krolowa The Voice Of Poland Britain's Got Talent Polish Pop Champagne
BeatmapID:2807338
BeatmapSetID:1356492

[Difficulty]
HPDrainRate:5
CircleSize:4
OverallDifficulty:8
ApproachRate:8.8
SliderMultiplier:2
SliderTickRate:1

[Events]
//Background and Video events
0,0,"header_sh21.jpg",0,0
//Break Periods
//Storyboard Layer 0 (Background)
//Storyboard Layer 1 (Fail)
//Storyboard Layer 2 (Pass)
//Storyboard Layer 3 (Foreground)
//Storyboard Layer 4 (Overlay)
//Storyboard Sound Samples

[TimingPoints]
365.194029850746,461.538461538462,4,2,0,45,1,0
1172,-100,4,2,0,5,0,0
1288,-100,4,2,0,45,0,0
1519,-100,4,2,0,5,0,0
1634,-100,4,2,0,45,0,0
1865,-100,4,2,0,5,0,0
1980,-100,4,2,0,45,0,0
3942,-100,4,2,0,5,0,0
4057,-100,4,2,0,45,0,0
4403,-100,4,2,0,5,0,0
4519,-100,4,2,0,45,0,0
8326,-100,4,2,0,5,0,0
8442,-100,4,2,0,45,0,0
8672,-100,4,2,0,5,0,0
8788,-100,4,2,0,45,0,0
9019,-100,4,2,0,5,0,0
9134,-100,4,2,0,45,0,0
11326,-100,4,2,0,5,0,0
11442,-100,4,2,0,45,0,0
11788,-100,4,2,0,5,0,0
11903,-100,4,2,0,45,0,0
21942,-100,4,2,0,5,0,0
22057,-100,4,2,0,45,0,0
28288,-66.6666666666667,4,2,0,45,0,0
28403,-100,4,2,0,5,0,0
28519,-100,4,2,0,45,0,0
28865,-100,4,2,0,5,0,0
28980,-100,4,2,0,30,0,0
29095,-100,4,2,0,38,0,0
29211,-100,4,2,0,46,0,0
29326,-100,4,2,0,54,0,0
29442,-100,4,2,0,60,0,0
29903,-66.6666666666667,4,2,0,75,0,1
30249,-100,4,2,0,5,0,1
30365,-66.6666666666667,4,2,0,75,0,1
30480,-100,4,2,0,5,0,1
30595,-66.6666666666667,4,2,0,75,0,1
30942,-100,4,2,0,5,0,1
31057,-66.6666666666667,4,2,0,75,0,1
31172,-100,4,2,0,5,0,1
31288,-66.6666666666667,4,2,0,75,0,1
31865,-100,4,2,0,5,0,1
31980,-66.6666666666667,4,2,0,75,0,1
32095,-100,4,2,0,5,0,1
32211,-66.6666666666667,4,2,0,75,0,1
32326,-100,4,2,0,5,0,1
32442,-66.6666666666667,4,2,0,75,0,1
32557,-100,4,2,0,5,0,1
32672,-66.6666666666667,4,2,0,75,0,1
33249,-100,4,2,0,5,0,1
33365,-66.6666666666667,4,2,0,75,0,1
33480,-100,4,2,0,5,0,1
33595,-66.6666666666667,4,2,0,75,0,1
34172,-100,4,2,0,5,0,1
34288,-66.6666666666667,4,2,0,75,0,1
34403,-100,4,2,0,5,0,1
34519,-66.6666666666667,4,2,0,75,0,1
36826,-50,4,2,0,75,0,1
37288,-66.6666666666667,4,2,0,75,0,1
37634,-100,4,2,0,5,0,1
37749,-66.6666666666667,4,2,0,75,0,1
37865,-100,4,2,0,5,0,1
37980,-66.6666666666667,4,2,0,75,0,1
38095,-100,4,2,0,5,0,1
38211,-66.6666666666667,4,2,0,75,0,1
38326,-100,4,2,0,5,0,1
38442,-66.6666666666667,4,2,0,75,0,1
38557,-100,4,2,0,5,0,1
38672,-66.6666666666667,4,2,0,75,0,1
39249,-100,4,2,0,5,0,1
39365,-66.6666666666667,4,2,0,75,0,1
39480,-100,4,2,0,5,0,1
39595,-66.6666666666667,4,2,0,75,0,1
39711,-100,4,2,0,5,0,1
39826,-66.6666666666667,4,2,0,75,0,1
39942,-100,4,2,0,5,0,1
40057,-66.6666666666667,4,2,0,75,0,1
40634,-100,4,2,0,5,0,1
40749,-66.6666666666667,4,2,0,75,0,1
40865,-100,4,2,0,5,0,1
40980,-66.6666666666667,4,2,0,75,0,1
41557,-100,4,2,0,5,0,1
41672,-66.6666666666667,4,2,0,75,0,1
41788,-100,4,2,0,5,0,1
41903,-66.6666666666667,4,2,0,75,0,1
44211,-50,4,2,0,75,0,0
44672,-66.6666666666667,4,2,0,75,0,1
45019,-100,4,2,0,5,0,1
45134,-66.6666666666667,4,2,0,75,0,1
45249,-100,4,2,0,5,0,1
45365,-66.6666666666667,4,2,0,75,0,1
45480,-100,4,2,0,5,0,1
45595,-66.6666666666667,4,2,0,75,0,1
45942,-100,4,2,0,5,0,1
46057,-66.6666666666667,4,2,0,75,0,1
46403,-100,4,2,0,5,0,1
46519,-66.6666666666667,4,2,0,75,0,1
46865,-100,4,2,0,5,0,1
46980,-66.6666666666667,4,2,0,75,0,1
47095,-100,4,2,0,5,0,1
47211,-66.6666666666667,4,2,0,75,0,1
47326,-100,4,2,0,5,0,1
47442,-66.6666666666667,4,2,0,75,0,1
47788,-100,4,2,0,5,0,1
47903,-66.6666666666667,4,2,0,75,0,1
48249,-100,4,2,0,5,0,1
48365,-66.6666666666667,4,2,0,75,0,1
48480,-100,4,2,0,5,0,1
48595,-66.6666666666667,4,2,0,75,0,1
48711,-100,4,2,0,5,0,1
48826,-66.6666666666667,4,2,0,75,0,1
50095,-100,4,2,0,5,0,1
50211,-66.6666666666667,4,2,0,75,0,1
50557,-100,4,2,0,5,0,1
50672,-66.6666666666667,4,2,0,75,0,1
51019,-100,4,2,0,5,0,1
51134,-66.6666666666667,4,2,0,75,0,1
52403,-100,4,2,0,5,0,1
52519,-66.6666666666667,4,2,0,75,0,1
52634,-100,4,2,0,5,0,1
52749,-66.6666666666667,4,2,0,75,0,1
53095,-100,4,2,0,5,0,1
53211,-66.6666666666667,4,2,0,75,0,1
53326,-100,4,2,0,5,0,1
53442,-66.6666666666667,4,2,0,75,0,1
54019,-100,4,2,0,5,0,1
54134,-66.6666666666667,4,2,0,75,0,1
54249,-100,4,2,0,5,0,1
54365,-66.6666666666667,4,2,0,75,0,1
54480,-100,4,2,0,5,0,1
54595,-66.6666666666667,4,2,0,75,0,1
54711,-100,4,2,0,5,0,1
54826,-66.6666666666667,4,2,0,75,0,1
55403,-100,4,2,0,5,0,1
55519,-66.6666666666667,4,2,0,75,0,1
55634,-100,4,2,0,5,0,1
55749,-66.6666666666667,4,2,0,75,0,1
56326,-100,4,2,0,5,0,1
56442,-66.6666666666667,4,2,0,75,0,1
58980,-50,4,2,0,75,0,0
59442,-66.6666666666667,4,2,0,75,0,0
60019,-100,4,2,0,5,0,0
60134,-66.6666666666667,4,2,0,75,0,0
60249,-100,4,2,0,5,0,0
60365,-66.6666666666667,4,2,0,75,0,0
61865,-100,4,2,0,5,0,0
61980,-66.6666666666667,4,2,0,75,0,0
62095,-100,4,2,0,5,0,0
62211,-66.6666666666667,4,2,0,75,0,0
63711,-100,4,2,0,5,0,0
63826,-66.6666666666667,4,2,0,75,0,0
63942,-100,4,2,0,5,0,0
64057,-66.6666666666667,4,2,0,75,0,0
64865,-100,4,2,0,5,0,0
64980,-66.6666666666667,4,2,0,75,0,0
65326,-100,4,2,0,5,0,0
65442,-66.6666666666667,4,2,0,75,0,0
67403,-100,4,2,0,5,0,0
67519,-66.6666666666667,4,2,0,75,0,0
67634,-100,4,2,0,5,0,0
67749,-66.6666666666667,4,2,0,75,0,0
69249,-100,4,2,0,5,0,0
69365,-66.6666666666667,4,2,0,75,0,0
69480,-100,4,2,0,5,0,0
69595,-66.6666666666667,4,2,0,75,0,0
71095,-100,4,2,0,5,0,0
71211,-66.6666666666667,4,2,0,75,0,0
71326,-100,4,2,0,5,0,0
71442,-66.6666666666667,4,2,0,75,0,0
72365,-66.6666666666667,4,2,0,75,0,0
72480,-100,4,2,0,5,0,0

[Colours]
Combo1 : 121,253,200
Combo2 : 244,124,248
Combo3 : 248,167,252
Combo4 : 29,250,139

[HitObjects]
68,63,365,5,0,0:0:0:0:
68,63,595,1,0,0:0:0:0:
11,144,826,2,0,P|63:161|150:118,1,150,2|0,0:0|0:0,0:0:0:0:
211,87,1288,2,0,B|256:64|256:64|301:87,1,100,2|0,0:0|0:0,0:0:0:0:
300,161,1634,2,0,B|255:184|255:184|210:161,1,100,2|0,0:0|0:0,0:0:0:0:
146,124,1980,1,2,0:0:0:0:
377,135,2211,5,0,0:0:0:0:
377,135,2442,1,0,0:0:0:0:
377,135,2672,1,0,0:0:0:0:
377,135,2903,1,0,0:0:0:0:
377,135,3134,1,0,0:0:0:0:
512,191,3365,1,2,0:0:0:0:
377,249,3595,6,0,B|295:284|295:284|296:371,1,150,2|0,0:0|0:0,0:0:0:0:
216,345,4057,2,0,B|216:284|216:284|135:249,1,150,2|0,0:0|0:0,0:0:0:0:
67,228,4519,1,2,0:0:0:0:
67,228,4749,1,0,0:0:0:0:
18,369,4980,2,0,L|117:357,1,100,2|0,0:0|0:0,0:0:0:0:
241,272,5442,1,2,0:0:0:0:
117,357,5672,1,2,0:0:0:0:
300,382,5903,2,0,B|291:276|291:276|286:267|286:267|295:266|295:266|289:256|289:256|282:170,1,200,2|0,0:0|0:0,0:0:0:0:
272,43,6595,1,0,0:0:0:0:
403,117,6826,2,0,B|328:168|328:168|268:147,1,150,2|0,0:0|0:0,0:0:0:0:
256,142,7288,1,2,0:0:0:0:
122,193,7519,2,0,B|163:224|163:224|230:203,1,100,2|0,0:0|0:0,0:0:0:0:
89,94,7980,6,0,L|93:284,1,150,2|0,0:0|0:0,0:0:0:0:
140,350,8442,2,0,P|94:368|48:352,1,100,2|0,0:0|0:0,0:0:0:0:
46,276,8788,2,0,P|91:257|138:273,1,100,2|0,0:0|0:0,0:0:0:0:
203,310,9134,1,2,0:0:0:0:
256,169,9365,1,0,0:0:0:0:
323,324,9595,5,0,0:0:0:0:
323,324,9826,1,0,0:0:0:0:
323,324,10057,1,0,0:0:0:0:
323,324,10288,1,0,0:0:0:0:
323,324,10519,1,0,0:0:0:0:
461,381,10749,1,2,0:0:0:0:
437,232,10980,6,0,B|424:119|424:119|444:76,1,150,2|0,0:0|0:0,0:0:0:0:
349,129,11442,2,0,B|362:242|362:242|342:285,1,150,2|0,0:0|0:0,0:0:0:0:
287,230,11903,1,2,0:0:0:0:
287,230,12134,1,0,0:0:0:0:
176,128,12365,2,0,B|225:137|225:137|286:102,1,100,2|0,0:0|0:0,0:0:0:0:
133,46,12826,1,2,0:0:0:0:
117,195,13057,1,2,0:0:0:0:
26,315,13288,2,0,B|70:299|70:299|165:349|165:349|241:330,1,200,2|0,0:0|0:0,0:0:0:0:
305,222,13980,1,0,0:0:0:0:
164,169,14211,2,0,L|176:303,2,100,2|0|2,0:0|0:0|0:0,0:0:0:0:
256,51,14903,1,2,0:0:0:0:
336,161,15134,5,0,1:0:0:0:
434,180,15365,1,2,1:0:0:0:
453,82,15595,1,0,1:0:0:0:
355,63,15826,1,2,1:0:0:0:
288,220,16057,5,0,1:0:0:0:
190,239,16288,1,2,1:0:0:0:
171,141,16518,1,0,1:0:0:0:
269,123,16749,1,2,1:0:0:0:
336,281,16980,5,0,1:0:0:0:
434,300,17211,1,2,1:0:0:0:
453,202,17441,1,0,1:0:0:0:
355,184,17672,1,2,1:0:0:0:
289,343,17903,5,0,1:0:0:0:
191,362,18134,1,2,1:0:0:0:
172,264,18364,1,2,1:0:0:0:
270,246,18595,1,0,1:0:0:0:
383,334,18826,6,0,B|334:350|334:350|287:336,1,100,2|0,1:2|1:2,0:0:0:0:
187,338,19288,2,0,B|197:288|197:288|232:254,1,100,2|0,1:2|1:2,0:0:0:0:
282,166,19749,2,0,B|320:199|320:199|331:247,1,100,2|0,1:2|1:2,0:0:0:0:
449,369,20211,1,2,1:2:0:0:
449,369,20442,2,0,B|485:353|489:318|489:318|494:180,1,200,2|0,1:2|1:2,0:0:0:0:
432,106,21134,2,0,B|396:122|392:157|392:157|390:233,1,100,2|0,1:2|1:2,0:0:0:0:
502,82,21595,2,0,B|441:107|420:51|352:80,1,150,2|0,1:2|0:0,0:0:0:0:
339,88,22057,1,2,1:2:0:0:
256,31,22288,1,2,1:2:0:0:
176,161,22519,5,0,1:0:0:0:
78,180,22750,1,2,1:0:0:0:
59,82,22980,1,0,1:0:0:0:
157,63,23211,1,2,1:0:0:0:
224,220,23442,5,0,1:0:0:0:
322,239,23673,1,2,1:0:0:0:
341,141,23903,1,0,1:0:0:0:
243,123,24134,1,2,1:0:0:0:
176,281,24365,5,0,1:0:0:0:
78,300,24596,1,2,1:0:0:0:
59,202,24826,1,0,1:0:0:0:
157,184,25057,1,2,1:0:0:0:
223,343,25288,5,0,1:0:0:0:
321,362,25519,1,2,1:0:0:0:
340,264,25749,1,2,1:0:0:0:
242,246,25980,1,0,1:0:0:0:
194,352,26211,6,0,B|144:346|144:346|107:341|87:294,1,100,2|0,1:2|1:2,0:0:0:0:
140,180,26672,2,0,B|160:227|160:227|174:261|144:302,1,100,2|0,1:2|1:2,0:0:0:0:
17,313,27134,2,0,B|48:273|48:273|71:244|121:250,1,100,2|0,1:2|1:2,0:0:0:0:
194,352,27595,1,2,1:2:0:0:
295,196,27826,1,2,1:2:0:0:
295,196,28288,6,0,P|331:206|370:194,1,75.0000028610231,0|0,1:0|0:0,0:0:0:0:
437,189,28519,2,0,B|401:169|368:186|368:186|335:209|294:188,1,150,0|0,1:0|0:0,0:0:0:0:
280,180,28980,1,0,3:0:0:0:
257,160,29095,1,0,3:0:0:0:
245,116,29211,1,0,3:0:0:0:
262,58,29326,1,0,3:0:0:0:
318,108,29442,5,0,3:0:0:0:
188,67,29672,1,0,3:0:0:0:
255,281,29903,5,4,3:2:0:0:
396,305,30134,2,0,L|319:312,1,75.0000028610231,2|0,3:2|0:0,0:0:0:0:
313,236,30365,2,0,L|387:229,1,75.0000028610231,2|0,0:0|0:0,0:0:0:0:
453,262,30595,1,2,0:0:0:0:
255,281,30826,2,0,P|228:244|228:184,1,75.0000028610231,2|0,3:2|0:0,0:0:0:0:
133,212,31057,2,0,P|147:168|196:134,1,75.0000028610231,2|0,3:2|0:0,0:0:0:0:
119,72,31288,2,0,B|181:44|202:93|268:60,1,150.000005722046,2|0,3:2|0:0,0:0:0:0:
328,23,31634,1,0,0:0:0:0:
364,133,31749,6,0,B|336:147|336:147|279:129,1,75.0000028610231,2|0,3:2|0:0,0:0:0:0:
148,172,31980,2,0,B|176:158|176:158|233:176,1,75.0000028610231,2|0,3:2|0:0,0:0:0:0:
364,217,32211,2,0,B|336:231|336:231|279:213,1,75.0000028610231,2|0,0:0|0:0,0:0:0:0:
148,256,32442,2,0,B|176:242|176:242|233:260,1,75.0000028610231,2|0,3:2|0:0,0:0:0:0:
294,301,32672,2,0,B|336:315|336:315|392:289|392:289|434:303,1,150.000005722046,2|8,3:2|0:0,0:0:0:0:
505,328,33019,1,0,0:0:0:0:
494,254,33134,2,0,L|484:172,1,75.0000028610231,10|0,3:2|0:0,0:0:0:0:
411,196,33365,2,0,L|401:114,1,75.0000028610231,2|0,0:0|0:0,0:0:0:0:
336,44,33595,6,0,B|323:152|323:152|295:182,1,150.000005722046,2|0,3:2|3:2,0:0:0:0:
256,247,33942,1,0,0:0:0:0:
217,182,34057,2,0,B|189:152|189:152|178:52,1,75.0000028610231,2|0,0:0|0:0,0:0:0:0:
123,43,34288,2,0,B|151:73|151:73|162:173,1,75.0000028610231,2|0,3:2|0:0,0:0:0:0:
63,256,34519,2,0,L|84:93,2,150.000005722046,2|0|0,3:2|0:0|3:2,0:0:0:0:
198,320,35211,6,0,P|124:321|144:373,1,150.000005722046,2|0,0:0|3:2,0:0:0:0:
256,273,35672,1,2,3:2:0:0:
369,371,35903,2,0,P|377:307|314:320,1,150.000005722046,2|0,0:0|3:2,0:0:0:0:
184,192,36365,6,0,B|240:160|272:224|328:192,1,150.000005722046,2|8,3:2|0:0,0:0:0:0:
388,128,36711,1,0,0:0:0:0:
351,192,36826,2,0,B|277:149|234:234|160:192,1,200,10|0,3:2|0:0,0:0:0:0:
256,15,37288,1,4,3:2:0:0:
437,197,37519,6,0,L|449:272,1,75.0000028610231,2|0,3:2|0:0,0:0:0:0:
374,279,37749,2,0,L|363:205,1,75.0000028610231,2|0,0:0|0:0,0:0:0:0:
298,108,37980,2,0,L|286:182,1,75.0000028610231,2|0,3:2|0:0,0:0:0:0:
361,189,38211,2,0,L|372:114,1,75.0000028610231,2|0,3:2|0:0,0:0:0:0:
438,21,38442,2,0,L|449:95,1,75.0000028610231,2|0,0:0|0:0,0:0:0:0:
374,102,38672,2,0,B|363:31|363:31|292:0,1,150.000005722046,2|0,3:2|0:0,0:0:0:0:
258,68,39019,1,0,0:0:0:0:
224,136,39134,6,0,B|184:135|184:135|148:108,1,75.0000028610231,2|0,3:2|0:0,0:0:0:0:
148,23,39365,2,0,B|147:63|147:63|120:99,1,75.0000028610231,2|0,3:2|0:0,0:0:0:0:
35,99,39595,2,0,B|75:100|75:100|111:127,1,75.0000028610231,2|0,0:0|0:0,0:0:0:0:
111,212,39826,2,0,B|112:172|112:172|139:136,1,75.0000028610231,2|0,3:2|0:0,0:0:0:0:
328,198,40057,2,0,B|272:166|240:230|184:198,1,150.000005722046,2|8,3:2|0:0,0:0:0:0:
298,26,40519,6,0,P|310:62|291:105,1,75.0000028610231,10|0,3:2|0:0,0:0:0:0:
213,96,40749,2,0,P|202:60|214:26,1,75.0000028610231,2|0,0:0|0:0,0:0:0:0:
323,97,40980,6,0,B|371:101|371:101|403:143|403:143|451:148,1,150.000005722046,2|0,3:2|3:2,0:0:0:0:
512,192,41326,1,0,0:0:0:0:
451,236,41442,2,0,B|403:241|403:241|371:283,1,75.0000028610231,2|0,0:0|0:0,0:0:0:0:
348,326,41672,2,0,B|331:347|331:347|283:351,1,75.0000028610231,2|0,3:2|0:0,0:0:0:0:
144,264,41903,2,0,B|292:276,2,150.000005722046,2|0|0,3:2|0:0|3:2,0:0:0:0:
22,293,42595,6,0,P|9:356|73:347,1,150.000005722046,2|0,0:0|3:2,0:0:0:0:
98,193,43056,1,2,3:2:0:0:
22,91,43288,2,0,P|9:27|73:36,1,150.000005722046,2|0,0:0|3:2,0:0:0:0:
208,104,43749,6,0,B|208:108|204:200|260:152|256:244|256:248,1,150.000005722046,2|8,3:2|0:0,0:0:0:0:
256,368,44095,1,0,0:0:0:0:
256,292,44211,2,0,B|256:286|250:168|323:230|317:111|317:106,1,200,10|0,3:2|0:0,0:0:0:0:
256,15,44672,1,4,3:2:0:0:
331,173,44903,6,0,P|350:206|380:227,1,75.0000028610231,2|0,3:2|0:0,0:0:0:0:
434,282,45134,2,0,P|452:251|449:190,1,75.0000028610231,2|0,3:2|0:0,0:0:0:0:
475,139,45365,2,0,P|438:139|405:155,1,75.0000028610231,2|0,3:2|0:0,0:0:0:0:
300,276,45595,2,0,B|254:264|250:213|250:213|250:166|250:166|245:115|194:103,1,225.000008583069,2|0,3:2|0:0,0:0:0:0:
211,276,46057,2,0,B|258:264|262:213|262:213|262:166|262:166|267:115|318:103,1,225.000008583069,2|0,3:2|3:2,3:2:0:0:
255,45,46519,1,0,3:2:0:0:
177,171,46749,6,0,B|161:209|161:209|129:223,1,75.0000028610231,2|0,3:2|0:0,0:0:0:0:
80,277,46980,2,0,B|55:244|55:244|58:209,1,75.0000028610231,2|0,0:0|0:0,0:0:0:0:
37,138,47211,2,0,B|77:133|77:133|105:153,1,75.0000028610231,2|0,3:2|0:0,0:0:0:0:
219,278,47442,2,0,B|263:251|263:251|263:131|263:131|309:103,1,225.000008583069,2|0,3:2|0:0,0:0:0:0:
292,278,47903,2,0,B|249:251|249:251|249:131|249:131|203:103,1,225.000008583069,2|0,0:0|0:0,0:0:0:0:
101,180,48365,6,0,L|175:172,1,75.0000028610231,2|0,3:2|0:0,0:0:0:0:
175,249,48595,2,0,L|101:257,1,75.0000028610231,2|0,3:2|0:0,0:0:0:0:
37,220,48826,1,0,0:0:0:0:
101,334,49057,2,0,B|165:327|165:327|175:332|175:332|183:326|183:326|285:315,1,150.000005722046,2|0,3:2|3:2,0:0:0:0:
392,362,49519,1,2,0:0:0:0:
378,175,49749,1,2,3:2:0:0:
392,349,49980,6,0,B|388:296|388:296|410:262,1,75.0000028610231,2|0,0:0|0:0,0:0:0:0:
464,317,50211,1,0,3:2:0:0:
316,268,50442,2,0,B|312:214|312:214|286:184,1,75.0000028610231,2|0,3:2|0:0,0:0:0:0:
241,246,50672,1,0,0:0:0:0:
378,175,50903,2,0,B|374:122|374:122|395:88,1,75.0000028610231,2|0,3:2|0:0,0:0:0:0:
450,142,51133,5,2,3:2:0:0:
320,64,51365,1,8,0:0:0:0:
256,196,51595,1,10,3:2:0:0:
192,64,51826,1,0,0:0:0:0:
62,142,52058,1,4,3:2:0:0:
137,279,52288,6,0,P|166:303|219:297,1,75.0000028610231,2|0,3:2|0:0,0:0:0:0:
226,234,52519,2,0,P|197:210|144:216,1,75.0000028610231,2|0,0:0|0:0,0:0:0:0:
87,223,52749,1,2,3:2:0:0:
281,365,52980,2,0,L|273:277,1,75.0000028610231,2|0,3:2|0:0,0:0:0:0:
356,360,53211,2,0,L|348:272,1,75.0000028610231,2|0,0:0|0:0,0:0:0:0:
456,354,53442,2,0,B|433:345|428:312|428:312|419:216,1,150.000005722046,2|0,3:2|0:0,0:0:0:0:
481,174,53788,1,0,0:0:0:0:
414,141,53903,6,0,P|362:164|344:205,1,75.0000028610231,2|0,3:2|0:0,0:0:0:0:
306,117,54134,2,0,L|294:36,1,75.0000028610231,2|0,3:2|0:0,0:0:0:0:
216,42,54365,2,0,L|206:117,1,75.0000028610231,2|0,0:0|0:0,0:0:0:0:
159,177,54596,2,0,P|133:150|97:141,1,75.0000028610231,2|0,3:2|0:0,0:0:0:0:
20,250,54826,2,0,B|20:284|20:284|19:316|36:335|70:338|90:324|94:289|94:289|97:254,1,150.000005722046,2|8,3:2|0:0,0:0:0:0:
93,220,55172,1,0,0:0:0:0:
161,258,55288,2,0,L|265:246,1,75.0000028610231,10|0,3:2|0:0,0:0:0:0:
201,330,55519,2,0,L|305:318,1,75.0000028610231,2|0,0:0|0:0,0:0:0:0:
415,366,55749,6,0,B|341:358|341:358|379:254,1,150.000005722046,2|0,3:2|3:2,0:0:0:0:
389,215,56095,1,0,0:0:0:0:
512,268,56211,2,0,L|411:272,1,75.0000028610231,2|0,0:0|0:0,0:0:0:0:
318,231,56442,1,2,3:2:0:0:
382,65,56672,2,0,L|390:246,2,150.000005722046,2|0|0,3:2|0:0|3:2,0:0:0:0:
198,64,57365,6,0,P|124:63|144:11,1,150.000005722046,2|0,0:0|3:2,0:0:0:0:
256,111,57826,1,2,3:2:0:0:
369,13,58057,2,0,P|377:77|314:64,1,150.000005722046,2|0,0:0|3:2,0:0:0:0:
205,245,58519,6,0,B|256:192|256:192|310:245,1,150.000005722046,2|8,3:2|0:0,0:0:0:0:
256,304,58865,1,0,0:0:0:0:
172,232,58980,2,0,B|224:212|224:212|256:180|256:180|288:212|288:212|340:232,1,200,10|0,3:2|0:0,0:0:0:0:
130,304,59442,6,0,B|96:271|96:271|86:132,1,150.000005722046,4|0,3:2|3:2,0:0:0:0:
87,142,59788,1,0,0:0:0:0:
1,93,59903,2,0,B|23:118|23:118|83:124,1,75.0000028610231
176,156,60134,2,0,B|154:131|154:131|94:125,1,75.0000028610231,0|0,3:2|0:0,0:0:0:0:
16,192,60365,1,0,3:2:0:0:
93,55,60595,1,0,0:0:0:0:
173,190,60826,5,8,3:2:0:0:
256,192,60942,1,0,0:0:0:0:
339,194,61057,1,8,0:0:0:0:
446,321,61288,6,0,B|416:301|416:271|416:271|426:132,1,150.000005722046,0|0,3:2|3:2,0:0:0:0:
425,150,61634,1,0,0:0:0:0:
370,98,61749,2,0,B|356:81|356:59|356:59|361:27,1,75.0000028610231
506,40,61980,2,0,B|505:73|505:73|502:94|485:108,1,75.0000028610231,0|0,3:2|0:0,0:0:0:0:
425,150,62211,1,0,3:2:0:0:
435,0,62442,1,0,0:0:0:0:
339,190,62672,5,8,3:2:0:0:
173,194,62903,1,8,0:0:0:0:
66,306,63134,6,0,B|96:271|96:271|86:132,1,150.000005722046,0|0,3:2|3:2,0:0:0:0:
87,142,63480,1,0,0:0:0:0:
10,109,63595,2,0,B|0:146|0:146|14:184,1,75.0000028610231
164,175,63826,2,0,B|173:137|173:137|159:99,1,75.0000028610231,0|0,3:2|0:0,0:0:0:0:
80,35,64057,1,0,3:2:0:0:
13,180,64288,1,0,0:0:0:0:
173,190,64518,5,8,3:2:0:0:
256,192,64634,1,0,0:0:0:0:
339,194,64749,2,0,L|348:299,1,75.0000028610231,10|0,0:0|0:0,0:0:0:0:
351,343,64980,5,0,3:2:0:0:
173,190,65211,2,0,L|164:85,1,75.0000028610231,2|0,3:2|0:0,0:0:0:0:
161,41,65442,1,2,0:0:0:0:
256,192,65672,1,0,3:2:0:0:
351,343,65903,2,0,B|422:372|422:372|490:345,1,150.000005722046,2|0,3:2|0:0,0:0:0:0:
161,41,66365,2,0,B|90:12|90:12|22:39,1,150.000005722046,2|0,3:2|0:0,0:0:0:0:
86,319,66826,6,0,P|158:344|208:291,1,150.000005722046,4|0,3:2|3:2,0:0:0:0:
221,224,67172,1,0,0:0:0:0:
159,175,67288,2,0,P|144:210|149:247,1,75.0000028610231
277,274,67519,2,0,P|294:242|294:205,1,75.0000028610231,0|0,3:2|0:0,0:0:0:0:
235,149,67749,1,0,3:2:0:0:
374,205,67980,1,0,0:0:0:0:
474,93,68211,5,8,3:2:0:0:
399,100,68326,1,0,0:0:0:0:
324,107,68442,1,8,0:0:0:0:
426,319,68672,6,0,B|359:356|359:356|293:234,1,150.000005722046,0|0,3:2|3:2,0:0:0:0:
291,224,69018,1,0,0:0:0:0:
207,262,69134,2,0,B|239:284|239:284|284:270,1,75.0000028610231
372,183,69365,2,0,B|369:221|369:221|330:248,1,75.0000028610231,0|0,3:2|0:0,0:0:0:0:
264,159,69595,1,0,3:2:0:0:
324,291,69826,1,0,0:0:0:0:
188,107,70057,5,8,3:2:0:0:
38,93,70288,1,8,0:0:0:0:
63,324,70519,6,0,B|145:320|145:320|185:319|206:289,1,150.000005722046,0|0,3:2|3:2,0:0:0:0:
225,219,70865,1,0,0:0:0:0:
163,175,70981,2,0,P|162:136|196:97,1,75.0000028610231
312,140,71211,2,0,P|316:176|299:209,1,75.0000028610231,0|0,3:2|0:0,0:0:0:0:
225,219,71442,1,0,3:2:0:0:
259,61,71672,1,0,0:0:0:0:
474,93,71903,5,8,3:2:0:0:
399,100,72018,1,0,0:0:0:0:
324,107,72134,1,8,0:0:0:0:
252,284,72365,6,0,L|260:360,1,75.0000028610231,4|0,0:0|0:0,0:0:0:0:
256,192,72595,12,0,76057,0:0:0:0:
