osu file format v14

[General]
AudioFilename: audio.mp3
AudioLeadIn: 0
PreviewTime: 67201
Countdown: 0
SampleSet: Soft
StackLeniency: 0.7
Mode: 0
LetterboxInBreaks: 0
EpilepsyWarning: 1
WidescreenStoryboard: 1

[Editor]
Bookmarks: 38592,67201,130777,202300,232499
DistanceSpacing: 1
BeatDivisor: 4
GridSize: 4
TimelineZoom: 1.1

[Metadata]
Title:cantabile
TitleUnicode:cantabile
Artist:sana
ArtistUnicode:鎖那
Creator:Zero__wind
Version:Skyline
Source:
Tags:Sharlo Vocaloid minjta (un)sentimental unsentimental spica 初音ミク Hatsune Miku
BeatmapID:969420
BeatmapSetID:451910

[Difficulty]
HPDrainRate:6.5
CircleSize:4
OverallDifficulty:8.2
ApproachRate:8.5
SliderMultiplier:2
SliderTickRate:2

[Events]
//Background and Video events
0,0,"bg.jpg",0,0
//Break Periods
2,92831,103082
//Storyboard Layer 0 (Background)
//Storyboard Layer 1 (Fail)
//Storyboard Layer 2 (Pass)
//Storyboard Layer 3 (Foreground)
Sprite,Foreground,Centre,"SB\sh.png",320,240 M,0,113890,113989,376,120,400,112 S,0,113890,114684,0.5,1 R,0,113890,114684,0,1 M,0,113989,114088,400,112,425,110 M,0,114088,114188,425,110,449,115 M,0,114188,114287,449,115,472,125 M,0,114287,114386,472,125,491,141 M,0,114386,114486,491,141,506,161 M,0,114486,114585,506,161,515,185 M,0,114585,114684,515,185,518,209
//Storyboard Sound Samples

[TimingPoints]
-1143,397.350993377483,4,2,1,40,1,0
446,-133.333333333333,4,2,1,40,0,0
25280,-133.333333333333,4,2,1,50,0,0
38592,-133.333333333333,4,2,2,50,0,0
50711,-133.333333333333,4,2,2,40,0,0
50909,-133.333333333333,4,2,2,50,0,0
64022,-166.666666666667,4,2,2,30,0,0
67201,-100,4,2,1,70,0,1
92631,-100,4,2,1,50,0,0
103757,-133.333333333333,4,2,2,50,0,0
113890,-200,4,2,2,50,0,0
114883,-133.333333333333,4,2,2,50,0,0
128393,-133.333333333333,4,2,1,50,0,0
130777,-100,4,2,1,70,0,1
156207,-133.333333333333,4,2,1,60,0,0
170512,-100,4,2,1,70,0,0
188393,-200,4,2,1,70,0,0
188790,-200,4,2,1,50,0,0
195943,-133.333333333333,4,2,1,50,0,0
199320,-100,4,2,1,60,0,0
202300,-100,4,2,1,70,0,1
225148,-90.9090909090909,4,2,1,70,0,1
225943,-83.3333333333333,4,2,1,70,0,1
226737,-76.9230769230769,4,2,1,70,0,1
227731,-71.4285714285714,4,2,1,70,0,1
229320,-71.4285714285714,4,2,1,70,0,0
230909,-100,4,2,1,60,0,0
256539,-100,4,2,1,50,0,0
258724,-100,4,2,1,60,0,0
259121,-100,4,2,1,70,0,0
259519,-100,4,2,1,40,0,0

[Colours]
Combo1 : 98,176,141
Combo2 : 223,228,232
Combo3 : 136,144,138
Combo4 : 101,214,238
Combo5 : 163,209,156
Combo6 : 158,154,235

[HitObjects]
288,260,446,6,0,P|324:272|360:260,1,75.0000028610231
460,124,843,2,0,P|424:112|388:124,1,75.0000028610231,2|0,0:0|0:0,0:0:0:0:
358,261,1241,2,0,L|436:272,1,75.0000028610231
389,122,1638,2,0,L|311:111,1,75.0000028610231,2|0,0:0|0:0,0:0:0:0:
432,270,2035,2,0,P|462:248|479:215,1,75.0000028610231
314,111,2433,1,2,0:0:0:0:
260,184,2631,21,0,0:0:0:0:
432,270,2830,1,2,0:0:0:0:
248,276,3029,1,0,0:0:0:0:
392,188,3227,1,2,0:0:0:0:
288,358,3426,1,2,0:0:0:0:
160,292,3625,70,0,L|76:288,1,75.0000028610231
132,112,4022,2,0,L|216:116,1,75.0000028610231,2|0,0:0|0:0,0:0:0:0:
85,288,4419,2,0,P|72:256|76:216,1,75.0000028610231
206,115,4817,2,0,P|219:147|215:187,1,75.0000028610231,2|0,0:0|0:0,0:0:0:0:
76,216,5214,2,0,P|28:212|0:208,1,75.0000028610231
215,186,5611,1,2,0:0:0:0:
304,204,5810,21,0,0:0:0:0:
76,216,6009,1,2,0:0:0:0:
188,100,6207,1,0,0:0:0:0:
192,320,6406,1,2,0:0:0:0:
304,204,6605,1,2,0:0:0:0:
147,209,6804,38,0,P|110:203|75:215,1,75.0000028610231
276,288,7201,2,0,P|312:293|347:281,1,75.0000028610231,2|0,0:0|0:0,0:0:0:0:
158,134,7598,2,0,L|146:210,1,75.0000028610231
264,362,7996,2,0,L|276:286,1,75.0000028610231,2|0,0:0|0:0,0:0:0:0:
229,132,8393,2,0,P|185:124|153:136,1,75.0000028610231
275,287,8790,1,2,0:0:0:0:
360,256,8989,53,0,0:0:0:0:
229,132,9188,1,2,0:0:0:0:
376,168,9386,1,0,0:0:0:0:
344,12,9585,1,2,0:0:0:0:
236,24,9784,1,2,0:0:0:0:
404,80,9982,38,0,L|488:88,1,75.0000028610231
303,139,10380,2,0,L|219:131,1,75.0000028610231,2|0,0:0|0:0,0:0:0:0:
478,87,10777,2,0,P|476:132|456:156,1,75.0000028610231
228,131,11174,2,0,P|230:86|250:62,1,75.0000028610231,2|0,0:0|0:0,0:0:0:0:
458,154,11572,2,0,P|416:164|376:172,1,75.0000028610231
247,63,11969,1,2,0:0:0:0:
336,40,12168,53,0,0:0:0:0:
458,154,12366,1,2,0:0:0:0:
320,216,12565,1,0,0:0:0:0:
448,44,12764,1,2,0:0:0:0:
420,256,12962,1,2,0:0:0:0:
331,308,13161,6,0,P|294:307|262:290,1,75.0000028610231,0|2,0:0|0:0,0:0:0:0:
284,128,13558,2,0,P|252:147|232:179,1,75.0000028610231,2|0,0:0|0:0,0:0:0:0:
200,352,13956,1,2,0:0:0:0:
331,308,14155,2,0,L|484:316,1,150.000005722046
504,228,14751,2,0,P|512:188|504:152,1,75.0000028610231
404,44,15148,1,2,0:0:0:0:
340,108,15347,21,0,0:0:0:0:
505,154,15545,1,2,0:0:0:0:
492,64,15744,1,0,0:0:0:0:
320,20,15943,1,2,0:0:0:0:
248,108,16141,1,2,0:0:0:0:
280,216,16340,69,0,0:0:0:0:
439,196,16539,2,0,P|408:212|370:223,1,75.0000028610231,0|2,0:0|0:0,0:0:0:0:
200,26,16936,2,0,P|272:17|330:61,1,150.000005722046,2|0,0:0|0:0,0:0:0:0:
280,216,17532,2,0,L|260:296,1,75.0000028610231,2|0,0:0|0:0,0:0:0:0:
171,360,17929,2,0,P|135:364|97:350,1,75.0000028610231
56,156,18327,1,2,0:0:0:0:
164,172,18525,21,0,0:0:0:0:
4,216,18724,1,2,0:0:0:0:
119,108,18923,1,0,0:0:0:0:
144,280,19121,1,2,0:0:0:0:
8,92,19320,1,2,0:0:0:0:
112,15,19519,38,0,P|149:18|182:40,1,75.0000028610231,0|2,0:0|0:0,0:0:0:0:
252,164,19916,2,0,L|240:244,1,75.0000028610231,2|0,0:0|0:0,0:0:0:0:
304,52,20313,1,2,0:0:0:0:
376,140,20512,2,0,L|353:288,1,150.000005722046
264,355,21108,2,0,P|226:356|190:346,2,75.0000028610231,0|0|2,0:0|0:0|0:0,0:0:0:0:
364,380,21704,53,0,0:0:0:0:
500,228,21903,1,2,0:0:0:0:
472,140,22102,1,0,0:0:0:0:
264,177,22300,1,2,0:0:0:0:
236,265,22499,1,0,0:0:0:0:
353,288,22698,37,0,0:0:0:0:
375,131,22896,2,0,P|355:99|327:75,1,75.0000028610231,0|2,0:0|0:0,0:0:0:0:
114,169,23294,2,0,L|266:177,1,150.000005722046,2|0,0:0|0:0,0:0:0:0:
348,208,23890,1,2,0:0:0:0:
424,256,24088,1,0,0:0:0:0:
415,348,24287,2,0,P|378:341|351:315,1,75.0000028610231
340,116,24684,1,2,0:0:0:0:
424,148,24883,53,0,0:0:0:0:
276,264,25082,1,2,0:0:0:0:
204,148,25280,1,8,3:0:0:0:
388,252,25479,2,0,L|380:364,1,112.500004291535,4|0,3:0|0:0,0:0:0:0:
379,364,25876,6,0,P|301:381|244:344,1,150.000005722046,4|2,3:1|0:0,0:0:0:0:
184,256,26472,1,0,0:0:0:0:
232,160,26671,1,0,3:0:0:0:
232,160,26870,2,0,L|320:164,1,75.0000028610231,0|2,3:0|0:0,0:0:0:0:
408,200,27267,1,0,0:0:0:0:
336,360,27466,6,0,L|186:353,1,150.000005722046,0|2,3:0|0:0,0:0:0:0:
375,284,28062,2,0,P|441:250|510:274,1,150.000005722046,0|0,3:0|0:0,0:0:0:0:
304,236,28658,2,0,P|284:200|284:160,1,75.0000028610231,2|0,0:0|0:0,0:0:0:0:
312,32,29055,70,0,L|388:40,2,75.0000028610231,0|0|2,3:0|0:0|0:0,0:0:0:0:
204,36,29651,1,0,0:0:0:0:
282,166,29850,1,0,3:0:0:0:
282,166,30049,2,0,L|358:174,1,75.0000028610231,0|2,3:0|0:0,0:0:0:0:
456,132,30446,1,0,0:0:0:0:
351,11,30645,6,0,P|280:24|203:36,1,150.000005722046,0|2,3:0|0:0,0:0:0:0:
160,172,31241,1,0,3:0:0:0:
160,172,31638,1,0,0:0:0:0:
100,28,31837,2,0,P|64:16|28:24,1,75.0000028610231,2|0,0:0|0:0,0:0:0:0:
87,231,32234,70,0,P|153:263|223:240,1,150.000005722046,4|2,3:1|0:0,0:0:0:0:
272,144,32830,1,0,0:0:0:0:
176,40,33029,1,0,3:0:0:0:
176,40,33227,2,0,L|164:120,1,75.0000028610231,0|2,3:0|0:0,0:0:0:0:
152,220,33625,1,0,0:0:0:0:
296,248,33823,6,0,L|448:260,1,150.000005722046,0|2,3:0|0:0,0:0:0:0:
248,344,34419,2,0,L|172:350,1,75.0000028610231,0|0,3:0|0:0,0:0:0:0:
48,304,34817,2,0,P|19:237|52:172,1,150.000005722046,2|0,0:0|0:0,0:0:0:0:
160,64,35413,70,0,P|196:76|224:104,1,75.0000028610231,0|0,3:0|0:0,0:0:0:0:
180,220,35810,2,0,P|147:237|110:239,1,75.0000028610231,2|0,0:0|0:0,0:0:0:0:
268,184,36207,1,0,3:0:0:0:
268,184,36406,2,0,L|344:184,2,75.0000028610231,0|2|0,3:0|0:0|0:0,0:0:0:0:
403,308,37002,5,0,3:0:0:0:
473,227,37201,1,2,0:0:0:0:
465,121,37400,1,2,0:0:0:0:
384,260,37598,2,0,P|433:313|506:315,1,150.000005722046,0|0,3:0|3:0,0:0:0:0:
280,352,38194,2,0,L|196:344,1,75.0000028610231,2|0,3:2|0:0,0:0:0:0:
67,272,38592,6,0,P|49:304|48:341,1,75.0000028610231,4|0,3:1|0:0,0:0:0:0:
176,236,38989,1,10,0:0:0:0:
208,128,39188,2,0,P|207:90|188:58,1,75.0000028610231,2|0,0:0|3:0,0:0:0:0:
32,176,39585,2,0,L|116:184,1,75.0000028610231,0|10,3:0|0:0,0:0:0:0:
248,200,39982,1,0,0:0:0:0:
312,292,40181,2,0,P|320:336|308:364,1,75.0000028610231,0|0,3:0|0:0,0:0:0:0:
336,172,40578,1,10,0:0:0:0:
424,200,40777,53,0,3:0:0:0:
460,116,40976,1,2,0:0:0:0:
424,200,41174,1,0,0:0:0:0:
316,56,41373,1,2,0:0:0:0:
420,32,41572,1,2,0:0:0:0:
256,144,41770,37,0,3:0:0:0:
296,280,41969,2,0,P|332:284|372:260,1,75.0000028610231,2|8,3:2|0:0,0:0:0:0:
368,128,42366,1,0,0:0:0:0:
256,144,42565,2,0,L|184:164,1,75.0000028610231,2|0,3:2|3:0,0:0:0:0:
80,256,42962,1,10,0:0:0:0:
80,256,43161,1,0,0:0:0:0:
60,140,43360,2,0,P|64:92|64:60,1,75.0000028610231,2|0,3:2|0:0,0:0:0:0:
212,12,43757,1,10,0:0:0:0:
196,104,43956,53,0,3:0:0:0:
284,72,44155,1,2,0:0:0:0:
268,164,44353,1,0,3:0:0:0:
104,96,44552,1,10,0:0:0:0:
72,204,44751,1,2,0:0:0:0:
124,304,44949,38,0,P|164:312|200:300,1,75.0000028610231,0|2,3:0|0:0,0:0:0:0:
343,164,45347,2,0,L|263:164,1,75.0000028610231,8|2,0:0|0:0,0:0:0:0:
332,332,45744,1,2,3:2:0:0:
448,340,45943,2,0,P|480:321|500:290,1,75.0000028610231,0|8,3:0|0:0,0:0:0:0:
508,172,46340,1,0,0:0:0:0:
424,88,46539,2,0,L|348:80,2,75.0000028610231,0|0|10,3:0|0:0|0:0,0:0:0:0:
400,176,47135,21,0,3:0:0:0:
336,240,47333,1,2,0:0:0:0:
424,264,47532,1,0,0:0:0:0:
312,152,47730,1,2,0:0:0:0:
200,164,47929,1,2,0:0:0:0:
168,272,48128,69,0,3:0:0:0:
199,164,48327,2,0,P|199:126|186:91,1,75.0000028610231,2|8,3:2|0:0,0:0:0:0:
38,119,48724,2,0,P|70:137|107:143,1,75.0000028610231,2|0,0:0|3:0,0:0:0:0:
284,128,49121,2,0,L|368:136,1,75.0000028610231,0|8,3:0|0:0,0:0:0:0:
468,156,49519,1,0,0:0:0:0:
436,12,49717,2,0,L|361:4,1,75.0000028610231,2|0,3:2|0:0,0:0:0:0:
212,12,50115,1,10,0:0:0:0:
152,84,50313,21,0,3:0:0:0:
196,168,50512,1,2,0:0:0:0:
136,240,50711,1,8,0:0:0:0:
112,236,50810,1,8,0:0:0:0:
88,232,50909,1,2,3:2:0:0:
104,344,51108,1,10,0:0:0:0:
240,284,51307,70,0,L|392:292,1,150.000005722046,4|8,3:1|0:0,0:0:0:0:
484,211,51903,2,0,P|492:175|482:139,1,75.0000028610231,2|0,0:0|3:0,0:0:0:0:
388,176,52300,1,0,3:0:0:0:
389,291,52499,2,0,L|464:308,1,75.0000028610231,8|0,0:0|0:0,0:0:0:0:
296,228,52896,2,0,L|146:262,1,150.000005722046,0|8,3:0|0:0,0:0:0:0:
72,140,53492,21,2,3:2:0:0:
1,324,53691,1,2,0:0:0:0:
68,244,53890,1,0,3:0:0:0:
116,360,54088,2,0,P|151:369|187:359,1,75.0000028610231,8|8,0:0|0:0,0:0:0:0:
296,228,54486,70,0,L|146:262,1,150.000005722046,0|8,3:0|0:0,0:0:0:0:
168,144,55082,2,0,L|241:127,1,75.0000028610231,2|0,0:0|3:0,0:0:0:0:
352,112,55479,1,0,3:0:0:0:
432,188,55678,2,0,P|440:224|433:261,1,75.0000028610231,8|0,0:0|0:0,0:0:0:0:
296,228,56075,2,0,L|146:262,1,150.000005722046,0|8,3:0|0:0,0:0:0:0:
32,236,56671,21,0,3:0:0:0:
149,261,56870,1,2,0:0:0:0:
113,146,57068,1,0,3:0:0:0:
65,349,57267,2,0,P|95:372|131:381,1,75.0000028610231,10|0,0:0|0:0,0:0:0:0:
296,228,57664,38,0,P|323:160|293:93,1,150.000005722046,4|8,3:2|0:0,0:0:0:0:
225,3,58260,2,0,P|198:29|184:63,1,75.0000028610231,2|0,0:0|3:0,0:0:0:0:
229,161,58658,1,0,3:0:0:0:
368,64,58856,2,0,P|408:68|436:92,1,75.0000028610231,10|0,0:0|0:0,0:0:0:0:
296,227,59254,2,0,P|227:253|160:223,1,150.000005722046,0|8,3:0|0:0,0:0:0:0:
88,40,59850,53,2,3:2:0:0:
177,79,60049,1,0,0:0:0:0:
229,161,60247,1,0,3:0:0:0:
234,258,60446,2,0,P|230:302|214:330,1,75.0000028610231,10|8,0:0|0:0,0:0:0:0:
124,368,60843,37,0,3:0:0:0:
56,296,61042,2,0,P|57:258|74:225,2,75.0000028610231,2|8|0,0:0|0:0|0:0,0:0:0:0:
215,328,61638,1,2,3:2:0:0:
324,332,61837,2,0,L|424:324,1,75.0000028610231,0|8,3:0|0:0,0:0:0:0:
396,216,62234,2,0,L|321:221,1,75.0000028610231,2|0,0:0|3:0,0:0:0:0:
476,268,62631,53,0,0:0:0:0:
512,179,62830,1,8,0:0:0:0:
491,86,63029,1,2,3:2:0:0:
419,22,63227,1,2,0:0:0:0:
336,72,63426,2,0,P|312:104|308:140,1,75.0000028610231,0|8,3:0|0:0,0:0:0:0:
320,232,63823,1,0,0:0:0:0:
320,232,64022,6,0,L|384:244,1,59.9999981689454
248,324,64419,2,0,L|189:312,1,59.9999981689454,2|0,0:0|0:0,0:0:0:0:
308,248,64817,6,0,L|372:260,1,59.9999981689454
236,340,65214,2,0,L|177:328,1,59.9999981689454,2|0,0:0|0:0,0:0:0:0:
296,264,65611,70,0,L|360:276,1,59.9999981689454
224,356,66008,2,0,L|165:344,1,59.9999981689454,2|0,0:0|0:0,0:0:0:0:
284,280,66406,6,0,L|412:304,1,119.999996337891
401,302,67201,5,4,3:2:0:0:
500,176,67400,1,0,0:0:0:0:
416,40,67598,1,8,0:0:0:0:
317,166,67797,1,2,0:0:0:0:
317,166,67896,1,8,0:0:0:0:
317,165,67996,2,0,P|249:190|189:150,1,150,2|0,3:2|0:0,0:0:0:0:
176,76,68393,1,8,0:0:0:0:
368,12,68592,1,2,0:0:0:0:
368,12,68691,1,8,0:0:0:0:
368,12,68790,6,0,L|468:24,1,100,0|2,3:0|0:0,0:0:0:0:
392,248,69188,1,8,0:0:0:0:
260,104,69386,1,2,0:0:0:0:
260,104,69486,1,8,0:0:0:0:
260,104,69585,1,0,3:0:0:0:
264,256,69784,1,0,3:0:0:0:
368,138,69982,1,8,0:0:0:0:
320,356,70181,1,0,0:0:0:0:
320,356,70280,1,8,0:0:0:0:
320,355,70380,6,0,P|272:370|223:363,1,100,0|2,3:0|0:0,0:0:0:0:
8,284,70777,1,8,0:0:0:0:
188,152,70976,1,2,0:0:0:0:
188,152,71075,1,8,0:0:0:0:
188,152,71174,1,2,3:2:0:0:
144,280,71373,1,0,3:0:0:0:
44,144,71572,1,8,0:0:0:0:
172,32,71770,1,2,0:0:0:0:
172,32,71870,1,8,0:0:0:0:
171,32,71969,6,0,P|221:32|263:58,1,100,0|2,3:0|0:0,0:0:0:0:
304,212,72366,1,8,0:0:0:0:
440,295,72565,1,2,0:0:0:0:
461,268,72664,1,8,0:0:0:0:
474,236,72763,1,0,3:0:0:0:
477,201,72863,1,8,0:0:0:0:
469,167,72962,1,0,3:0:0:0:
388,68,73161,1,8,0:0:0:0:
240,144,73360,1,8,0:0:0:0:
240,144,73459,1,8,0:0:0:0:
240,144,73558,38,0,L|140:144,1,100,4|0,3:2|0:0,0:0:0:0:
192,316,73956,2,0,L|292:316,1,100,8|2,0:0|0:0,0:0:0:0:
324,304,74254,1,8,0:0:0:0:
351,284,74353,2,0,P|375:240|366:192,1,100,2|0,3:2|3:0,0:0:0:0:
296,40,74751,1,8,0:0:0:0:
160,156,74949,1,2,0:0:0:0:
160,156,75049,1,8,0:0:0:0:
160,156,75148,5,0,3:0:0:0:
272,224,75347,1,0,0:0:0:0:
464,124,75545,2,0,L|308:128,1,150,10|8,0:0|0:0,0:0:0:0:
240,147,75943,2,0,P|203:181|190:228,1,100,0|0,3:0|3:0,0:0:0:0:
192,376,76340,1,8,0:0:0:0:
368,324,76539,1,0,0:0:0:0:
368,324,76638,1,8,0:0:0:0:
368,324,76737,6,0,P|424:332|456:360,1,100,0|0,3:0|0:0,0:0:0:0:
227,224,77135,2,0,P|204:156|243:95,1,150,10|8,0:0|0:0,0:0:0:0:
320,88,77532,1,2,3:2:0:0:
268,316,77731,1,0,3:0:0:0:
84,208,77929,1,8,0:0:0:0:
296,168,78128,6,0,L|508:176,1,200,4|10,3:2|0:0,0:0:0:0:
424,364,78724,1,8,0:0:0:0:
212,280,78923,2,0,L|216:216,1,50,2|8,0:0|0:0,0:0:0:0:
308,320,79121,2,0,L|311:369,1,50,0|8,3:0|0:0,0:0:0:0:
208,380,79320,1,0,3:0:0:0:
24,320,79519,2,0,L|73:316,1,50,8|8,0:0|0:0,0:0:0:0:
212,216,79717,2,0,L|162:219,1,50,8|8,0:0|0:0,0:0:0:0:
60,220,79916,37,4,3:2:0:0:
176,332,80115,1,0,0:0:0:0:
312,244,80313,2,0,L|412:260,1,100,8|2,0:0|0:0,0:0:0:0:
446,257,80611,1,8,0:0:0:0:
477,244,80711,2,0,P|508:177|479:110,1,150,2|0,3:2|0:0,0:0:0:0:
444,44,81108,1,8,0:0:0:0:
260,152,81307,1,2,0:0:0:0:
260,152,81406,1,8,0:0:0:0:
260,152,81506,5,0,3:0:0:0:
400,176,81704,1,0,0:0:0:0:
312,24,81903,2,0,P|238:12|171:44,1,150,10|8,0:0|0:0,0:0:0:0:
140,112,82300,2,0,P|124:164|120:212,1,100,0|0,3:0|3:0,0:0:0:0:
168,364,82698,1,8,0:0:0:0:
376,268,82896,1,2,0:0:0:0:
376,268,82996,1,8,0:0:0:0:
376,268,83095,6,0,L|268:272,1,100,4|0,3:2|0:0,0:0:0:0:
48,288,83492,1,8,0:0:0:0:
212,176,83691,1,0,0:0:0:0:
212,176,83790,1,8,0:0:0:0:
212,176,83890,1,2,3:2:0:0:
168,364,84088,1,0,3:0:0:0:
68,140,84287,1,10,0:0:0:0:
319,87,84486,6,0,P|367:102|401:138,1,100,4|0,3:2|0:0,0:0:0:0:
164,264,84883,1,8,0:0:0:0:
172,68,85082,1,8,0:0:0:0:
312,192,85280,1,2,0:0:0:0:
322,225,85379,1,8,0:0:0:0:
327,260,85478,1,0,3:0:0:0:
327,294,85578,1,8,0:0:0:0:
322,329,85677,1,0,3:0:0:0:
168,376,85876,1,8,0:0:0:0:
28,236,86075,1,8,0:0:0:0:
28,236,86174,1,8,0:0:0:0:
28,236,86274,38,0,L|140:240,1,100,4|0,3:2|0:0,0:0:0:0:
312,192,86671,1,8,0:0:0:0:
244,304,86870,2,0,L|224:256,1,50,2|8,0:0|0:0,0:0:0:0:
200,160,87068,2,0,P|200:104|208:56,1,100,2|0,3:2|3:0,0:0:0:0:
416,16,87466,1,8,0:0:0:0:
468,168,87664,1,2,0:0:0:0:
468,168,87764,1,8,0:0:0:0:
468,168,87863,6,0,P|468:217|461:267,1,100,0|2,3:0|0:0,0:0:0:0:
260,304,88260,1,8,0:0:0:0:
352,168,88459,1,2,0:0:0:0:
352,168,88558,1,8,0:0:0:0:
352,168,88658,1,0,3:0:0:0:
224,180,88856,1,0,3:0:0:0:
364,308,89055,1,8,0:0:0:0:
480,168,89254,1,2,0:0:0:0:
480,168,89353,1,8,0:0:0:0:
480,167,89453,6,0,P|483:118|484:68,1,100,4|0,3:2|0:0,0:0:0:0:
224,96,89850,2,0,P|303:107|372:114,1,150,10|8,0:0|0:0,0:0:0:0:
411,49,90247,1,2,3:2:0:0:
252,248,90446,1,0,3:0:0:0:
428,228,90645,1,8,0:0:0:0:
283,27,90843,6,0,P|189:14|133:91,1,200,4|8,3:2|0:0,0:0:0:0:
128,320,91439,1,8,0:0:0:0:
320,144,91638,1,2,3:2:0:0:
320,144,91737,1,8,0:0:0:0:
320,144,91837,1,8,0:0:0:0:
80,204,92035,1,8,3:0:0:0:
300,292,92234,1,4,3:0:0:0:
180,380,92433,1,2,0:0:0:0:
180,380,92532,1,2,0:0:0:0:
180,380,92631,1,4,3:1:0:0:
256,192,103757,12,4,105347,0:1:0:0:
376,152,105744,37,8,0:0:0:0:
399,247,105943,2,0,P|398:285|379:317,1,75.0000028610231,2|0,3:2|0:0,0:0:0:0:
264,360,106340,2,0,L|175:346,1,75.0000028610231,2|8,3:2|0:0,0:0:0:0:
308,260,106737,6,0,L|484:232,1,150.000005722046,2|2,3:2|3:2,0:0:0:0:
508,336,107333,1,8,0:0:0:0:
404,380,107532,1,2,3:2:0:0:
404,380,108327,5,0,0:0:0:0:
340,304,108525,1,10,0:0:0:0:
465,204,108724,1,0,3:0:0:0:
496,341,108922,1,10,0:0:0:0:
340,304,109121,2,0,L|256:308,1,75.0000028610231,2|0,3:2|0:0,0:0:0:0:
152,264,109519,2,0,P|154:301|155:338,1,75.0000028610231,2|8,3:2|0:0,0:0:0:0:
44,312,109916,6,0,P|48:232|52:152,1,150.000005722046,2|2,3:2|3:2,0:0:0:0:
92,56,110512,1,8,0:0:0:0:
208,152,110711,1,0,3:0:0:0:
208,152,111506,37,8,0:0:0:0:
132,216,111704,1,2,0:0:0:0:
296,196,111903,1,0,3:0:0:0:
216,52,112102,1,10,0:0:0:0:
132,216,112300,2,0,P|159:240|195:251,1,75.0000028610231,2|0,3:2|0:0,0:0:0:0:
296,196,112698,2,0,L|380:200,1,75.0000028610231,2|8,3:2|0:0,0:0:0:0:
476,308,113095,6,0,L|308:316,1,150.000005722046,2|2,3:2|3:2,0:0:0:0:
195,251,113691,1,8,0:0:0:0:
312,47,113890,38,2,P|407:52|454:135,1,200,4|0,3:2|0:0,0:0:0:0:
444,232,114883,53,4,3:2:0:0:
296,260,115082,1,0,3:0:0:0:
356,136,115280,1,10,0:0:0:0:
380,296,115479,2,0,P|376:344|372:372,1,75.0000028610231,2|0,3:2|0:0,0:0:0:0:
500,252,115876,2,0,P|504:204|508:176,1,75.0000028610231,2|8,3:2|0:0,0:0:0:0:
384,168,116274,6,0,L|232:180,1,150.000005722046,2|2,3:2|3:2,0:0:0:0:
112,196,116870,1,8,0:0:0:0:
240,56,117068,1,4,3:2:0:0:
234,179,117267,1,2,0:0:0:0:
124,80,117466,1,8,3:0:0:0:
112,196,117664,2,0,B|105:251|105:251|109:265|109:265|104:277|104:277|104:308,1,112.500004291535,4|0,3:0|0:0,0:0:0:0:
104,306,118062,6,0,B|172:311|172:311|175:316|175:316|179:312|179:312|207:315|207:315|211:319|211:319|215:315|215:315|255:319,1,150.000005722046,4|0,3:1|3:0,0:0:0:0:
448,276,118856,2,0,P|452:313|448:350,1,75.0000028610231,10|0,0:0|0:0,0:0:0:0:
332,224,119254,2,0,P|328:184|332:148,1,75.0000028610231,2|0,0:0|3:0,0:0:0:0:
412,88,119651,5,0,3:0:0:0:
352,312,120049,1,0,3:0:0:0:
152,292,120446,2,0,L|112:300,2,37.5000014305115,10|8|8,0:0|0:0|0:0,0:0:0:0:
248,248,120843,2,0,P|257:284|253:321,1,75.0000028610231,0|8,0:0|0:0,0:0:0:0:
92,180,121241,70,0,B|158:165|158:165|163:168|163:168|166:164|166:164|193:158|193:158|198:161|198:161|201:156|201:156|240:148,1,150.000005722046,2|0,3:2|3:0,0:0:0:0:
432,36,122035,2,0,P|468:64|480:92,1,75.0000028610231,10|0,0:0|0:0,0:0:0:0:
490,206,122433,2,0,P|497:242|486:278,1,75.0000028610231,2|0,0:0|3:0,0:0:0:0:
412,368,122830,5,0,3:0:0:0:
164,268,123227,2,0,L|324:280,1,150.000005722046,2|8,3:2|0:0,0:0:0:0:
404,236,123823,1,0,3:0:0:0:
351,128,124022,2,0,P|320:147|298:178,1,75.0000028610231,2|0,0:0|3:0,0:0:0:0:
391,360,124419,70,0,B|428:368|459:351|459:351|465:351|465:351|470:345|470:345|482:337|490:330|490:330|496:330|496:330|497:323|497:323|509:311|512:300,1,150.000005722046,4|0,3:1|3:0,0:0:0:0:
500,92,125214,2,0,L|424:100,1,75.0000028610231,10|0,0:0|0:0,0:0:0:0:
316,128,125611,2,0,L|240:120,1,75.0000028610231,2|0,0:0|3:0,0:0:0:0:
152,47,126009,6,0,P|124:116|146:186,1,150.000005722046,2|0,3:2|3:0,0:0:0:0:
304,308,126804,2,0,L|342:304,2,37.5000014305115,10|8|8,0:0|0:0|0:0,0:0:0:0:
200,352,127201,2,0,L|124:344,1,75.0000028610231,2|8,0:0|0:0,0:0:0:0:
125,344,128393,69,8,0:0:0:0:
268,200,128790,1,8,0:0:0:0:
91,248,128989,6,0,P|35:294|25:367,1,150.000005722046,4|8,3:1|0:0,0:0:0:0:
224,300,129585,1,0,3:0:0:0:
164,172,129784,1,2,0:0:0:0:
125,344,129982,1,8,0:0:0:0:
328,328,130181,1,8,0:0:0:0:
384,220,130380,1,8,0:0:0:0:
387,194,130479,1,8,0:0:0:0:
388,167,130578,1,8,0:0:0:0:
385,141,130678,1,8,0:0:0:0:
378,116,130777,6,0,P|338:76|294:68,1,100,4|0,3:2|0:0,0:0:0:0:
144,52,131174,1,8,0:0:0:0:
104,248,131373,1,2,0:0:0:0:
104,248,131472,1,8,0:0:0:0:
104,248,131572,2,0,L|256:256,1,150,2|0,3:2|0:0,0:0:0:0:
328,244,131969,1,8,0:0:0:0:
216,96,132168,2,0,L|204:144,1,50,2|8,0:0|0:0,0:0:0:0:
184,228,132366,5,0,3:0:0:0:
316,148,132565,1,2,0:0:0:0:
200,12,132764,2,0,P|124:7|76:56,1,150,10|8,0:0|0:0,0:0:0:0:
68,132,133161,1,0,3:0:0:0:
64,292,133360,1,0,3:0:0:0:
220,260,133558,2,0,L|319:263,1,100,8|0,0:0|0:0,0:0:0:0:
396,268,133856,1,8,0:0:0:0:
396,268,133956,6,0,P|439:290|465:333,1,100,4|2,3:2|0:0,0:0:0:0:
252,352,134353,1,8,0:0:0:0:
428,164,134552,1,2,0:0:0:0:
428,164,134651,1,8,0:0:0:0:
428,164,134751,1,2,3:2:0:0:
376,358,134949,1,0,3:0:0:0:
260,180,135148,1,8,0:0:0:0:
360,39,135347,2,0,P|383:30|407:26,2,50,2|8|0,0:0|0:0|3:0,0:0:0:0:
352,256,135744,5,2,0:0:0:0:
496,152,135943,1,8,0:0:0:0:
360,39,136141,1,2,0:0:0:0:
325,45,136240,1,8,0:0:0:0:
290,51,136339,1,0,3:0:0:0:
255,55,136439,1,8,0:0:0:0:
221,62,136538,1,0,3:0:0:0:
156,176,136737,1,8,0:0:0:0:
264,295,136936,1,8,0:0:0:0:
264,295,137035,1,8,0:0:0:0:
264,295,137135,38,0,P|312:286|351:255,1,100,4|0,3:2|0:0,0:0:0:0:
356,104,137532,1,8,0:0:0:0:
171,26,137731,1,2,0:0:0:0:
171,26,137830,1,8,0:0:0:0:
171,26,137929,2,0,L|155:178,1,150,2|0,3:2|0:0,0:0:0:0:
148,252,138327,1,8,0:0:0:0:
280,208,138525,1,2,0:0:0:0:
279,207,138625,1,8,0:0:0:0:
279,207,138724,6,0,L|379:211,1,100,0|0,3:0|0:0,0:0:0:0:
200,351,139121,2,0,P|128:366|64:329,1,150,10|8,0:0|0:0,0:0:0:0:
44,256,139519,1,0,3:0:0:0:
204,136,139717,1,0,3:0:0:0:
144,268,139916,1,8,0:0:0:0:
44,128,140115,1,0,0:0:0:0:
44,128,140214,1,8,0:0:0:0:
44,128,140313,6,0,P|44:72|68:32,1,100,0|0,3:0|0:0,0:0:0:0:
264,8,140711,2,0,L|416:36,1,150,10|8,0:0|0:0,0:0:0:0:
478,66,141108,1,2,3:2:0:0:
252,172,141307,1,0,3:0:0:0:
320,364,141506,1,8,0:0:0:0:
483,241,141704,6,0,P|522:153|479:67,1,200,4|10,3:2|0:0,0:0:0:0:
316,12,142300,1,8,0:0:0:0:
366,152,142499,2,0,L|416:156,1,50,2|8,0:0|0:0,0:0:0:0:
292,212,142698,2,0,L|242:208,1,50,0|8,3:0|0:0,0:0:0:0:
288,120,142896,1,0,3:0:0:0:
400,244,143095,2,0,L|392:300,1,50,8|8,0:0|0:0,0:0:0:0:
256,360,143294,2,0,L|263:310,1,50,8|8,0:0|0:0,0:0:0:0:
292,212,143492,37,4,3:2:0:0:
372,376,143691,1,0,0:0:0:0:
172,376,143890,2,0,L|72:368,1,100,8|2,0:0|0:0,0:0:0:0:
44,348,144188,1,8,0:0:0:0:
24,320,144287,2,0,P|8:240|44:176,1,150,2|0,3:2|0:0,0:0:0:0:
100,136,144684,1,8,0:0:0:0:
256,148,144883,1,2,0:0:0:0:
256,148,144982,1,8,0:0:0:0:
256,148,145082,6,0,L|364:168,1,100,0|2,3:0|0:0,0:0:0:0:
176,296,145479,1,10,0:0:0:0:
128,128,145678,1,2,0:0:0:0:
128,128,145777,1,8,0:0:0:0:
128,128,145876,1,0,3:0:0:0:
240,56,146075,1,0,3:0:0:0:
288,224,146274,1,8,0:0:0:0:
88,332,146472,1,2,0:0:0:0:
88,332,146572,1,8,0:0:0:0:
87,331,146671,6,0,P|82:282|102:237,1,100,4|0,3:2|0:0,0:0:0:0:
296,132,147068,1,8,0:0:0:0:
256,356,147267,1,0,0:0:0:0:
256,356,147366,1,8,0:0:0:0:
256,356,147466,1,2,3:2:0:0:
192,172,147664,1,0,3:0:0:0:
436,244,147863,1,10,0:0:0:0:
407,20,148062,6,0,P|387:65|378:115,1,100,4|0,3:2|0:0,0:0:0:0:
308,252,148459,1,8,0:0:0:0:
484,96,148658,1,8,0:0:0:0:
308,8,148856,1,2,0:0:0:0:
295,40,148955,1,8,0:0:0:0:
286,74,149054,1,0,3:0:0:0:
279,108,149154,1,8,0:0:0:0:
276,143,149253,1,0,3:0:0:0:
316,272,149453,1,8,0:0:0:0:
504,188,149651,1,8,0:0:0:0:
504,188,149751,1,8,0:0:0:0:
504,188,149850,38,0,L|402:195,1,100,4|0,3:2|0:0,0:0:0:0:
220,228,150247,1,8,0:0:0:0:
112,124,150446,1,2,0:0:0:0:
112,124,150545,1,8,0:0:0:0:
112,124,150645,2,0,P|106:75|128:31,1,100,2|0,3:2|3:0,0:0:0:0:
280,16,151042,1,8,0:0:0:0:
316,196,151241,2,0,P|319:220|319:245,2,50,2|8|0,0:0|0:0|3:0,0:0:0:0:
196,92,151638,5,2,0:0:0:0:
148,272,151837,1,8,0:0:0:0:
264,368,152035,1,2,0:0:0:0:
264,368,152135,1,8,0:0:0:0:
264,368,152234,2,0,L|372:372,1,100,0|0,3:0|3:0,0:0:0:0:
500,244,152631,2,0,L|400:240,1,100,8|2,0:0|0:0,0:0:0:0:
324,240,152929,1,8,0:0:0:0:
324,240,153029,5,4,3:2:0:0:
460,348,153227,1,0,0:0:0:0:
511,156,153426,2,0,P|507:82|453:30,1,150,10|8,0:0|0:0,0:0:0:0:
380,20,153823,1,2,3:2:0:0:
212,180,154022,1,0,3:0:0:0:
356,278,154221,1,8,0:0:0:0:
416,124,154419,6,0,L|216:80,1,200,4|2,3:2|3:2,0:0:0:0:
104,178,155015,1,8,0:0:0:0:
275,327,155214,2,0,P|322:315|356:279,1,100,4|0,3:2|0:0,0:0:0:0:
132,80,155611,1,8,0:0:0:0:
80,276,155810,1,8,0:0:0:0:
278,240,156009,1,8,0:0:0:0:
392,204,156207,6,0,L|492:216,1,75.0000028610231,4|0,3:2|0:0,0:0:0:0:
408,344,156605,2,0,L|333:335,1,75.0000028610231,2|0,3:2|0:0,0:0:0:0:
269,165,157002,2,0,L|277:239,1,75.0000028610231,2|0,3:2|0:0,0:0:0:0:
184,360,157400,2,0,L|175:285,1,75.0000028610231,2|0,3:2|0:0,0:0:0:0:
191,124,157797,6,0,P|214:95|248:79,1,75.0000028610231,2|0,3:2|0:0,0:0:0:0:
121,232,158194,2,0,P|84:226|53:204,1,75.0000028610231,2|0,3:2|0:0,0:0:0:0:
250,238,158592,2,0,P|263:272|260:309,1,75.0000028610231,2|0,3:2|0:0,0:0:0:0:
372,112,158989,2,0,L|456:120,1,75.0000028610231,10|0,0:0|0:0,0:0:0:0:
446,119,159287,1,2,0:0:0:0:
446,119,159386,69,2,3:2:0:0:
404,208,159585,1,8,0:0:0:0:
472,280,159784,2,0,L|468:360,1,75.0000028610231,2|0,3:2|0:0,0:0:0:0:
304,308,160181,2,0,L|378:311,1,75.0000028610231,10|0,0:0|0:0,0:0:0:0:
216,356,160578,1,2,3:2:0:0:
192,260,160777,6,0,L|200:176,1,75.0000028610231,8|2,0:0|3:2,0:0:0:0:
96,308,161174,2,0,L|103:382,1,75.0000028610231,8|2,0:0|3:2,0:0:0:0:
0,260,161572,2,0,L|7:185,1,75.0000028610231,8|2,0:0|3:2,0:0:0:0:
48,72,161969,1,8,0:0:0:0:
55,63,162068,1,8,0:0:0:0:
63,55,162167,1,8,0:0:0:0:
72,49,162267,1,8,0:0:0:0:
82,43,162366,1,8,0:0:0:0:
92,39,162465,1,8,0:0:0:0:
103,37,162565,69,4,3:2:0:0:
216,32,162764,2,0,L|304:40,1,75.0000028610231,10|10,0:0|0:0,0:0:0:0:
380,108,163161,2,0,L|380:148,2,37.5000014305115,2|2|10,0:0|0:0|0:0,0:0:0:0:
488,72,163558,1,2,0:0:0:0:
488,83,163657,1,10,0:0:0:0:
488,94,163756,1,10,0:0:0:0:
488,105,163856,1,10,0:0:0:0:
488,117,163955,1,10,0:0:0:0:
488,128,164054,1,8,0:0:0:0:
488,139,164155,5,6,3:2:0:0:
448,244,164353,2,0,L|344:236,1,75.0000028610231,10|8,0:0|0:0,0:0:0:0:
260,248,164751,2,0,L|232:276,2,37.5000014305115,2|2|10,0:0|0:0|0:0,0:0:0:0:
308,144,165148,1,2,0:0:0:0:
308,132,165247,1,10,0:0:0:0:
308,120,165347,1,10,0:0:0:0:
196,132,165545,1,4,3:0:0:0:
292,316,165744,69,4,3:2:0:0:
404,296,165943,2,0,L|479:296,1,75.0000028610231,10|10,0:0|0:0,0:0:0:0:
356,183,166340,2,0,P|339:193|325:205,2,37.5000014305115,2|2|10,0:0|0:0|0:0,0:0:0:0:
476,116,166737,1,0,0:0:0:0:
478,105,166836,1,8,0:0:0:0:
480,93,166935,1,8,0:0:0:0:
480,82,167035,1,8,0:0:0:0:
480,71,167135,6,0,P|416:32|340:36,1,150.000005722046,4|10,3:2|0:0,0:0:0:0:
256,108,167731,1,10,0:0:0:0:
236,220,167929,1,2,0:0:0:0:
240,232,168029,1,10,0:0:0:0:
244,244,168128,1,10,0:0:0:0:
312,336,168327,1,4,3:0:0:0:
321,326,168427,1,4,3:0:0:0:
329,317,168526,1,10,0:0:0:0:
374,212,168724,1,10,0:0:0:0:
361,209,168824,1,8,0:0:0:0:
349,206,168923,70,0,L|264:196,1,75.0000028610231,4|0,3:2|0:0,0:0:0:0:
288,276,169221,2,0,L|362:284,1,75.0000028610231,4|0,3:0|0:0,0:0:0:0:
436,284,169519,1,4,3:0:0:0:
484,140,169717,1,10,0:0:0:0:
400,64,169916,1,0,3:0:0:0:
400,64,170015,1,8,0:0:0:0:
400,64,170115,2,0,L|352:68,1,37.5000014305115,8|8,0:0|0:0,0:0:0:0:
264,36,170313,2,0,L|260:84,1,37.5000014305115,0|0,3:0|3:0,0:0:0:0:
187,175,170512,21,4,3:2:0:0:
217,194,170611,1,2,0:0:0:0:
250,203,170710,1,2,3:2:0:0:
285,200,170810,1,0,0:0:0:0:
317,187,170909,2,0,L|416:200,1,100,8|2,0:0|3:2,0:0:0:0:
196,304,171307,1,8,0:0:0:0:
259,114,171506,1,2,3:2:0:0:
356,288,171704,1,10,0:0:0:0:
196,188,171903,5,0,3:0:0:0:
174,160,172002,1,2,0:0:0:0:
163,127,172101,1,4,3:2:0:0:
291,322,172300,1,0,3:0:0:0:
278,354,172399,1,2,0:0:0:0:
255,380,172498,1,8,0:0:0:0:
104,228,172698,5,0,3:0:0:0:
82,200,172797,1,2,0:0:0:0:
71,167,172896,1,8,0:0:0:0:
196,304,173095,1,0,3:0:0:0:
183,336,173194,1,2,0:0:0:0:
160,362,173294,2,0,P|108:380|64:372,1,100,8|0,0:0|3:0,0:0:0:0:
71,167,173691,5,4,3:2:0:0:
90,138,173790,1,2,0:0:0:0:
118,117,173889,1,2,3:2:0:0:
152,107,173989,1,0,0:0:0:0:
186,108,174088,2,0,L|288:140,1,100,8|2,0:0|3:2,0:0:0:0:
388,272,174486,1,8,0:0:0:0:
200,264,174684,1,2,3:2:0:0:
324,52,174883,1,8,0:0:0:0:
296,224,175082,1,2,3:2:0:0:
423,132,175280,37,0,3:0:0:0:
442,102,175379,1,2,0:0:0:0:
451,68,175478,1,0,3:0:0:0:
450,33,175578,1,2,0:0:0:0:
440,0,175677,1,8,0:0:0:0:
243,99,175876,2,0,P|278:135|326:146,1,100,2|0,3:2|3:0,0:0:0:0:
176,12,176274,1,2,0:0:0:0:
140,8,176373,1,2,0:0:0:0:
104,12,176472,2,0,L|52:24,1,50,8|8,0:0|0:0,0:0:0:0:
24,152,176671,2,0,L|72:140,1,50,8|8,0:0|0:0,0:0:0:0:
204,132,176870,5,4,3:2:0:0:
223,160,176969,1,2,0:0:0:0:
232,194,177068,1,2,3:2:0:0:
229,229,177168,1,0,0:0:0:0:
215,261,177267,2,0,L|117:283,1,100,8|2,0:0|3:2,0:0:0:0:
24,152,177664,1,8,0:0:0:0:
215,261,177863,1,2,3:2:0:0:
40,348,178062,1,10,0:0:0:0:
179,141,178260,5,0,3:0:0:0:
214,136,178359,1,2,0:0:0:0:
249,141,178458,1,4,3:2:0:0:
251,381,178658,1,0,3:0:0:0:
216,385,178757,1,2,0:0:0:0:
181,380,178856,1,8,0:0:0:0:
280,155,179055,5,0,3:0:0:0:
307,177,179154,1,2,0:0:0:0:
327,206,179253,1,8,0:0:0:0:
150,366,179453,1,0,3:0:0:0:
123,344,179552,1,2,0:0:0:0:
103,315,179651,2,0,P|90:267|99:218,1,100,8|0,0:0|3:0,0:0:0:0:
216,56,180049,37,12,0:0:0:0:
249,55,180148,1,2,0:0:0:0:
276,76,180247,1,2,3:2:0:0:
302,95,180347,1,0,0:0:0:0:
335,95,180446,2,0,P|386:93|427:59,1,100,8|2,0:0|3:2,0:0:0:0:
272,220,180843,1,8,0:0:0:0:
448,184,181042,1,2,3:2:0:0:
352,4,181241,1,2,3:2:0:0:
144,100,181439,6,0,P|241:108|344:116,1,200,12|10,0:0|0:0,0:0:0:0:
456,280,182035,1,8,0:0:0:0:
328,364,182234,1,2,3:2:0:0:
328,364,182333,1,8,0:0:0:0:
328,364,182433,2,0,P|276:376|232:364,1,100,8|8,0:0|0:0,0:0:0:0:
48,268,182830,2,0,L|52:216,1,50,10|0,0:0|3:0,0:0:0:0:
136,320,183029,2,0,L|132:372,1,50,4|4,3:0|3:0,0:0:0:0:
24,356,183227,5,12,0:0:0:0:
24,356,183426,1,0,3:0:0:0:
88,140,183625,1,12,0:0:0:0:
88,140,183824,1,0,3:0:0:0:
320,192,184022,1,12,0:0:0:0:
320,192,184221,1,0,3:0:0:0:
160,304,184419,1,12,0:0:0:0:
160,304,184618,1,0,3:0:0:0:
160,80,184817,5,12,0:0:0:0:
160,80,185016,1,0,3:0:0:0:
320,192,185214,1,12,0:0:0:0:
320,192,185413,1,0,3:0:0:0:
88,244,185611,1,12,0:0:0:0:
88,244,185810,1,0,3:0:0:0:
88,244,185909,1,0,3:0:0:0:
88,244,186009,1,12,0:0:0:0:
24,28,186208,1,0,3:0:0:0:
244,60,186406,37,12,0:0:0:0:
7,119,186605,1,0,3:0:0:0:
233,211,186804,1,12,0:0:0:0:
105,3,187002,1,0,3:0:0:0:
88,244,187201,5,12,0:0:0:0:
324,168,187400,1,0,3:0:0:0:
136,124,187598,1,12,0:0:0:0:
276,288,187797,1,0,3:0:0:0:
296,44,187996,5,12,2:0:0:0:
196,218,188194,1,0,3:0:0:0:
396,218,188393,22,2,L|497:222,1,100,12|0,0:0|0:0,0:0:0:0:
495,221,189585,6,0,B|517:284|443:355|367:322|367:322|347:278|316:268|280:272|256:294|251:328|258:360|297:365,1,400,4|0,3:2|3:0,0:0:0:0:
407,241,191373,70,0,P|359:211|310:199,1,100,12|8,0:0|0:0,0:0:0:0:
305,200,191870,1,8,0:0:0:0:
292,201,191969,1,8,0:0:0:0:
200,252,192168,1,8,0:0:0:0:
195,263,192267,1,8,0:0:0:0:
192,275,192366,1,8,0:0:0:0:
189,287,192466,1,8,0:0:0:0:
188,300,192565,1,0,3:0:0:0:
284,360,192764,6,0,P|360:372|436:368,1,150,4|0,3:2|0:0,0:0:0:0:
496,292,193558,2,0,B|508:256|508:256|504:219,2,75,0|0|0,3:0|3:0|3:0,0:0:0:0:
408,244,194353,1,0,3:0:0:0:
308,236,194552,70,0,L|192:240,1,100,12|0,0:0|3:0,0:0:0:0:
108,236,195148,1,8,0:0:0:0:
87,333,195347,1,0,3:0:0:0:
99,335,195446,1,8,0:0:0:0:
111,335,195545,1,0,3:0:0:0:
124,334,195645,1,0,3:0:0:0:
136,331,195744,1,8,0:0:0:0:
207,239,195943,6,0,P|202:202|184:170,1,75.0000028610231,4|0,3:2|0:0,0:0:0:0:
84,96,196340,2,0,P|65:128|59:165,1,75.0000028610231,2|0,3:2|0:0,0:0:0:0:
207,239,196737,2,0,L|295:243,1,75.0000028610231,0|0,3:0|0:0,0:0:0:0:
432,328,197135,2,0,L|357:324,1,75.0000028610231,2|0,3:2|0:0,0:0:0:0:
281,242,197532,69,0,3:0:0:0:
276,128,197731,2,0,L|280:84,2,37.5000014305115,0|0|2,0:0|0:0|3:2,0:0:0:0:
404,204,198128,2,0,L|369:219,2,37.5000014305115,0|0|0,2:0|2:0|3:0,2:0:0:0:
405,55,198525,2,0,L|435:76,2,37.5000014305115,0|0|2,2:0|2:0|3:2,2:0:0:0:
496,160,198923,1,4,0:0:0:0:
496,160,199320,22,0,L|292:140,1,200,12|0,0:0|3:0,0:0:0:0:
44,256,199916,2,0,L|243:236,1,200,12|0,0:0|3:0,0:0:0:0:
487,320,200512,6,0,P|402:364|319:317,1,200,12|0,0:0|3:0,0:0:0:0:
336,144,201108,1,2,3:2:0:0:
172,264,201307,1,2,3:2:0:0:
284,52,201506,1,2,3:2:0:0:
95,185,201705,1,2,3:2:0:0:
280,243,201903,1,8,0:0:0:0:
449,144,202102,1,8,0:0:0:0:
449,144,202201,1,8,0:0:0:0:
448,142,202300,70,0,P|435:93|402:57,1,100,4|0,3:2|0:0,0:0:0:0:
256,16,202698,1,8,0:0:0:0:
164,136,202896,2,0,P|156:168|156:188,1,50,2|8,0:0|0:0,0:0:0:0:
224,220,203095,2,0,L|66:225,1,150,2|0,3:2|0:0,0:0:0:0:
0,232,203492,1,8,0:0:0:0:
92,344,203691,2,0,L|128:380,2,50,2|8|0,0:0|0:0|3:0,0:0:0:0:
80,132,204088,5,2,0:0:0:0:
284,140,204287,2,0,P|314:178|323:227,1,100,10|0,0:0|0:0,0:0:0:0:
304,300,204585,1,8,0:0:0:0:
304,300,204684,1,0,3:0:0:0:
156,328,204883,1,0,3:0:0:0:
184,112,205082,1,8,0:0:0:0:
336,120,205280,1,0,0:0:0:0:
336,120,205380,1,8,0:0:0:0:
336,120,205479,6,0,L|444:124,1,100,0|0,3:0|0:0,0:0:0:0:
496,264,205876,1,8,0:0:0:0:
288,276,206075,1,0,0:0:0:0:
288,276,206174,1,8,0:0:0:0:
288,276,206274,1,2,3:2:0:0:
435,123,206472,1,0,3:0:0:0:
396,336,206671,1,10,0:0:0:0:
244,144,206870,6,0,P|243:94|269:53,1,100,4|0,3:2|0:0,0:0:0:0:
392,224,207267,1,0,3:0:0:0:
312,360,207466,1,8,0:0:0:0:
156,344,207664,1,2,0:0:0:0:
122,344,207763,1,8,0:0:0:0:
95,323,207862,1,0,3:0:0:0:
69,304,207962,1,8,0:0:0:0:
36,304,208062,1,0,3:0:0:0:
168,220,208260,2,0,L|176:120,1,100,10|8,0:0|0:0,0:0:0:0:
172,84,208558,1,8,0:0:0:0:
157,52,208658,38,0,P|111:22|65:24,1,100,4|0,3:2|0:0,0:0:0:0:
48,208,209055,1,8,0:0:0:0:
256,232,209254,2,0,P|281:225|304:212,1,50,2|8,0:0|0:0,0:0:0:0:
360,140,209453,1,2,3:2:0:0:
240,44,209651,1,0,3:0:0:0:
188,280,209850,1,8,0:0:0:0:
364,264,210049,1,2,0:0:0:0:
364,264,210148,1,8,0:0:0:0:
364,264,210247,6,0,L|464:268,1,100,0|0,3:0|0:0,0:0:0:0:
364,24,210645,2,0,P|316:48|300:92,1,100,12|0,0:0|0:0,0:0:0:0:
288,164,210943,1,8,0:0:0:0:
288,164,211042,1,0,3:0:0:0:
320,336,211241,1,0,3:0:0:0:
512,180,211439,2,0,L|362:174,1,150,8|8,0:0|0:0,0:0:0:0:
288,164,211837,5,0,3:0:0:0:
148,232,212035,1,0,0:0:0:0:
152,36,212234,2,0,P|201:93|192:167,1,150,10|8,0:0|0:0,0:0:0:0:
148,232,212631,1,0,3:0:0:0:
32,136,212830,1,0,3:0:0:0:
284,80,213029,1,8,0:0:0:0:
227,332,213227,6,0,P|133:360|47:314,1,200,4|10,3:2|0:0,0:0:0:0:
32,136,213823,1,8,0:0:0:0:
234,72,214022,2,0,L|286:80,1,50,2|8,0:0|0:0,0:0:0:0:
184,164,214221,2,0,L|134:156,1,50,0|8,3:0|0:0,0:0:0:0:
136,56,214419,1,0,3:0:0:0:
300,184,214618,2,0,L|304:248,1,50,8|8,0:0|0:0,0:0:0:0:
200,352,214817,2,0,L|204:288,1,50,8|8,0:0|0:0,0:0:0:0:
324,336,215015,38,0,L|436:344,1,100,4|2,3:2|0:0,0:0:0:0:
503,216,215413,2,0,P|509:143|458:88,1,150,10|8,0:0|0:0,0:0:0:0:
386,70,215810,1,0,3:0:0:0:
303,233,216009,1,0,3:0:0:0:
421,173,216207,1,8,0:0:0:0:
308,72,216406,1,2,0:0:0:0:
308,72,216506,1,8,0:0:0:0:
308,72,216605,6,0,L|208:56,1,100,0|2,3:0|0:0,0:0:0:0:
112,224,217002,1,8,0:0:0:0:
267,339,217201,2,0,P|292:345|317:345,2,50,2|8|0,0:0|0:0|3:0,0:0:0:0:
128,364,217598,1,0,3:0:0:0:
248,160,217797,1,8,0:0:0:0:
47,301,217996,1,2,0:0:0:0:
47,301,218095,1,8,0:0:0:0:
47,301,218194,6,0,P|18:262|12:213,1,100,4|2,3:2|0:0,0:0:0:0:
84,32,218592,1,10,0:0:0:0:
280,52,218790,1,0,0:0:0:0:
280,52,218890,1,8,0:0:0:0:
280,52,218989,2,0,L|432:72,1,150,2|0,3:2|0:0,0:0:0:0:
496,104,219386,1,8,0:0:0:0:
247,323,219585,6,0,P|212:235|275:164,1,200,4|10,3:2|0:0,0:0:0:0:
428,71,220181,1,8,0:0:0:0:
460,284,220380,1,2,0:0:0:0:
460,284,220479,1,8,0:0:0:0:
460,284,220578,1,0,3:0:0:0:
304,252,220777,1,0,3:0:0:0:
504,168,220976,1,8,0:0:0:0:
308,48,221174,1,2,0:0:0:0:
308,48,221274,1,8,0:0:0:0:
308,48,221373,38,0,L|208:52,1,100,4|2,3:2|0:0,0:0:0:0:
56,116,221770,1,10,0:0:0:0:
104,312,221969,1,0,0:0:0:0:
104,312,222068,1,8,0:0:0:0:
104,311,222168,2,0,P|151:325|197:309,1,100,0|0,3:0|3:0,0:0:0:0:
224,140,222565,1,8,0:0:0:0:
8,232,222764,1,0,0:0:0:0:
8,232,222863,1,8,0:0:0:0:
8,232,222962,5,0,3:0:0:0:
148,236,223161,1,2,0:0:0:0:
128,72,223360,1,8,0:0:0:0:
8,232,223558,2,0,P|0:264|1:288,2,50,2|8|0,0:0|0:0|3:0,0:0:0:0:
224,140,223956,1,2,3:2:0:0:
100,360,224155,1,8,0:0:0:0:
292,276,224353,70,0,L|492:296,1,200,4|0,3:2|3:0,0:0:0:0:
348,380,224949,1,8,0:0:0:0:
244,184,225148,6,0,P|264:76|360:52,1,220.000006713867,4|0,3:2|3:0,0:0:0:0:
492,200,225744,1,8,0:0:0:0:
244,376,225943,6,0,B|84:383|179:308|19:315,1,239.999992675781,4|8,3:2|0:0,0:0:0:0:
212,264,226539,1,8,0:0:0:0:
143,7,226737,6,0,P|35:66|45:188,1,259.999988098145,4|4,3:2|3:0,0:0:0:0:
344,228,227333,1,8,0:0:0:0:
236,43,227532,1,8,0:0:0:0:
236,43,227631,1,8,0:0:0:0:
236,43,227731,37,0,3:0:0:0:
197,345,227929,1,0,3:0:0:0:
438,159,228128,1,0,3:0:0:0:
136,120,228327,1,0,3:0:0:0:
322,362,228525,1,0,3:0:0:0:
361,60,228724,1,0,3:0:0:0:
119,245,228923,1,0,3:0:0:0:
422,285,229121,1,0,3:0:0:0:
256,0,229320,5,10,0:0:0:0:
256,192,230909,5,0,3:0:0:0:
361,60,231108,1,10,0:0:0:0:
361,60,231307,1,10,0:0:0:0:
368,227,231506,5,0,3:0:0:0:
353,259,231605,1,10,0:0:0:0:
329,285,231704,1,10,0:0:0:0:
299,303,231804,1,8,3:0:0:0:
265,311,231903,1,0,3:0:0:0:
231,308,232002,1,0,3:0:0:0:
198,296,232102,2,0,L|88:296,1,100,4|10,3:0|0:0,0:0:0:0:
196,32,232499,37,4,3:2:0:0:
256,192,232698,1,2,0:0:0:0:
44,196,232896,2,0,P|36:144|60:104,1,100,8|2,0:0|0:0,0:0:0:0:
92,36,233194,1,8,0:0:0:0:
92,36,233294,1,0,3:0:0:0:
336,104,233492,2,0,P|288:108|236:107,1,100,2|8,3:2|0:0,0:0:0:0:
416,8,233890,1,2,0:0:0:0:
416,8,233989,1,8,0:0:0:0:
416,8,234088,5,2,3:2:0:0:
328,212,234287,1,2,0:0:0:0:
472,156,234486,1,8,0:0:0:0:
312,19,234684,2,0,P|289:30|270:47,2,50,2|8|0,0:0|0:0|3:0,0:0:0:0:
504,60,235082,1,2,3:2:0:0:
432,268,235280,1,8,0:0:0:0:
244,144,235479,1,2,0:0:0:0:
244,144,235578,1,8,0:0:0:0:
244,144,235678,6,0,L|136:144,1,100,4|2,3:2|0:0,0:0:0:0:
152,320,236075,1,8,0:0:0:0:
340,288,236274,1,2,0:0:0:0:
340,288,236373,1,8,0:0:0:0:
340,288,236472,1,0,3:0:0:0:
277,55,236671,2,0,P|246:93|243:143,1,100,2|8,3:2|0:0,0:0:0:0:
256,364,237068,1,2,0:0:0:0:
256,364,237168,1,8,0:0:0:0:
256,364,237267,5,0,3:0:0:0:
412,204,237466,1,2,0:0:0:0:
176,232,237664,1,8,0:0:0:0:
332,127,237863,1,2,0:0:0:0:
332,127,237962,1,8,0:0:0:0:
332,127,238062,1,2,3:2:0:0:
376,272,238260,1,2,3:2:0:0:
256,363,238459,2,0,P|207:373|160:358,1,100,8|8,0:0|0:0,0:0:0:0:
136,332,238757,1,8,0:0:0:0:
112,308,238856,38,0,L|0:316,1,100,4|2,3:2|0:0,0:0:0:0:
160,120,239254,1,8,0:0:0:0:
212,280,239453,1,2,0:0:0:0:
212,280,239552,1,8,0:0:0:0:
212,280,239651,1,0,3:0:0:0:
51,163,239850,2,0,P|43:115|55:66,1,100,2|8,3:2|0:0,0:0:0:0:
248,12,240247,1,2,0:0:0:0:
248,12,240347,1,8,0:0:0:0:
248,12,240446,5,2,3:2:0:0:
312,157,240645,1,2,0:0:0:0:
212,280,240843,1,8,0:0:0:0:
56,256,241042,2,0,L|4:256,2,50,2|8|0,0:0|0:0|3:0,0:0:0:0:
184,148,241439,1,2,3:2:0:0:
112,352,241638,1,8,0:0:0:0:
328,264,241837,2,0,P|356:258|380:260,1,50,2|8,0:0|0:0,0:0:0:0:
472,304,242035,5,4,3:2:0:0:
276,372,242234,1,2,0:0:0:0:
216,220,242433,2,0,P|212:160|236:124,1,100,8|2,0:0|0:0,0:0:0:0:
304,100,242731,1,8,0:0:0:0:
304,100,242830,1,0,3:0:0:0:
396,249,243029,2,0,P|392:299|391:349,1,100,2|8,3:2|0:0,0:0:0:0:
100,292,243426,6,0,P|200:296|320:304,1,200,4|8,3:2|0:0,0:0:0:0:
472,304,244022,1,8,0:0:0:0:
504,136,244221,2,0,L|492:88,1,50,2|8,0:0|0:0,0:0:0:0:
392,172,244419,2,0,L|404:220,1,50,0|8,3:0|0:0,0:0:0:0:
388,64,244618,1,0,3:0:0:0:
164,148,244817,2,0,L|220:156,1,50,8|8,0:0|0:0,0:0:0:0:
296,20,245015,2,0,L|240:28,1,50,8|8,0:0|0:0,0:0:0:0:
115,64,245214,38,0,P|81:99|67:149,1,100,4|2,3:2|0:0,0:0:0:0:
56,324,245611,1,8,0:0:0:0:
200,272,245810,1,2,0:0:0:0:
200,272,245909,1,8,0:0:0:0:
200,272,246009,1,0,3:0:0:0:
67,147,246207,2,0,P|116:156|168:148,1,100,2|8,3:2|0:0,0:0:0:0:
348,64,246605,1,2,0:0:0:0:
348,64,246704,1,8,0:0:0:0:
348,64,246804,5,2,3:2:0:0:
316,232,247002,1,2,0:0:0:0:
165,148,247201,1,8,0:0:0:0:
303,42,247400,2,0,P|328:52|351:66,1,50,2|8,0:0|0:0,0:0:0:0:
420,128,247598,2,0,P|430:181|412:224,1,100,0|2,3:0|3:2,0:0:0:0:
288,324,247996,1,8,0:0:0:0:
64,228,248194,1,2,0:0:0:0:
64,228,248294,1,8,0:0:0:0:
64,228,248393,6,0,L|180:232,1,100,4|2,3:2|0:0,0:0:0:0:
332,248,248790,1,8,0:0:0:0:
248,124,248989,2,0,L|252:68,1,50,2|8,0:0|0:0,0:0:0:0:
304,4,249188,1,0,3:0:0:0:
456,88,249386,2,0,P|404:104|360:88,1,100,2|8,3:2|0:0,0:0:0:0:
124,24,249784,6,0,L|116:123,1,100,4|2,3:2|0:0,0:0:0:0:
104,348,250181,1,12,0:0:0:0:
368,216,250380,1,12,0:0:0:0:
160,232,250578,1,2,3:2:0:0:
160,232,250678,1,0,3:0:0:0:
160,232,250777,2,0,P|113:216|64:225,1,100,12|0,0:0|0:0,0:0:0:0:
220,292,251075,2,0,P|268:300|315:285,1,100,12|0,0:0|0:0,0:0:0:0:
368,216,251373,2,0,L|372:160,1,50,12|0,0:0|0:0,0:0:0:0:
270,104,251572,38,0,L|262:203,1,100,4|2,3:2|0:0,0:0:0:0:
244,376,251969,1,8,0:0:0:0:
404,352,252168,1,2,0:0:0:0:
404,352,252267,1,8,0:0:0:0:
404,352,252366,1,0,3:0:0:0:
460,140,252565,2,0,P|433:97|390:75,1,100,2|8,3:2|0:0,0:0:0:0:
196,56,252962,1,2,0:0:0:0:
196,56,253062,1,8,0:0:0:0:
196,56,253161,5,2,3:2:0:0:
224,208,253360,1,2,0:0:0:0:
371,166,253558,1,8,0:0:0:0:
343,318,253757,2,0,P|327:340|309:354,1,50,2|8,0:0|0:0,0:0:0:0:
216,376,253956,2,0,L|116:368,1,100,0|2,3:0|3:2,0:0:0:0:
32,176,254353,1,12,0:0:0:0:
276,8,254552,1,2,0:0:0:0:
276,8,254651,1,8,0:0:0:0:
276,8,254751,6,0,P|288:55|275:105,1,100,4|2,3:2|0:0,0:0:0:0:
184,240,255148,1,8,0:0:0:0:
196,56,255347,1,2,0:0:0:0:
196,56,255446,1,8,0:0:0:0:
196,56,255545,1,0,3:0:0:0:
384,72,255744,2,0,L|484:92,1,100,2|8,3:2|0:0,0:0:0:0:
416,328,256141,1,2,0:0:0:0:
256,192,256340,5,4,3:2:0:0:
256,192,256539,12,0,259519,0:0:0:0:
