osu file format v14

[General]
AudioFilename: audio.mp3
AudioLeadIn: 0
PreviewTime: 67201
Countdown: 0
SampleSet: Soft
StackLeniency: 0.7
Mode: 0
LetterboxInBreaks: 0
EpilepsyWarning: 1
WidescreenStoryboard: 1

[Editor]
Bookmarks: 228525
DistanceSpacing: 1
BeatDivisor: 4
GridSize: 4
TimelineZoom: 1.1

[Metadata]
Title:cantabile
TitleUnicode:cantabile
Artist:sana
ArtistUnicode:鎖那
Creator:Zero__wind
Version:Normal
Source:
Tags:Sharlo Vocaloid minjta (un)sentimental unsentimental spica 初音ミク Hatsune Miku
BeatmapID:1038228
BeatmapSetID:451910

[Difficulty]
HPDrainRate:3
CircleSize:3
OverallDifficulty:3.5
ApproachRate:4
SliderMultiplier:1
SliderTickRate:2

[Events]
//Background and Video events
0,0,"bg.jpg",0,0
//Break Periods
2,26076,37272
2,92831,104027
2,189585,194623
//Storyboard Layer 0 (Background)
//Storyboard Layer 1 (Fail)
//Storyboard Layer 2 (Pass)
//Storyboard Layer 3 (Foreground)
Sprite,Foreground,Centre,"SB\sh.png",320,240 M,0,113890,114486,296,325,146,317 S,0,113890,114684,0.5,1 M,0,114486,114684,146,317
//Storyboard Sound Samples

[TimingPoints]
-1143,397.350993377483,4,2,1,40,1,0
25280,-100,4,2,1,50,0,0
38592,-100,4,2,2,50,0,0
50711,-100,4,2,2,40,0,0
50909,-100,4,2,2,50,0,0
64022,-100,4,2,2,30,0,0
67201,-100,4,2,1,70,0,1
92631,-100,4,2,1,50,0,0
103757,-100,4,2,2,50,0,0
128393,-100,4,2,1,50,0,0
130777,-100,4,2,1,70,0,1
156207,-100,4,2,1,60,0,0
170512,-100,4,2,1,70,0,0
188790,-100,4,2,1,50,0,0
199320,-100,4,2,1,60,0,0
202300,-100,4,2,1,70,0,1
229320,-100,4,2,1,70,0,0
230909,-100,4,2,1,60,0,0
256539,-100,4,2,1,50,0,0
258724,-100,4,2,1,60,0,0
259121,-100,4,2,1,70,0,0
259519,-100,4,2,1,40,0,0

[Colours]
Combo1 : 98,176,141
Combo2 : 223,228,232
Combo3 : 136,144,138
Combo4 : 101,214,238
Combo5 : 163,209,156
Combo6 : 158,154,235

[HitObjects]
330,116,446,6,0,P|352:172|344:209,1,100,0|2,0:0|0:0,0:0:0:0:
284,293,1241,2,0,P|224:285|196:259,1,100,0|2,0:0|0:0,0:0:0:0:
153,165,2035,2,0,P|190:118|226:106,1,100,0|2,0:0|0:0,0:0:0:0:
330,116,2830,2,0,L|376:80,2,50,2|0|2,0:0|0:0|0:0,0:0:0:0:
360,212,3625,6,0,P|382:256|384:306,1,100,0|2,0:0|0:0,0:0:0:0:
306,368,4419,2,0,L|206:368,1,100,0|2,0:0|0:0,0:0:0:0:
127,305,5214,2,0,P|129:256|152:212,1,100,0|2,0:0|0:0,0:0:0:0:
206,128,6009,2,0,L|256:128,2,50,2|0|2,0:0|0:0|0:0,0:0:0:0:
108,118,6804,70,0,P|60:118|12:146,1,100,0|2,0:0|0:0,0:0:0:0:
15,241,7598,2,0,P|58:265|108:266,1,100,0|2,0:0|0:0,0:0:0:0:
176,192,8393,2,0,L|276:192,1,100,0|2,0:0|0:0,0:0:0:0:
376,192,9188,2,0,L|428:192,2,50,2|0|2,0:0|0:0|0:0,0:0:0:0:
309,113,9982,6,0,P|353:91|402:92,1,100,0|2,0:0|0:0,0:0:0:0:
490,145,10777,2,0,P|505:191|491:238,1,100,0|2,0:0|0:0,0:0:0:0:
402,291,11572,2,0,P|353:292|309:270,1,100,0|2,0:0|0:0,0:0:0:0:
244,192,12366,2,0,L|184:192,2,50,2|0|2,0:0|0:0|0:0,0:0:0:0:
344,192,13161,69,0,0:0:0:0:
432,144,13558,1,2,0:0:0:0:
512,204,13956,2,0,P|532:282|506:343,1,150,2|0,0:0|0:0,0:0:0:0:
456,352,14751,2,0,L|348:336,1,100,0|2,0:0|0:0,0:0:0:0:
260,320,15545,2,0,L|204:336,2,50,2|0|2,0:0|0:0|0:0,0:0:0:0:
324,243,16340,6,0,P|354:177|331:107,2,150,0|2|2,0:0|0:0|0:0,0:0:0:0:
252,172,17929,1,0,0:0:0:0:
156,148,18327,2,0,L|52:160,1,100,2|2,0:0|0:0,0:0:0:0:
4,244,19121,1,2,0:0:0:0:
88,296,19519,70,0,P|140:292|188:256,1,100,0|2,0:0|0:0,0:0:0:0:
236,184,20313,2,0,P|304:148|378:160,1,150,2|0,0:0|0:0,0:0:0:0:
411,192,21108,1,0,0:0:0:0:
420,292,21506,1,2,0:0:0:0:
348,364,21903,2,0,L|296:376,2,50,2|0|2,0:0|0:0|0:0,0:0:0:0:
447,376,22698,6,0,P|502:327|500:255,2,150,0|2|2,0:0|0:0|0:0,0:0:0:0:
348,364,24287,1,0,0:0:0:0:
276,296,24684,2,0,P|228:280|180:292,1,100,2|2,0:0|0:0,0:0:0:0:
152,332,25280,2,0,L|88:320,1,50,8|4,3:0|3:0,0:0:0:0:
2,305,25876,1,4,3:1:0:0:
360,160,38592,6,0,P|384:84|352:20,1,150,4|2,3:1|0:0,0:0:0:0:
256,28,39585,2,0,P|212:48|160:40,1,100,0|0,3:0|0:0,0:0:0:0:
116,20,40181,2,0,L|16:32,1,100,0|10,3:0|0:0,0:0:0:0:
48,128,40976,2,0,L|97:121,2,50,2|0|2,0:0|0:0|0:0,0:0:0:0:
24,224,41770,5,0,3:0:0:0:
116,264,42168,1,8,0:0:0:0:
200,208,42565,2,0,P|252:192|308:216,1,100,2|10,3:2|0:0,0:0:0:0:
356,284,43360,1,2,3:2:0:0:
271,340,43757,2,0,P|224:356|176:343,1,100,10|2,0:0|0:0,0:0:0:0:
116,264,44552,1,10,0:0:0:0:
108,164,44949,6,0,L|116:56,1,100,0|8,3:0|0:0,0:0:0:0:
216,68,45744,2,0,L|208:167,1,100,2|8,3:2|0:0,0:0:0:0:
208,268,46539,1,0,3:0:0:0:
276,340,46936,1,10,0:0:0:0:
364,292,47333,2,0,L|420:284,2,50,2|0|2,0:0|0:0|0:0,0:0:0:0:
296,220,48128,6,0,P|276:156|288:116,1,100,0|8,3:0|0:0,0:0:0:0:
300,80,48724,2,0,P|345:30|386:21,1,100,2|0,0:0|3:0,0:0:0:0:
423,13,49320,1,8,0:0:0:0:
496,80,49717,2,0,P|515:125|507:174,1,100,2|10,3:2|0:0,0:0:0:0:
432,240,50512,2,0,L|380:233,1,50,2|8,0:0|0:0,0:0:0:0:
332,227,50909,1,2,3:2:0:0:
232,232,51307,6,0,L|200:380,2,150,4|2|8,3:1|0:0|0:0,0:0:0:0:
247,132,52896,2,0,P|231:60|168:24,1,150,0|2,3:0|3:2,0:0:0:0:
120,24,53691,2,0,L|68:32,2,50,2|0|8,0:0|3:0|0:0,0:0:0:0:
152,120,54486,6,0,L|48:136,1,100,0|8,3:0|0:0,0:0:0:0:
72,232,55280,2,0,L|170:216,1,100,0|8,3:0|0:0,0:0:0:0:
248,152,56075,1,0,3:0:0:0:
344,128,56472,1,8,0:0:0:0:
444,144,56870,2,0,L|492:160,2,50,2|0|10,0:0|3:0|0:0,0:0:0:0:
407,49,57664,70,0,P|364:26|315:30,1,100,4|8,3:2|0:0,0:0:0:0:
256,112,58459,2,0,L|256:168,2,50,0|0|10,3:0|3:0|0:0,0:0:0:0:
196,30,59254,2,0,P|147:26|104:49,1,100,0|8,3:0|0:0,0:0:0:0:
48,132,60049,2,0,L|-4:148,2,50,0|0|10,0:0|3:0|0:0,0:0:0:0:
148,140,60843,5,0,3:0:0:0:
240,176,61241,2,0,L|340:216,1,100,8|2,0:0|3:2,0:0:0:0:
376,236,61837,2,0,L|390:334,2,100,0|2|0,3:0|0:0|0:0,0:0:0:0:
373,186,62830,1,8,0:0:0:0:
384,88,63227,2,0,L|396:32,2,50,2|0|8,0:0|3:0|0:0,0:0:0:0:
464,148,64022,69,0,0:0:0:0:
464,148,67201,22,0,L|352:160,1,100,4|8,3:2|0:0,0:0:0:0:
268,140,67996,2,0,P|220:124|192:80,1,100,2|8,3:2|0:0,0:0:0:0:
188,36,68592,2,0,P|128:80|56:72,1,150,2|8,0:0|0:0,0:0:0:0:
72,172,69585,2,0,L|60:236,2,50,0|0|8,3:0|3:0|0:0,0:0:0:0:
172,160,70380,5,0,3:0:0:0:
258,212,70777,1,8,0:0:0:0:
344,160,71174,2,0,L|444:160,1,100,2|8,3:2|0:0,0:0:0:0:
493,165,71770,1,2,0:0:0:0:
512,264,72168,2,0,L|508:320,1,50,2|8,0:0|0:0,0:0:0:0:
496,364,72565,2,0,P|428:380|356:348,1,150,2|8,0:0|0:0,0:0:0:0:
312,260,73558,5,4,3:2:0:0:
236,196,73956,1,8,0:0:0:0:
140,176,74353,2,0,P|64:188|16:248,2,150,2|2|10,3:2|0:0|0:0,0:0:0:0:
172,269,75943,2,0,L|160:336,2,50,0|0|8,3:0|3:0|0:0,0:0:0:0:
236,196,76737,5,0,3:0:0:0:
336,200,77135,2,0,L|444:216,2,100,10|2|8,0:0|3:2|0:0,0:0:0:0:
312,156,78128,2,0,P|300:100|324:56,1,100,4|10,3:2|0:0,0:0:0:0:
360,36,78724,1,8,0:0:0:0:
460,48,79121,1,0,3:0:0:0:
511,134,79519,2,0,L|503:198,1,50,8|8,0:0|0:0,0:0:0:0:
484,228,79916,38,0,L|385:213,1,100,4|8,3:2|0:0,0:0:0:0:
292,180,80711,2,0,L|180:76,2,150,2|2|10,3:2|0:0|0:0,0:0:0:0:
310,278,82300,2,0,P|316:328|304:380,1,100,0|8,3:0|0:0,0:0:0:0:
206,376,83095,6,0,P|195:327|202:278,1,100,4|8,3:2|0:0,0:0:0:0:
224,180,83890,2,0,L|268:152,2,50,2|0|10,3:2|3:0|0:0,0:0:0:0:
176,192,84486,1,4,3:2:0:0:
160,92,84883,2,0,L|204:64,1,50,8|8,0:0|0:0,0:0:0:0:
243,40,85280,2,0,P|316:50|369:102,1,150,2|8,0:0|0:0,0:0:0:0:
376,200,86274,6,0,L|360:300,1,100,4|8,3:2|0:0,0:0:0:0:
276,352,87068,2,0,P|224:328|176:328,1,100,2|8,3:2|0:0,0:0:0:0:
140,356,87664,2,0,P|164:284|124:220,1,150,2|8,0:0|0:0,0:0:0:0:
48,164,88658,2,0,L|0:176,2,50,0|0|8,3:0|3:0|0:0,0:0:0:0:
140,124,89453,5,4,3:2:0:0:
188,36,89850,1,10,0:0:0:0:
284,64,90247,2,0,P|336:80|384:68,1,100,2|8,3:2|0:0,0:0:0:0:
424,44,90843,2,0,L|404:154,1,100,4|8,3:2|0:0,0:0:0:0:
397,191,91439,1,8,0:0:0:0:
336,267,91837,2,0,P|287:276|239:262,1,100,8|4,0:0|3:0,0:0:0:0:
292,180,92631,1,4,3:1:0:0:
256,248,105347,38,0,L|106:236,1,150,4|2,0:1|3:2,0:0:0:0:
44,156,106340,1,2,3:2:0:0:
84,64,106737,2,0,P|132:44|192:64,1,100,2|2,3:2|3:2,0:0:0:0:
216,88,107333,2,0,L|208:144,1,50,8|2,0:0|3:2,0:0:0:0:
60,340,108525,6,0,L|12:364,2,50,10|0|10,0:0|3:0|0:0,0:0:0:0:
104,316,109121,2,0,L|212:324,1,100,2|2,3:2|3:2,0:0:0:0:
304,340,109916,2,0,P|348:356|400:344,1,100,2|2,3:2|3:2,0:0:0:0:
432,308,110512,2,0,L|424:256,1,50,8|0,0:0|3:0,0:0:0:0:
488,16,111704,6,0,L|465:164,1,150,2|2,0:0|3:2,0:0:0:0:
424,258,112698,1,2,3:2:0:0:
344,196,113095,2,0,P|276:172|208:208,1,150,2|8,3:2|0:0,0:0:0:0:
232,252,113890,2,0,L|76:244,1,150,4|0,3:2|0:0,0:0:0:0:
36,156,114883,6,0,L|24:108,2,50,4|0|10,3:2|3:0|0:0,0:0:0:0:
88,152,115479,2,0,L|192:157,1,100,2|2,3:2|3:2,0:0:0:0:
236,160,116075,1,8,0:0:0:0:
332,132,116472,1,0,0:0:0:0:
423,176,116870,2,0,P|435:127|419:80,1,100,8|2,0:0|0:0,0:0:0:0:
344,16,117664,1,4,3:0:0:0:
244,20,118062,6,0,L|140:36,2,100,4|0|10,3:1|3:0|0:0,0:0:0:0:
299,104,119254,1,2,0:0:0:0:
284,204,119651,2,0,P|256:244|208:264,1,100,0|0,3:0|3:0,0:0:0:0:
276,340,120446,2,0,P|324:344|365:375,1,100,10|0,0:0|0:0,0:0:0:0:
397,278,121241,6,0,P|376:212|388:132,1,150,2|0,3:2|0:0,0:0:0:0:
412,92,122035,2,0,P|460:68|504:76,2,100,10|2|0,0:0|0:0|3:0,0:0:0:0:
320,48,123227,2,0,P|272:24|228:32,1,100,2|8,3:2|0:0,0:0:0:0:
160,104,124022,2,0,L|148:216,1,100,2|4,0:0|3:1,0:0:0:0:
304,332,125214,70,0,L|412:324,1,100,10|2,0:0|0:0,0:0:0:0:
488,272,126009,2,0,P|504:220|492:176,1,100,2|0,3:2|3:0,0:0:0:0:
436,96,126804,1,10,0:0:0:0:
336,88,127201,2,0,L|286:91,1,50,2|8,0:0|0:0,0:0:0:0:
40,44,128393,6,0,L|20:152,1,100,8|8,0:0|0:0,0:0:0:0:
24,192,128989,2,0,P|76:212|132:196,1,100,4|8,3:1|0:0,0:0:0:0:
160,176,129585,1,0,3:0:0:0:
244,120,129982,2,0,L|293:123,1,50,8|8,0:0|0:0,0:0:0:0:
344,129,130380,1,8,0:0:0:0:
428,184,130777,6,0,L|416:300,1,100,4|8,3:2|0:0,0:0:0:0:
352,356,131572,2,0,P|296:372|240:356,1,100,2|8,3:2|0:0,0:0:0:0:
188,292,132366,1,0,3:0:0:0:
184,192,132764,1,10,0:0:0:0:
196,92,133161,2,0,L|208:40,2,50,0|0|8,3:0|3:0|0:0,0:0:0:0:
104,132,133956,6,0,L|4:124,1,100,4|8,3:2|0:0,0:0:0:0:
0,224,134751,2,0,L|109:232,1,100,2|8,3:2|0:0,0:0:0:0:
149,235,135347,1,2,0:0:0:0:
248,244,135744,2,0,L|312:228,1,50,2|8,0:0|0:0,0:0:0:0:
340,212,136141,2,0,P|368:148|336:80,1,150,2|8,0:0|0:0,0:0:0:0:
244,40,137135,5,4,3:2:0:0:
148,64,137532,1,8,0:0:0:0:
88,144,137929,2,0,L|72:296,2,150,2|2|10,3:2|0:0|0:0,0:0:0:0:
189,150,139519,2,0,L|244:148,2,50,0|0|8,3:0|3:0|0:0,0:0:0:0:
164,248,140313,6,0,L|274:244,1,100,0|10,3:0|0:0,0:0:0:0:
364,228,141108,2,0,P|420:208|468:220,1,100,2|8,3:2|0:0,0:0:0:0:
504,236,141704,2,0,P|484:180|496:132,1,100,4|10,3:2|0:0,0:0:0:0:
512,96,142300,1,8,0:0:0:0:
412,116,142698,1,0,3:0:0:0:
316,80,143095,2,0,L|264:80,1,50,8|8,0:0|0:0,0:0:0:0:
216,80,143492,38,0,L|112:96,1,100,4|8,3:2|0:0,0:0:0:0:
28,144,144287,2,0,P|8:208|16:248,1,100,2|8,3:2|0:0,0:0:0:0:
28,288,144883,2,0,P|100:312|168:284,1,150,2|10,0:0|0:0,0:0:0:0:
248,228,145876,1,0,3:0:0:0:
348,224,146274,1,8,0:0:0:0:
444,248,146671,6,0,L|448:348,1,100,4|8,3:2|0:0,0:0:0:0:
351,323,147466,2,0,L|347:223,1,100,2|10,3:2|0:0,0:0:0:0:
344,173,148062,1,4,3:2:0:0:
352,72,148459,2,0,L|388:32,1,50,8|8,0:0|0:0,0:0:0:0:
432,16,148856,2,0,P|504:68|508:136,1,150,2|8,0:0|0:0,0:0:0:0:
496,224,149850,5,4,3:2:0:0:
412,280,150247,1,8,0:0:0:0:
328,224,150645,2,0,P|256:204|184:224,2,150,2|2|8,3:2|0:0|0:0,0:0:0:0:
304,324,152234,2,0,P|256:336|204:324,1,100,0|8,3:0|0:0,0:0:0:0:
112,292,153029,6,0,L|8:312,1,100,4|10,3:2|0:0,0:0:0:0:
4,212,153823,2,0,L|102:193,1,100,2|8,3:2|0:0,0:0:0:0:
152,180,154419,2,0,P|204:188|260:168,2,100,4|2|4,3:2|3:2|3:2,0:0:0:0:
128,80,155611,2,0,L|132:24,2,50,8|8|8,0:0|0:0|0:0,0:0:0:0:
178,90,156207,6,0,L|298:78,1,100,4|2,3:2|3:2,0:0:0:0:
344,156,157002,2,0,L|302:247,1,100,2|2,3:2|3:2,0:0:0:0:
203,266,157797,2,0,L|144:184,2,100,2|2|2,3:2|3:2|3:2,0:0:0:0:
269,341,158989,1,10,0:0:0:0:
368,332,159386,6,0,L|420:324,2,50,2|8|2,3:2|0:0|3:2,0:0:0:0:
300,260,160181,2,0,P|280:184|312:124,1,150,10|8,0:0|0:0,0:0:0:0:
352,92,160976,2,0,L|404:84,2,50,2|8|2,3:2|0:0|3:2,0:0:0:0:
304,76,161572,2,0,L|148:51,1,150,8|0,0:0|0:0,0:0:0:0:
56,36,162565,70,0,L|6:43,2,50,4|10|10,3:2|0:0|0:0,0:0:0:0:
92,131,163360,1,10,0:0:0:0:
24,204,163757,1,10,0:0:0:0:
96,276,164155,2,0,L|127:314,2,50,6|10|8,3:2|0:0|0:0,0:0:0:0:
160,197,164950,1,10,0:0:0:0:
257,219,165347,1,10,0:0:0:0:
283,121,165744,6,0,L|301:74,2,50,4|10|10,3:2|0:0|0:0,0:0:0:0:
183,105,166539,2,0,L|80:112,1,100,10|8,0:0|0:0,0:0:0:0:
36,124,167135,2,0,P|8:180|16:228,1,100,4|10,3:2|0:0,0:0:0:0:
32,260,167731,1,10,0:0:0:0:
132,256,168128,2,0,L|231:249,1,100,10|10,0:0|0:0,0:0:0:0:
332,248,168923,2,0,B|372:260|372:260|416:256,2,75,4|4|4,3:2|3:0|3:0,0:0:0:0:
308,204,169717,2,0,L|312:100,1,100,10|8,0:0|0:0,0:0:0:0:
356,16,170512,5,4,3:2:0:0:
456,28,170909,1,8,0:0:0:0:
508,112,171307,2,0,L|506:161,2,50,8|2|10,0:0|3:2|0:0,0:0:0:0:
408,116,172102,2,0,L|404:215,1,100,4|8,3:2|0:0,0:0:0:0:
304,219,172896,2,0,L|308:120,1,100,8|8,0:0|0:0,0:0:0:0:
260,32,173691,5,4,3:2:0:0:
160,16,174088,1,8,0:0:0:0:
60,23,174486,2,0,P|20:53|3:100,1,100,8|8,0:0|0:0,0:0:0:0:
104,116,175280,1,0,3:0:0:0:
204,124,175678,2,0,L|256:116,2,50,8|2|0,0:0|3:2|3:0,0:0:0:0:
148,207,176472,1,8,0:0:0:0:
248,224,176870,6,0,L|352:240,1,100,4|8,3:2|0:0,0:0:0:0:
444,264,177664,2,0,L|464:312,2,50,8|2|10,0:0|3:2|0:0,0:0:0:0:
416,168,178459,2,0,L|436:64,1,100,4|8,3:2|0:0,0:0:0:0:
336,48,179254,2,0,L|317:146,1,100,8|8,0:0|0:0,0:0:0:0:
296,244,180049,5,12,0:0:0:0:
232,320,180446,1,8,0:0:0:0:
132,332,180843,2,0,L|72:328,2,50,8|2|2,0:0|3:2|3:2,0:0:0:0:
156,288,181439,2,0,P|168:232|152:192,1,100,12|10,0:0|0:0,0:0:0:0:
107,171,182035,1,8,0:0:0:0:
8,196,182433,2,0,P|-4:252|12:292,1,100,8|10,0:0|0:0,0:0:0:0:
72,372,183227,38,0,L|192:364,1,100,12|12,0:0|0:0,0:0:0:0:
240,292,184022,2,0,L|360:284,1,100,12|12,0:0|0:0,0:0:0:0:
408,212,184817,2,0,L|528:204,2,100,12|12|12,0:0|0:0|0:0,0:0:0:0:
332,148,186009,1,12,0:0:0:0:
240,105,186406,6,0,P|193:118|154:155,1,100,12|12,0:0|0:0,0:0:0:0:
188,248,187201,2,0,P|223:283|274:298,1,100,12|12,0:0|0:0,0:0:0:0:
338,221,187995,2,0,P|351:174|338:122,2,100,12|12|0,2:0|0:0|0:0,0:0:0:0:
328,148,195943,38,0,P|384:132|432:144,1,100,4|2,3:2|3:2,0:0:0:0:
423,243,196737,2,0,P|374:251|328:236,1,100,0|2,3:0|3:2,0:0:0:0:
280,220,197333,2,0,L|128:228,1,150,0|2,0:0|3:2,0:0:0:0:
32,244,198327,2,0,L|24:300,2,50,0|0|2,3:0|2:0|3:2,0:0:0:0:
40,196,198923,1,4,0:0:0:0:
84,108,199320,22,0,L|203:101,1,100,12|0,0:0|3:0,0:0:0:0:
232,88,199916,2,0,L|351:81,1,100,12|0,0:0|3:0,0:0:0:0:
380,68,200512,6,0,P|440:120|440:192,1,150,12|2,0:0|3:2,0:0:0:0:
408,280,201506,1,2,3:2:0:0:
312,308,201903,2,0,L|252:304,1,50,8|8,0:0|0:0,0:0:0:0:
212,304,202300,70,0,L|220:188,1,100,4|8,3:2|0:0,0:0:0:0:
240,108,203095,2,0,P|288:52|360:40,2,150,2|2|10,3:2|0:0|0:0,0:0:0:0:
148,148,204684,2,0,P|97:134|44:144,1,100,0|8,3:0|0:0,0:0:0:0:
51,242,205479,6,0,P|100:249|148:236,1,100,0|8,3:0|0:0,0:0:0:0:
236,192,206274,2,0,L|288:192,2,50,2|0|10,3:2|3:0|0:0,0:0:0:0:
200,160,206870,1,4,3:2:0:0:
248,72,207267,2,0,L|300:72,1,50,0|8,3:0|0:0,0:0:0:0:
348,80,207664,2,0,L|472:168,1,150,2|10,0:0|0:0,0:0:0:0:
500,264,208658,5,4,3:2:0:0:
452,352,209055,1,8,0:0:0:0:
356,376,209453,2,0,P|304:380|252:356,1,100,2|8,3:2|0:0,0:0:0:0:
240,316,210049,2,0,P|176:285|100:304,1,150,2|8,0:0|0:0,0:0:0:0:
8,332,211042,2,0,L|0:384,2,50,0|0|8,3:0|3:0|0:0,0:0:0:0:
29,236,211837,5,0,3:0:0:0:
96,164,212234,1,10,0:0:0:0:
196,176,212631,2,0,L|312:192,1,100,0|8,3:0|0:0,0:0:0:0:
344,192,213227,2,0,P|388:164|408:120,1,100,4|10,3:2|0:0,0:0:0:0:
408,72,213823,1,8,0:0:0:0:
320,24,214221,1,0,3:0:0:0:
220,24,214618,2,0,L|162:32,1,50,8|8,0:0|0:0,0:0:0:0:
120,40,215015,38,0,L|96:144,1,100,4|10,3:2|0:0,0:0:0:0:
32,217,215810,2,0,P|101:239|169:211,2,150,0|2|8,3:0|0:0|0:0,0:0:0:0:
0,128,217400,1,0,3:0:0:0:
60,48,217797,1,8,0:0:0:0:
160,52,218194,6,0,L|264:60,1,100,4|10,3:2|0:0,0:0:0:0:
356,32,218989,2,0,L|460:40,1,100,2|8,3:2|0:0,0:0:0:0:
504,52,219585,2,0,P|528:128|492:196,1,150,4|8,3:2|0:0,0:0:0:0:
420,248,220578,1,0,3:0:0:0:
332,200,220976,1,8,0:0:0:0:
244,248,221373,6,0,L|140:248,2,100,4|10|0,3:2|0:0|3:0,0:0:0:0:
332,296,222565,1,8,0:0:0:0:
420,248,222962,2,0,P|448:180|428:104,1,150,0|2,3:0|0:0,0:0:0:0:
356,40,223956,6,0,L|296:28,2,50,2|8|4,3:2|0:0|3:2,0:0:0:0:
336,140,224751,2,0,L|276:128,2,50,0|8|4,3:0|0:0|3:2,0:0:0:0:
316,240,225545,2,0,L|256:228,2,50,0|8|4,3:0|0:0|3:2,0:0:0:0:
296,340,226340,2,0,L|236:328,1,50,8|8,0:0|0:0,0:0:0:0:
199,311,226737,2,0,P|170:272|161:223,1,100,4|4,3:2|3:0,0:0:0:0:
173,173,227333,1,8,0:0:0:0:
260,124,227731,38,0,L|358:143,1,100,0|0,3:0|3:0,0:0:0:0:
384,48,228525,2,0,L|285:28,1,100,0|0,3:0|3:0,0:0:0:0:
188,8,229320,1,10,0:0:0:0:
440,320,230909,6,0,L|496:332,2,50,0|10|10,3:0|0:0|0:0,0:0:0:0:
340,300,231704,1,10,0:0:0:0:
256,356,232102,2,0,P|231:363|201:358,1,50,4|10,3:0|0:0,0:0:0:0:
176,320,232499,70,0,L|180:216,1,100,4|8,3:2|0:0,0:0:0:0:
192,120,233294,2,0,P|216:68|300:44,1,150,0|2,3:0|0:0,0:0:0:0:
348,56,234088,2,0,L|448:84,1,100,2|8,3:2|0:0,0:0:0:0:
388,168,234883,2,0,L|339:154,2,50,0|2|8,3:0|3:2|0:0,0:0:0:0:
480,212,235678,6,0,P|504:272|488:324,1,100,4|8,3:2|0:0,0:0:0:0:
416,360,236472,2,0,P|352:332|280:356,1,150,0|2,3:0|0:0,0:0:0:0:
232,372,237267,2,0,L|128:352,1,100,0|8,3:0|0:0,0:0:0:0:
36,328,238062,2,0,L|-16:336,2,50,2|2|8,3:2|3:2|0:0,0:0:0:0:
107,256,238856,5,4,3:2:0:0:
156,168,239254,1,8,0:0:0:0:
252,136,239651,2,0,P|325:144|380:196,1,150,0|2,3:0|0:0,0:0:0:0:
384,244,240446,2,0,L|368:344,1,100,2|8,3:2|0:0,0:0:0:0:
268,356,241241,2,0,L|208:360,2,50,0|2|8,3:0|3:2|0:0,0:0:0:0:
284,256,242035,6,0,L|299:157,1,100,4|8,3:2|0:0,0:0:0:0:
296,56,242830,2,0,P|220:32|148:72,2,150,0|4|8,3:0|3:2|0:0,0:0:0:0:
396,48,244419,1,0,3:0:0:0:
488,88,244817,2,0,L|480:160,1,50,8|8,0:0|0:0,0:0:0:0:
476,188,245214,38,0,P|424:208|372:200,1,100,4|8,3:2|0:0,0:0:0:0:
304,140,246009,2,0,L|156:160,1,150,0|2,3:0|0:0,0:0:0:0:
108,175,246804,2,0,P|83:218|85:268,1,100,2|8,3:2|0:0,0:0:0:0:
153,341,247598,2,0,L|213:349,2,50,0|2|8,3:0|3:2|0:0,0:0:0:0:
167,241,248393,6,0,L|287:257,1,100,4|8,3:2|0:0,0:0:0:0:
344,317,249188,2,0,P|367:248|336:182,1,150,0|4,3:0|3:2,0:0:0:0:
290,164,249982,2,0,L|240:157,2,50,2|12|12,0:0|0:0|0:0,0:0:0:0:
360,92,250777,2,0,B|359:53|359:53|368:16,2,75,12|12|12,0:0|0:0|0:0,0:0:0:0:
408,108,251572,6,0,L|508:124,1,100,4|8,3:2|0:0,0:0:0:0:
508,224,252366,2,0,P|428:244|360:200,1,150,0|2,3:0|0:0,0:0:0:0:
332,184,253161,2,0,L|233:199,1,100,2|8,3:2|0:0,0:0:0:0:
138,232,253956,2,0,L|106:276,2,50,0|2|12,3:0|3:2|0:0,0:0:0:0:
164,136,254751,6,0,P|174:87|162:39,1,100,4|8,3:2|0:0,0:0:0:0:
62,15,255545,2,0,P|42:87|62:159,1,150,0|2,3:0|0:0,0:0:0:0:
91,198,256340,1,4,3:2:0:0:
256,192,256539,12,0,259519,0:0:0:0:
