osu file format v14

[General]
AudioFilename: audio.mp3
AudioLeadIn: 2000
PreviewTime: 50618
Countdown: 0
SampleSet: None
StackLeniency: 0.7
Mode: 0
LetterboxInBreaks: 0
WidescreenStoryboard: 0

[Editor]
DistanceSpacing: 0.8
BeatDivisor: 4
GridSize: 4
TimelineZoom: 2.799999

[Metadata]
Title:Yakimochi no Kotae
TitleUnicode:ヤキモチの答え
Artist:sana
ArtistUnicode:鎖那
Creator:litoluna
Version:Insane
Source:
Tags:honeyworks solution for jealousy
BeatmapID:1139996
BeatmapSetID:538084

[Difficulty]
HPDrainRate:6
CircleSize:4
OverallDifficulty:7
ApproachRate:9
SliderMultiplier:1.6
SliderTickRate:2

[Events]
//Background and Video events
0,0,"yakimochinokotae.jpg",0,0
//Break Periods
2,8589,17894
2,76641,86104
2,172799,177052
2,180378,182104
//Storyboard Layer 0 (Background)
//Storyboard Layer 1 (Fail)
//Storyboard Layer 2 (Pass)
//Storyboard Layer 3 (Foreground)
//Storyboard Sound Samples

[TimingPoints]
-453,315.789473684211,4,2,3,60,1,0
18494,-100,4,2,1,60,0,0
28599,-100,4,2,3,60,0,0
38704,-125,4,2,1,50,0,0
43757,-111.111111111111,4,2,1,60,0,0
48810,-111.111111111111,4,2,3,60,0,0
53547,-125,4,2,3,60,0,0
53862,-100,4,2,3,70,0,1
62704,-100,4,2,1,70,0,0
63968,-100,4,2,3,70,0,1
72810,-100,4,2,1,70,0,1
76441,-100,4,2,3,70,0,0
86704,-100,4,2,1,60,0,0
94283,-125,4,2,1,60,0,0
96810,-100,4,2,3,60,0,0
106915,-125,4,2,1,50,0,0
111968,-111.111111111111,4,2,1,60,0,0
117020,-111.111111111111,4,2,3,60,0,0
121757,-125,4,2,3,60,0,0
122073,-100,4,2,3,70,0,1
130915,-100,4,2,1,70,0,0
132178,-100,4,2,3,70,0,1
141021,-100,4,2,1,70,0,1
144652,-100,4,2,3,70,0,0
145441,-100,4,2,3,60,0,0
146073,-100,4,2,3,50,0,0
146704,-100,4,2,3,40,0,0
147336,-100,4,2,3,30,0,0
147968,-100,4,2,3,20,0,0
148599,-100,4,2,3,10,0,0
149231,-100,4,2,3,5,0,0
152389,-100,4,2,3,30,0,0
153020,-100,4,2,3,40,0,0
153652,-100,4,2,3,50,0,0
154283,-100,4,2,1,60,0,0
185231,-100,4,2,3,60,0,0
187441,-125,4,2,3,60,0,0
187757,-100,4,2,3,70,0,1
196599,-100,4,2,1,70,0,0
197862,-100,4,2,3,70,0,1
206705,-100,4,2,1,70,0,1
210336,-100,4,2,1,70,0,0
211125,-100,4,2,3,60,0,0
211757,-100,4,2,3,50,0,0
212389,-100,4,2,3,40,0,0
213020,-100,4,2,3,30,0,0
213652,-100,4,2,3,20,0,0
214283,-100,4,2,3,10,0,0
214915,-100,4,2,3,5,0,0
215547,-100,4,2,3,5,0,0

[Colours]
Combo1 : 200,0,0
Combo2 : 0,128,192
Combo3 : 255,128,64
Combo4 : 200,0,200
Combo5 : 192,192,192

[HitObjects]
136,244,652,5,8,0:0:0:0:
136,244,731,1,8,0:0:0:0:
136,244,810,2,0,P|213:252|276:205,1,160,6|2,0:0|0:0,0:0:0:0:
249,104,1283,2,0,P|208:92|168:92,1,80,0|2,0:0|0:0,0:0:0:0:
328,137,1599,2,0,L|433:110,1,80,0|2,0:0|0:0,0:0:0:0:
484,258,1915,1,8,0:0:0:0:
484,258,1994,1,8,0:0:0:0:
484,258,2073,6,0,P|420:300|342:281,1,160,2|2,0:0|0:0,0:0:0:0:
245,245,2547,2,0,L|255:336,1,80,8|2,0:3|0:0,0:0:0:0:
328,137,2862,2,0,P|292:110|239:99,1,80,8|2,0:3|0:0,0:0:0:0:
95,142,3178,1,4,0:3:0:0:
95,142,3257,1,0,0:0:0:0:
95,142,3336,6,0,L|110:39,1,80,6|8,0:0|0:0,0:0:0:0:
258,100,3652,1,2,0:0:0:0:
152,214,3810,1,8,0:3:0:0:
209,43,3968,2,0,P|248:25|296:33,1,80,2|8,0:0|0:3,0:0:0:0:
421,112,4283,1,2,0:0:0:0:
378,17,4441,1,8,0:0:0:0:
315,189,4599,6,0,P|387:160|478:162,1,160,6|2,0:0|0:0,0:0:0:0:
512,315,5073,2,0,L|431:295,1,80,2|2,0:0|0:0,0:0:0:0:
274,276,5389,1,8,0:0:0:0:
254,290,5468,1,8,0:0:0:0:
231,297,5547,1,2,0:0:0:0:
207,301,5625,1,8,0:0:0:0:
183,298,5704,1,8,0:0:0:0:
160,289,5783,1,8,0:0:0:0:
145,270,5862,6,0,P|150:189|158:110,1,160,6|2,0:0|0:0,0:0:0:0:
315,189,6336,2,0,P|271:190|230:169,1,80,8|2,0:0|0:0,0:0:0:0:
326,50,6652,2,0,L|416:42,2,80,8|2|8,0:0|0:0|0:0,0:0:0:0:
157,110,7125,5,8,0:0:0:0:
315,189,7283,2,0,L|373:184,2,40,8|8|8,0:0|0:0|0:0,0:0:0:0:
145,270,7599,2,0,L|99:266,2,40,8|8|4,0:0|0:0|1:3,0:0:0:0:
256,116,7915,1,4,1:3:0:0:
256,332,8389,5,4,0:0:0:0:
126,122,18494,6,0,P|164:113|211:115,1,80,4|0,0:0|0:0,0:0:0:0:
277,190,18810,2,0,L|265:278,1,80,2|0,0:0|0:0,0:0:0:0:
106,217,19125,2,0,P|147:202|189:204,2,80,2|0|2,0:0|0:0|0:0,0:0:0:0:
165,304,19599,1,0,0:0:0:0:
266,269,19757,6,0,L|351:262,1,80,2|0,0:0|0:0,0:0:0:0:
471,291,20073,1,2,0:0:0:0:
389,144,20231,1,2,0:0:0:0:
380,327,20389,1,0,0:0:0:0:
465,173,20547,2,0,P|470:132|453:90,1,80,2|2,0:0|0:0,0:0:0:0:
357,57,20862,1,0,0:0:0:0:
310,159,21020,6,0,L|394:143,1,80,2|0,0:0|0:0,0:0:0:0:
331,250,21336,2,0,L|247:233,1,80,2|0,0:0|0:0,0:0:0:0:
133,126,21652,1,2,0:0:0:0:
88,229,21810,1,2,0:0:0:0:
229,153,21968,2,0,P|240:111|235:66,1,80
68,162,22283,2,0,B|99:219|67:282|67:282|84:271|101:271,1,160,2|0,0:0|0:0,0:0:0:0:
331,250,22915,5,2,0:0:0:0:
358,342,23073,1,0,0:0:0:0:
266,312,23231,2,0,P|246:275|245:233,1,80,2|0,0:0|0:0,0:0:0:0:
408,280,23547,6,0,L|493:273,1,80,2|0,0:0|0:0,0:0:0:0:
291,173,23862,2,0,L|206:166,1,80,2|0,0:0|0:0,0:0:0:0:
266,312,24178,1,2,0:0:0:0:
374,179,24336,2,0,P|385:137|381:90,1,80,2|0,0:0|0:0,0:0:0:0:
307,29,24652,1,0,0:0:0:0:
211,166,24810,2,0,P|138:202|59:193,2,160,2|0|2,0:0|0:0|0:0,0:0:0:0:
307,29,25757,6,0,L|296:193,1,160,2|0,0:0|0:0,0:0:0:0:
227,333,26389,1,2,0:0:0:0:
140,201,26704,1,0,0:0:0:0:
370,314,27020,2,0,P|430:251|427:182,1,160,2|8,0:0|0:0,0:0:0:0:
319,214,27494,5,10,0:0:0:0:
319,214,27573,1,0,0:0:0:0:
319,214,27652,1,8,0:0:0:0:
172,117,27810,1,10,0:0:0:0:
172,117,27889,1,2,0:0:0:0:
172,117,27968,2,0,P|147:110|125:111,3,40,10|0|8|0,0:0|0:0|0:0|0:0,0:0:0:0:
58,170,28283,2,0,P|31:174|12:171,3,40,10|0|8|0,0:0|0:0|0:0|0:0,0:0:0:0:
51,85,28599,6,0,P|111:36|191:40,1,160,6|8,0:0|0:0,0:0:0:0:
283,140,29073,1,0,0:0:0:0:
217,220,29231,2,0,P|174:218|133:202,1,80,2|2,0:0|0:0,0:0:0:0:
283,140,29547,6,0,L|443:120,1,160,8|2,0:0|0:0,0:0:0:0:
495,219,30020,1,0,0:0:0:0:
391,330,30178,2,0,P|381:293|390:254,1,80,8|0,0:0|0:0,0:0:0:0:
495,219,30494,1,2,0:0:0:0:
512,346,30652,1,2,0:0:0:0:
390,253,30810,2,0,P|347:241|311:241,1,80,8|0,0:0|0:0,0:0:0:0:
164,351,31125,6,0,P|205:341|236:312,1,80,2|0,0:0|0:0,0:0:0:0:
286,164,31441,2,0,L|278:84,1,80,8|0,0:0|0:0,0:0:0:0:
387,15,31757,2,0,L|379:95,1,80,2|2,0:0|0:0,0:0:0:0:
243,240,32073,2,0,P|214:212|201:169,1,80,8|0,0:0|0:0,0:0:0:0:
445,180,32389,2,0,L|282:164,1,160,2|8,0:0|0:0,0:0:0:0:
67,180,33020,6,0,L|164:170,1,80,2|0,0:0|0:0,0:0:0:0:
175,169,33257,1,8,0:0:0:0:
175,169,33336,1,12,0:0:0:0:
111,87,33494,1,8,0:0:0:0:
133,262,33652,5,6,0:0:0:0:
249,208,33810,2,0,P|259:163|252:127,1,80,0|8,0:0|0:0,0:0:0:0:
181,55,34125,1,0,0:0:0:0:
67,180,34283,2,0,L|155:170,2,80,2|2|8,0:0|0:0|0:0,0:0:0:0:
3,97,34757,1,0,0:0:0:0:
133,262,34915,6,0,L|303:241,2,160,2|8|2,0:0|0:0|0:0,0:0:0:0:
67,180,35704,1,0,0:0:0:0:
181,55,35862,2,0,P|218:43|268:48,1,80,8|8,0:0|0:3,0:0:0:0:
322,108,36099,1,0,0:0:0:0:
337,127,36178,6,0,L|329:216,1,80,2|0,0:0|0:0,0:0:0:0:
180,285,36494,2,0,P|213:265|253:257,1,80,8|0,0:0|0:0,0:0:0:0:
442,326,36810,2,0,L|335:302,1,80,2|2,0:0|0:0,0:0:0:0:
425,188,37125,2,0,L|532:164,1,80,8|2,0:0|0:0,0:0:0:0:
256,181,37441,6,0,P|184:150|107:167,1,160,2|8,0:0|0:0,0:0:0:0:
111,312,37915,2,0,L|104:351,2,40,0|8|2,0:0|0:0|0:0,0:0:0:0:
246,260,38231,1,8,0:0:0:0:
246,260,38310,1,8,0:0:0:0:
246,260,38389,2,0,P|289:252|327:220,1,80,8|8,0:0|0:3,0:0:0:0:
256,181,38704,6,0,P|244:145|247:113,1,64,4|0,0:0|0:0,0:0:0:0:
322,136,39020,1,2,0:0:0:0:
246,259,39178,2,0,L|170:254,1,64,0|2,0:0|0:0,0:0:0:0:
77,193,39494,2,0,L|153:188,1,64,0|2,0:0|0:0,0:0:0:0:
256,181,39810,1,0,0:0:0:0:
332,74,39968,6,0,P|329:118|303:160,1,64,2|0,0:0|0:0,0:0:0:0:
251,91,40283,2,0,L|250:23,1,64,2|0,0:0|0:0,0:0:0:0:
405,37,40599,1,2,0:0:0:0:
332,74,40757,1,2,0:0:0:0:
423,145,40915,2,0,L|499:137,1,64,2|0,0:0|0:0,0:0:0:0:
512,284,41231,5,2,0:0:0:0:
512,284,41389,1,0,0:0:0:0:
387,219,41547,2,0,P|354:211|309:215,1,64,2|0,0:0|0:0,0:0:0:0:
421,323,41862,5,2,0:0:0:0:
421,323,42020,1,0,0:0:0:0:
387,219,42178,2,0,P|354:211|287:226,1,96,2|0,0:0|0:0,0:0:0:0:
268,242,42494,6,0,P|231:241|191:230,1,64,2|0,0:0|0:0,0:0:0:0:
63,173,42810,2,0,P|97:172|129:166,1,64,2|0,0:0|0:0,0:0:0:0:
278,152,43125,2,0,P|244:151|212:145,1,64,2|0,0:0|0:0,0:0:0:0:
52,83,43441,2,0,P|86:82|118:76,1,64,2|0,0:0|0:0,0:0:0:0:
278,152,43757,5,2,0:0:0:0:
251,62,43915,1,0,0:0:0:0:
126,166,44073,2,0,P|129:204|152:244,1,71.9999978027344,2|0,0:0|0:0,0:0:0:0:
348,145,44389,2,0,P|312:143|278:152,1,71.9999978027344,2|0,0:0|0:0,0:0:0:0:
354,275,44704,2,0,P|393:272|429:254,1,71.9999978027344,2|0,0:0|0:0,0:0:0:0:
448,115,45020,5,2,0:0:0:0:
508,230,45178,1,2,0:0:0:0:
348,145,45336,2,0,L|351:57,1,71.9999978027344,2|0,0:0|0:0,0:0:0:0:
256,238,45652,2,0,L|256:312,1,71.9999978027344,2|0,0:0|0:0,0:0:0:0:
164,145,45968,2,0,L|161:57,1,71.9999978027344,2|0,0:0|0:0,0:0:0:0:
4,230,46283,6,0,P|55:237|108:213,1,107.999996704102,10|0,0:0|0:0,0:0:0:0:
131,189,46599,1,10,0:0:0:0:
41,142,46757,1,8,0:0:0:0:
93,300,46915,1,10,0:0:0:0:
229,204,47073,1,8,0:0:0:0:
258,301,47231,2,0,L|358:287,1,71.9999978027344,10|8,0:0|0:0,0:0:0:0:
413,209,47547,5,10,0:0:0:0:
317,145,47704,1,8,0:0:0:0:
317,145,47783,1,8,0:0:0:0:
317,145,47862,1,8,0:0:0:0:
403,285,48020,1,8,0:0:0:0:
403,285,48099,1,8,0:0:0:0:
403,285,48178,1,8,0:0:0:0:
486,143,48336,5,10,0:0:0:0:
488,114,48415,1,10,0:0:0:0:
477,87,48494,1,0,0:0:0:0:
464,61,48573,1,10,0:0:0:0:
443,41,48652,1,10,0:0:0:0:
417,27,48731,1,10,0:0:0:0:
388,22,48810,6,0,L|292:10,1,71.9999978027344,8|2,0:0|0:0,0:0:0:0:
287,12,49047,1,2,0:0:0:0:
287,12,49125,1,0,0:0:0:0:
160,111,49283,5,8,0:0:0:0:
160,111,49362,1,8,0:0:0:0:
160,111,49441,2,0,L|110:113,2,35.9999989013672,2|2|0,0:0|0:0|0:0,0:0:0:0:
317,145,49757,5,4,0:3:0:0:
317,145,49836,1,4,0:3:0:0:
317,145,49915,2,0,L|367:147,2,35.9999989013672,2|2|8,0:0|0:0|0:0,0:0:0:0:
189,238,50231,5,8,0:0:0:0:
189,238,50310,1,8,0:0:0:0:
189,238,50389,1,8,0:0:0:0:
238,129,50547,1,8,0:0:0:0:
364,278,50704,2,0,P|385:248|391:210,1,71.9999978027344,2|2,0:0|0:0,0:0:0:0:
377,176,50941,1,2,0:0:0:0:
352,146,51020,2,0,L|436:140,1,71.9999978027344,4|0,0:0|0:0,0:0:0:0:
433,337,51336,5,8,0:0:0:0:
407,350,51415,1,0,0:0:0:0:
380,361,51494,1,8,0:0:0:0:
351,361,51573,1,0,0:0:0:0:
323,353,51652,1,8,0:0:0:0:
289,213,51810,2,8,L|295:166,2,35.9999989013672
146,333,52125,1,8,0:0:0:0:
117,326,52204,1,8,0:0:0:0:
96,306,52283,1,8,0:0:0:0:
85,279,52362,1,8,0:0:0:0:
81,250,52441,1,8,0:0:0:0:
85,221,52520,1,8,0:0:0:0:
102,198,52599,6,0,P|111:163|110:122,1,71.9999978027344,10|10,0:0|0:0,0:0:0:0:
236,303,53231,5,8,0:0:0:0:
236,303,53389,1,8,0:0:0:0:
289,213,53547,2,0,P|335:192|381:201,1,96
455,250,53862,6,0,L|463:168,1,80,6|0,0:0|0:0,0:0:0:0:
343,265,54178,2,0,L|350:344,1,80,8|0,0:0|0:0,0:0:0:0:
412,111,54494,2,0,P|446:97|495:103,2,80,2|0|8,0:0|0:0|0:0,0:0:0:0:
343,265,54968,1,0,0:0:0:0:
254,198,55125,6,0,L|172:193,1,80,2|0,0:0|0:0,0:0:0:0:
56,277,55441,1,8,0:0:0:0:
130,350,55599,1,0,0:0:0:0:
114,146,55757,2,0,P|148:123|190:120,1,80,2|0,0:0|0:0,0:0:0:0:
374,237,56073,2,0,P|314:251|263:229,1,120,8|0,0:0|0:0,0:0:0:0:
254,198,56389,6,0,L|265:115,1,80,2|0,0:0|0:0,0:0:0:0:
417,167,56704,1,8,0:0:0:0:
375,71,56862,1,0,0:0:0:0:
374,237,57020,2,0,P|415:247|456:240,2,80,2|0|8,0:0|0:0|0:0,0:0:0:0:
264,118,57494,1,0,0:0:0:0:
161,207,57652,6,0,L|168:288,1,80,2|0,0:0|0:0,0:0:0:0:
264,118,57968,2,0,L|257:199,1,80,8|0,0:0|0:0,0:0:0:0:
52,161,58283,2,0,P|113:113|187:132,1,160,2|8,0:0|0:0,0:0:0:0:
236,269,58757,1,0,0:0:0:0:
334,162,58915,6,0,L|355:-3,2,160,6|8|2,0:0|0:0|0:0,0:0:0:0:
381,255,59704,1,0,0:0:0:0:
493,130,59862,2,0,P|453:128|414:139,1,80,8|0,0:0|0:0,0:0:0:0:
326,304,60178,6,0,P|400:327|454:267,1,160,2|8,0:0|0:0,0:0:0:0:
334,162,60652,1,0,0:0:0:0:
250,224,60810,2,0,P|231:182|233:141,1,80,2|0,0:0|0:0,0:0:0:0:
298,18,61125,2,0,P|306:59|292:98,1,80,8|0,0:0|0:0,0:0:0:0:
86,137,61441,5,2,0:0:0:0:
86,137,61599,1,0,0:0:0:0:
250,224,61757,2,0,L|333:216,1,80,8|0,0:0|0:0,0:0:0:0:
86,137,62073,5,2,0:0:0:0:
86,137,62231,1,0,0:0:0:0:
266,242,62389,2,0,L|349:234,1,80,8|0,0:0|0:0,0:0:0:0:
438,113,62704,5,8,0:0:0:0:
494,219,62862,1,8,0:0:0:0:
494,219,62941,1,8,0:0:0:0:
494,219,63020,1,8,0:0:0:0:
394,322,63178,1,10,0:0:0:0:
394,322,63257,1,2,0:0:0:0:
394,322,63336,2,0,P|358:319|334:323,3,40,10|0|8|0,0:0|0:0|0:0|0:0,0:0:0:0:
267,353,63652,1,10,0:0:0:0:
237,364,63731,1,2,0:0:0:0:
204,363,63810,1,10,0:0:0:0:
173,353,63889,1,2,0:0:0:0:
151,329,63968,6,0,P|169:268|155:212,1,120,6|0,0:0|0:0,0:0:0:0:
140,186,64283,2,0,P|131:146|140:95,1,80,8|0,0:0|0:0,0:0:0:0:
86,269,64599,1,2,0:0:0:0:
209,143,64757,1,2,0:0:0:0:
266,230,64915,2,0,P|307:232|349:219,1,80,8|0,0:0|0:0,0:0:0:0:
426,64,65231,5,2,0:0:0:0:
496,220,65389,1,0,0:0:0:0:
325,119,65547,2,0,L|318:35,1,80,8|0,0:0|0:0,0:0:0:0:
266,230,65862,2,0,L|273:314,1,80,2|2,0:0|0:0,0:0:0:0:
465,272,66178,2,0,P|407:250|349:261,1,120,8|0,0:0|0:0,0:0:0:0:
272,309,66494,6,0,L|189:301,1,80,2|0,0:0|0:0,0:0:0:0:
130,198,66810,1,8,0:0:0:0:
9,302,66968,2,0,P|49:304|90:290,1,80,0|2,0:0|0:0,0:0:0:0:
130,198,67283,1,2,0:0:0:0:
29,83,67441,2,0,L|42:177,1,80,8|0,0:0|0:0,0:0:0:0:
168,66,67757,6,0,P|206:53|251:58,1,80,2|0,0:0|0:0,0:0:0:0:
391,157,68073,2,0,L|377:78,1,80,8|0,0:0|0:0,0:0:0:0:
290,135,68389,1,2,0:0:0:0:
369,34,68547,1,2,0:0:0:0:
470,111,68704,2,0,L|455:272,1,160,8|6,0:0|0:0,0:0:0:0:
309,339,69178,5,0,0:0:0:0:
284,237,69336,1,8,0:0:0:0:
383,268,69494,1,0,0:0:0:0:
211,302,69652,2,0,P|192:263|192:219,1,80,2|2,0:0|0:0,0:0:0:0:
297,57,69968,2,0,P|301:96|290:135,1,80,8|0,0:0|0:0,0:0:0:0:
81,191,70283,5,2,0:0:0:0:
121,86,70441,1,0,0:0:0:0:
190,226,70599,2,0,L|271:218,1,80,8|0,0:0|0:0,0:0:0:0:
445,136,70915,2,0,L|362:128,1,80,2|2,0:0|0:0,0:0:0:0:
121,86,71231,2,0,L|204:78,1,80,8|0,0:0|0:0,0:0:0:0:
385,57,71547,5,6,0:0:0:0:
327,206,71704,1,0,0:0:0:0:
231,78,71862,1,8,0:0:0:0:
385,57,72020,1,0,0:0:0:0:
327,206,72178,2,0,P|280:212|225:199,1,80,2|2,0:0|0:0,0:0:0:0:
385,57,72494,2,0,L|468:49,1,80,8|0,0:0|0:0,0:0:0:0:
512,162,72810,5,10,0:0:0:0:
328,116,72968,2,0,L|303:61,2,40,8|0|8,0:0|0:0|0:0,0:0:0:0:
397,297,73283,1,10,0:0:0:0:
397,297,73362,1,2,0:0:0:0:
397,297,73441,2,0,P|371:292|344:292,3,40,10|2|10|2,0:0|0:0|0:0|0:0,0:0:0:0:
288,333,73757,2,0,P|262:338|237:337,3,40,10|0|8|0,0:0|0:0|0:0|0:0,0:0:0:0:
182,289,74073,6,0,L|196:203,1,80,2|4,0:0|0:3,0:0:0:0:
216,107,74389,1,4,0:3:0:0:
394,215,74547,6,0,L|380:129,1,80,2|4,0:0|0:3,0:0:0:0:
360,33,74862,1,4,0:3:0:0:
216,107,75020,2,0,P|267:108|305:93,1,80,2|8,0:0|0:0,0:0:0:0:
132,27,75336,5,8,0:0:0:0:
132,27,75494,1,8,0:0:0:0:
84,212,75652,1,8,0:0:0:0:
84,212,75810,1,8,0:0:0:0:
294,98,75968,6,0,L|307:192,1,80,10|8,0:0|0:0,0:0:0:0:
326,320,76283,1,8,0:0:0:0:
144,140,76441,1,4,0:0:0:0:
316,33,86704,6,0,L|308:123,1,80,2|0,0:0|0:0,0:0:0:0:
152,174,87020,2,0,P|189:162|230:160,1,80,2|0,0:0|0:0,0:0:0:0:
318,284,87336,1,2,0:0:0:0:
228,351,87494,1,2,0:0:0:0:
209,241,87652,1,0,0:0:0:0:
355,290,87810,6,0,L|448:270,1,80,2|0,0:0|0:0,0:0:0:0:
378,140,88125,1,2,0:0:0:0:
209,241,88283,2,0,L|116:221,1,80,0|2,0:0|0:0,0:0:0:0:
192,67,88599,2,0,P|264:38|339:69,1,160,2|0,0:0|0:0,0:0:0:0:
403,214,89073,1,2,0:0:0:0:
300,258,89231,6,0,L|308:165,1,80,2|0,0:0|0:0,0:0:0:0:
336,67,89547,1,2,0:0:0:0:
403,214,89704,1,0,0:0:0:0:
229,192,89862,2,0,P|268:178|316:180,1,80,2|0,0:0|0:0,0:0:0:0:
395,293,90178,2,0,L|404:202,1,80,2|0,0:0|0:0,0:0:0:0:
272,320,90494,6,0,P|195:330|131:285,1,160,2|0,0:0|0:0,0:0:0:0:
150,125,90968,1,0,0:0:0:0:
307,182,91125,2,0,P|269:192|213:188,1,80,2|0,0:0|0:0,0:0:0:0:
136,5,91441,2,0,L|150:125,1,120,2|0,0:0|0:0,0:0:0:0:
174,102,91757,6,0,P|210:83|256:82,1,80,2|0,0:0|0:0,0:0:0:0:
395,180,92073,1,2,0:0:0:0:
438,86,92231,1,0,0:0:0:0:
512,255,92389,2,0,L|425:243,1,80,2|0,0:0|0:0,0:0:0:0:
363,105,92704,1,2,0:0:0:0:
277,260,92862,2,0,P|318:261|362:242,1,80,2|2,0:0|0:0,0:0:0:0:
438,86,93336,1,2,0:0:0:0:
277,260,93968,5,2,0:0:0:0:
182,116,94283,1,4,0:0:0:0:
120,278,94599,1,2,0:0:0:0:
282,174,94915,2,0,P|308:117|284:56,1,128,2|0,0:0|0:0,0:0:0:0:
112,16,95547,5,2,0:0:0:0:
89,298,96178,2,0,L|85:340,3,32,2|2|2|2,0:0|0:0|0:0|0:0,0:0:0:0:
160,311,96494,2,0,L|164:280,3,32,2|0|2|0,0:0|0:0|0:0|0:0,0:0:0:0:
236,252,96810,6,0,P|309:221|387:235,1,160,6|8,0:0|0:0,0:0:0:0:
453,328,97283,1,0,0:0:0:0:
512,197,97441,2,0,P|516:143|504:107,1,80,2|2,0:0|0:0,0:0:0:0:
317,95,97757,2,0,L|410:76,1,80,8|0,0:0|0:0,0:0:0:0:
257,190,98073,6,0,L|164:171,1,80,2|0,0:0|0:0,0:0:0:0:
74,68,98389,1,8,0:0:0:0:
145,165,98547,1,0,0:0:0:0:
22,289,98704,2,0,P|15:250|24:198,1,80,2|2,0:0|0:0,0:0:0:0:
187,271,99020,2,0,P|191:310|184:349,1,80,8|0,0:0|0:0,0:0:0:0:
91,248,99336,5,2,0:0:0:0:
145,165,99494,1,0,0:0:0:0:
264,276,99652,2,0,L|368:260,1,80,8|0,0:0|0:0,0:0:0:0:
507,224,99968,1,2,0:0:0:0:
467,327,100125,1,2,0:0:0:0:
421,157,100283,2,0,P|418:112|424:78,1,80,8|0,0:0|0:0,0:0:0:0:
507,224,100599,6,0,L|348:194,1,160,2|8,0:0|0:0,0:0:0:0:
256,108,101073,1,0,0:0:0:0:
113,224,101231,2,0,L|211:206,1,80,2|0,0:0|0:0,0:0:0:0:
224,204,101468,1,0,0:0:0:0:
224,204,101547,1,12,0:0:0:0:
150,121,101704,1,8,0:3:0:0:
204,288,101862,6,0,P|248:285|283:267,1,80,6|0,0:0|0:0,0:0:0:0:
367,117,102178,1,8,0:0:0:0:
415,227,102336,1,0,0:0:0:0:
258,167,102494,1,2,0:0:0:0:
432,155,102652,2,0,L|540:148,1,80,2|8,0:0|0:0,0:0:0:0:
474,27,102968,1,0,0:0:0:0:
288,96,103125,6,0,P|210:105|138:72,2,160,2|8|2,0:0|0:0|0:0,0:0:0:0:
373,11,103915,1,0,0:0:0:0:
432,155,104073,1,8,0:0:0:0:
306,254,104231,1,8,0:3:0:0:
306,254,104310,1,8,0:3:0:0:
306,254,104389,6,0,P|268:242|225:242,1,80,2|0,0:0|0:0,0:0:0:0:
103,354,104704,2,0,P|137:328|162:279,1,80,8|0,0:0|0:0,0:0:0:0:
101,128,105020,2,0,L|21:121,1,80,2|2,0:0|0:0,0:0:0:0:
157,218,105336,1,8,0:0:0:0:
123,47,105494,1,2,0:0:0:0:
216,170,105652,6,0,P|295:175|359:128,1,160,2|8,0:0|0:0,0:0:0:0:
329,5,106125,1,0,0:0:0:0:
268,88,106283,1,2,0:0:0:0:
439,47,106441,1,0,0:0:0:0:
439,47,106520,1,8,0:0:0:0:
439,47,106599,2,0,P|471:110|463:171,1,120,8|0,0:0|0:0,0:0:0:0:
449,184,106915,6,0,L|371:176,1,64,6|0,0:0|0:0,0:0:0:0:
268,88,107231,1,2,0:0:0:0:
216,170,107389,2,0,L|223:237,1,64,0|2,0:0|0:0,0:0:0:0:
291,318,107704,1,0,0:0:0:0:
324,193,107862,2,0,P|353:180|395:177,2,64,2|0|2,0:0|0:0|0:0,0:0:0:0:
291,318,108336,5,0,0:0:0:0:
384,276,108494,1,2,0:0:0:0:
324,193,108652,1,0,0:0:0:0:
231,257,108810,2,0,L|168:263,1,64,2|0,0:0|0:0,0:0:0:0:
324,193,109125,1,2,0:0:0:0:
384,276,109283,1,2,0:0:0:0:
244,182,109441,6,0,P|244:140|256:97,1,64,2|0,0:0|0:0,0:0:0:0:
328,53,109757,1,2,0:0:0:0:
404,155,109915,2,0,P|435:166|487:160,2,64,2|0|2,0:0|0:0|0:0,0:0:0:0:
449,84,110389,1,2,0:0:0:0:
512,238,110547,1,0,0:0:0:0:
404,231,110704,6,0,P|339:219|270:220,1,128,2|2,0:0|0:0,0:0:0:0:
134,293,111178,1,0,0:0:0:0:
213,348,111336,2,0,L|223:262,1,64,2|0,0:0|0:0,0:0:0:0:
131,191,111652,2,0,L|121:105,1,64,2|0,0:0|0:0,0:0:0:0:
31,185,111968,5,2,0:0:0:0:
113,50,112125,1,0,0:0:0:0:
209,138,112283,2,0,P|243:140|280:133,1,71.9999978027344,2|0,0:0|0:0,0:0:0:0:
367,8,112599,2,0,L|357:81,1,71.9999978027344,2|0,0:0|0:0,0:0:0:0:
242,60,112915,1,2,0:0:0:0:
363,162,113073,1,2,0:0:0:0:
299,249,113231,6,0,P|228:259|172:214,1,143.999995605469,2|2,0:0|0:0,0:0:0:0:
209,138,113704,1,0,0:0:0:0:
299,249,113862,2,0,L|378:242,1,71.9999978027344,2|0,0:0|0:0,0:0:0:0:
209,138,114178,2,0,L|130:131,1,71.9999978027344,2|0,0:0|0:0,0:0:0:0:
39,244,114494,6,0,L|157:223,1,107.999996704102,10|0,0:0|0:0,0:0:0:0:
173,217,114810,1,10,0:0:0:0:
139,312,114968,1,0,0:0:0:0:
243,263,115125,2,0,P|255:226|254:188,1,71.9999978027344,10|8,0:0|0:0,0:0:0:0:
169,86,115441,2,0,L|250:77,1,71.9999978027344,10|8,0:0|0:0,0:0:0:0:
357,57,115757,5,10,0:0:0:0:
440,166,115915,1,8,0:0:0:0:
440,166,115994,1,0,0:0:0:0:
440,166,116073,1,8,0:0:0:0:
318,229,116231,1,8,0:0:0:0:
318,229,116310,1,0,0:0:0:0:
318,229,116389,1,4,0:3:0:0:
436,299,116547,1,10,0:0:0:0:
436,299,116625,1,0,0:0:0:0:
436,299,116704,1,10,0:0:0:0:
440,166,116862,5,10,0:0:0:0:
440,166,116941,1,0,0:0:0:0:
440,166,117020,2,0,P|433:120|437:93,2,71.9999978027344,8|2|8,0:3|0:0|0:3,0:0:0:0:
436,299,117494,1,8,0:3:0:0:
436,299,117573,1,8,0:3:0:0:
436,299,117652,2,0,P|447:339|446:374,1,71.9999978027344,2|4,0:0|0:3,0:0:0:0:
318,229,117968,6,0,P|251:204|175:214,1,143.999995605469,8|8,0:0|0:0,0:0:0:0:
35,148,118441,2,0,P|105:155|172:130,1,143.999995605469,2|8,0:0|0:0,0:0:0:0:
298,0,118915,6,0,P|254:9|212:61,1,107.999996704102,2|0,0:0|0:0,0:0:0:0:
255,125,119231,2,0,P|293:130|346:113,1,71.9999978027344,2|0,0:0|0:0,0:0:0:0:
431,34,119547,1,8,0:0:0:0:
379,184,119704,1,0,0:0:0:0:
379,184,119783,1,8,0:0:0:0:
379,184,119862,1,8,0:0:0:0:
358,63,120020,1,8,0:0:0:0:
480,139,120178,5,8,0:0:0:0:
488,165,120257,1,8,0:0:0:0:
489,193,120336,1,8,0:0:0:0:
481,220,120415,1,8,0:0:0:0:
467,244,120494,1,8,0:0:0:0:
451,268,120573,1,8,0:0:0:0:
429,286,120652,1,8,0:0:0:0:
402,297,120731,1,8,0:0:0:0:
360,290,120810,6,0,L|299:249,1,71.9999978027344,10|10,0:0|0:0,0:0:0:0:
105,94,121441,5,8,0:0:0:0:
105,94,121599,1,8,0:0:0:0:
107,177,121757,2,0,P|156:164|185:119,1,96
173,49,122073,6,0,L|183:144,1,80,6|0,0:0|0:0,0:0:0:0:
291,0,122389,2,0,L|281:95,1,80,8|0,0:0|0:0,0:0:0:0:
247,242,122704,2,0,P|204:250|157:234,2,80,2|0|8,0:0|0:0|0:0,0:0:0:0:
318,164,123178,1,0,0:0:0:0:
173,49,123336,6,0,L|183:144,1,80,2|0,0:0|0:0,0:0:0:0:
247,242,123652,1,8,0:0:0:0:
318,164,123810,1,0,0:0:0:0:
417,280,123968,2,0,P|373:283|331:268,1,80,2|0,0:0|0:0,0:0:0:0:
241,166,124283,2,0,P|179:146|127:161,1,120,8|0,0:0|0:0,0:0:0:0:
108,186,124599,6,0,L|115:271,1,80,2|0,0:0|0:0,0:0:0:0:
240,321,124915,2,0,L|246:241,1,80,8|0,0:0|0:0,0:0:0:0:
280,67,125231,2,0,P|321:57|362:64,2,80,2|0|8,0:0|0:0|0:0,0:0:0:0:
241,166,125704,1,0,0:0:0:0:
416,278,125862,6,0,P|434:235|435:195,1,80,2|0,0:0|0:0,0:0:0:0:
322,133,126178,1,8,0:0:0:0:
430,61,126336,1,0,0:0:0:0:
366,210,126494,2,0,P|293:224|240:164,1,160,2|8,0:0|0:0,0:0:0:0:
280,67,126968,1,0,0:0:0:0:
156,132,127125,6,0,P|76:148|6:115,2,160,2|8|2,0:0|0:0|0:0,0:0:0:0:
193,34,127915,1,0,0:0:0:0:
325,133,128073,2,0,P|366:139|409:132,1,80,8|0,0:0|0:0,0:0:0:0:
512,218,128389,6,0,P|430:220|377:278,1,160,2|8,0:0|0:0,0:0:0:0:
386,378,128862,1,0,0:0:0:0:
264,336,129020,2,0,P|245:294|247:253,1,80,2|0,0:0|0:0,0:0:0:0:
328,56,129336,2,0,P|336:97|322:136,1,80,8|0,0:0|0:0,0:0:0:0:
141,190,129652,5,2,0:0:0:0:
43,155,129810,1,0,0:0:0:0:
123,86,129968,2,0,P|158:76|206:78,1,80,8|0,0:0|0:0,0:0:0:0:
60,254,130283,5,2,0:0:0:0:
141,190,130441,1,2,0:0:0:0:
239,299,130599,2,0,P|200:300|161:292,1,80,8|0,0:0|0:0,0:0:0:0:
43,155,130915,5,8,0:0:0:0:
201,77,131073,1,8,0:0:0:0:
201,77,131152,1,8,0:0:0:0:
201,77,131231,1,8,0:0:0:0:
296,225,131389,1,8,0:0:0:0:
296,225,131468,1,8,0:0:0:0:
296,225,131547,2,0,P|305:205|309:184,3,40,8|0|10|0,0:0|0:0|0:0|0:0,0:0:0:0:
292,100,131862,1,10,0:0:0:0:
312,75,131941,1,2,0:0:0:0:
341,59,132020,1,10,0:0:0:0:
373,53,132099,1,2,0:0:0:0:
404,62,132178,6,0,P|393:122|407:179,1,120,6|0,0:0|0:0,0:0:0:0:
431,206,132494,2,0,P|440:246|431:297,1,80,8|0,0:0|0:0,0:0:0:0:
289,369,132810,1,2,0:0:0:0:
271,266,132968,1,2,0:0:0:0:
404,359,133125,2,0,P|445:361|487:348,1,80,8|0,0:0|0:0,0:0:0:0:
431,206,133441,5,2,0:0:0:0:
366,288,133599,1,0,0:0:0:0:
255,173,133757,2,0,P|247:132|248:89,1,80,8|0,0:0|0:0,0:0:0:0:
189,234,134073,2,0,L|79:227,1,80,2|2,0:0|0:0,0:0:0:0:
69,117,134389,2,0,P|128:102|183:125,1,120,8|0,0:0|0:0,0:0:0:0:
255,173,134704,6,0,L|338:165,1,80,2|0,0:0|0:0,0:0:0:0:
440,108,135020,1,8,0:0:0:0:
383,232,135178,2,0,P|345:244|305:242,1,80,0|2,0:0|0:0,0:0:0:0:
323,91,135494,1,2,0:0:0:0:
461,200,135652,2,0,L|448:294,1,80,8|0,0:0|0:0,0:0:0:0:
228,251,135968,6,0,P|266:238|311:243,1,80,2|0,0:0|0:0,0:0:0:0:
373,384,136283,2,0,L|359:305,1,80,8|0,0:0|0:0,0:0:0:0:
328,172,136599,1,2,0:0:0:0:
276,316,136757,1,2,0:0:0:0:
162,281,136915,2,0,P|111:223|122:142,1,160,8|6,0:0|0:0,0:0:0:0:
264,56,137389,5,0,0:0:0:0:
245,158,137547,1,8,0:0:0:0:
173,6,137704,1,0,0:0:0:0:
323,126,137862,2,0,P|365:123|420:109,1,80,2|2,0:0|0:0,0:0:0:0:
501,18,138178,2,0,P|505:57|494:96,1,80,8|0,0:0|0:0,0:0:0:0:
390,219,138494,5,2,0:0:0:0:
401,114,138652,1,0,0:0:0:0:
465,238,138810,2,0,P|428:237|386:215,1,80,8|0,0:0|0:0,0:0:0:0:
264,56,139125,2,0,L|272:137,1,80,2|2,0:0|0:0,0:0:0:0:
193,246,139441,2,0,P|153:244|117:226,1,80,8|0,0:0|0:0,0:0:0:0:
56,60,139757,6,0,L|148:48,2,80,2|0|8,0:0|0:0|0:0,0:0:0:0:
33,163,140231,1,0,0:0:0:0:
117,226,140389,2,0,P|136:190|141:142,1,80,2|2,0:0|0:0,0:0:0:0:
87,303,140704,2,0,P|129:306|169:289,1,80,8|0,0:0|0:0,0:0:0:0:
251,157,141020,5,10,0:0:0:0:
169,70,141178,2,0,L|110:86,2,40,8|0|8,0:0|0:0|0:0,0:0:0:0:
323,113,141494,1,10,0:0:0:0:
323,113,141573,1,2,0:0:0:0:
323,113,141652,2,0,P|349:108|376:108,3,40,10|2|10|2,0:0|0:0|0:0|0:0,0:0:0:0:
363,180,141968,2,0,P|389:175|414:176,3,40,10|0|10|0,0:0|0:0|0:0|0:0,0:0:0:0:
398,247,142283,6,0,P|444:237|476:193,1,80,2|4,0:0|0:3,0:0:0:0:
444,110,142599,1,4,0:3:0:0:
325,245,142757,6,0,L|241:219,1,80,2|4,0:0|0:3,0:0:0:0:
180,142,143073,1,4,0:3:0:0:
80,236,143231,2,0,P|131:237|169:222,1,80,2|0,0:0|0:0,0:0:0:0:
256,60,143547,5,8,0:0:0:0:
256,60,143704,1,8,0:0:0:0:
256,296,143862,1,8,0:0:0:0:
256,296,144020,1,8,0:0:0:0:
180,142,144178,6,0,L|296:128,1,80,2|0,0:0|0:0,0:0:0:0:
371,114,144494,1,8,0:0:0:0:
141,270,144652,1,4,0:0:0:0:
256,192,144731,12,0,149862,0:0:0:0:
256,192,152389,12,0,154283,0:0:0:0:
84,97,154915,6,0,P|160:102|240:71,1,160,6|8,0:0|0:0,0:0:0:0:
361,148,155389,2,0,P|285:143|205:174,1,160,2|2,0:0|0:0,0:0:0:0:
331,298,155862,1,6,0:0:0:0:
362,304,155941,1,2,0:0:0:0:
393,301,156020,1,2,0:0:0:0:
421,286,156099,1,2,0:0:0:0:
444,263,156178,6,0,L|455:178,1,80,2|2,0:0|0:0,0:0:0:0:
383,66,156494,1,8,0:0:0:0:
283,159,156652,2,0,P|317:160|371:142,1,80,2|0,0:0|0:0,0:0:0:0:
254,62,156968,2,0,L|81:50,1,160,2|2,0:0|0:0,0:0:0:0:
62,49,157362,1,2,0:0:0:0:
30,50,157441,6,0,P|57:83|73:122,1,80,2|0,0:0|0:0,0:0:0:0:
41,235,157757,1,8,0:0:0:0:
174,161,157915,1,2,0:0:0:0:
174,161,157994,1,2,0:0:0:0:
174,161,158073,2,0,P|198:161|218:165,3,40,2|0|2|0,0:0|0:0|0:0|0:0,0:0:0:0:
277,227,158389,1,6,0:0:0:0:
290,256,158468,1,2,0:0:0:0:
290,288,158547,1,2,0:0:0:0:
282,318,158625,1,2,0:0:0:0:
261,342,158704,6,0,L|139:331,2,120,2|2|2,0:0|0:0|0:0,0:0:0:0:
362,216,159336,2,0,L|484:205,2,120,2|2|2,0:0|0:0|0:0,0:0:0:0:
192,261,159968,6,0,P|152:237|130:207,1,80,4|0,0:0|0:0,0:0:0:0:
226,166,160283,1,12,0:0:0:0:
87,276,160441,2,0,P|45:205|51:130,1,160,2|0,0:0|0:0,0:0:0:0:
149,35,160915,1,2,0:0:0:0:
213,116,161073,6,0,L|296:106,1,80,8|0,0:0|0:0,0:0:0:0:
422,128,161389,1,2,0:0:0:0:
333,15,161547,1,8,0:0:0:0:
245,187,161704,6,0,L|328:177,1,80,8|0,0:0|0:0,0:0:0:0:
453,54,162020,1,2,0:0:0:0:
396,212,162178,1,8,0:0:0:0:
333,15,162336,1,2,0:0:0:0:
471,196,162494,6,0,P|443:272|362:278,1,160,4|10,0:0|0:0,0:0:0:0:
343,267,162889,1,2,0:0:0:0:
324,241,162968,1,10,0:0:0:0:
318,209,163047,1,2,0:0:0:0:
325,178,163125,2,0,P|329:156|321:124,3,40,10|0|10|0,0:0|0:0|0:0|0:0,0:0:0:0:
248,118,163441,2,0,P|245:137|249:157,3,40,10|0|10|0,0:0|0:0|0:0|0:0,0:0:0:0:
251,239,163757,6,0,P|215:231|183:204,1,80,10|8,0:0|0:0,0:0:0:0:
154,61,164073,1,10,0:0:0:0:
100,157,164231,1,10,0:0:0:0:
248,118,164389,1,10,0:0:0:0:
154,61,164547,2,0,L|50:52,1,80,10|8,0:0|0:0,0:0:0:0:
58,228,164862,1,10,0:0:0:0:
248,118,165020,6,0,P|330:94|401:109,1,160,4|8,0:0|0:0,0:0:0:0:
463,249,165494,1,2,0:0:0:0:
463,249,165573,1,2,0:0:0:0:
463,249,165652,2,0,L|365:232,1,80,2|0,0:0|0:0,0:0:0:0:
247,346,165968,1,10,0:0:0:0:
247,346,166047,1,2,0:0:0:0:
247,346,166125,2,0,P|284:276|262:197,1,160,6|0,0:0|0:0,0:0:0:0:
115,122,166599,5,10,0:0:0:0:
139,240,166757,1,0,0:0:0:0:
218,150,166915,2,0,P|223:106|201:52,1,80,2|0,0:0|0:0,0:0:0:0:
44,147,167231,1,10,0:0:0:0:
50,178,167310,1,2,0:0:0:0:
58,208,167389,1,2,0:0:0:0:
64,239,167468,1,2,0:0:0:0:
72,269,167547,6,0,L|-2:223,2,80,2|2|10,0:0|0:0|0:0,0:0:0:0:
218,227,168020,2,0,P|256:212|319:203,1,80,2|0,0:0|0:0,0:0:0:0:
446,260,168336,1,0,0:0:0:0:
339,316,168494,1,10,0:0:0:0:
294,204,168652,6,0,P|275:126|301:49,1,160,4|0,0:0|0:0,0:0:0:0:
432,156,169125,2,0,L|274:127,1,160,2|2,0:0|0:0,0:0:0:0:
73,80,169678,5,2,0:0:0:0:
121,281,169915,5,2,0:0:0:0:
210,200,170073,6,0,P|168:187|124:186,1,80,4|0,0:0|0:0,0:0:0:0:
46,245,170389,1,8,0:0:0:0:
202,327,170547,2,0,L|291:309,1,80,2|0,0:0|0:0,0:0:0:0:
374,212,170862,1,2,0:0:0:0:
313,304,171020,1,8,0:0:0:0:
441,350,171178,1,0,0:0:0:0:
338,152,171336,5,2,0:0:0:0:
239,246,171494,2,0,L|180:243,2,40,10|0|10,0:0|0:0|0:0,0:0:0:0:
432,270,171810,1,10,0:0:0:0:
453,246,171889,1,10,0:0:0:0:
459,214,171968,2,0,P|447:178|444:137,1,80,10|10,0:0|0:0,0:0:0:0:
451,105,172204,1,0,0:0:0:0:
421,93,172283,1,10,0:0:0:0:
390,82,172362,1,0,0:0:0:0:
359,71,172441,1,8,0:0:0:0:
328,61,172520,1,0,0:0:0:0:
297,52,172599,1,4,0:0:0:0:
152,72,177652,6,0,P|231:84|300:43,2,160,2|2|2,0:0|0:0|0:0,0:0:0:0:
89,154,178441,1,2,0:0:0:0:
157,272,178599,2,0,L|179:192,1,80,2|0,0:0|0:0,0:0:0:0:
89,332,178915,6,0,P|167:356|249:298,1,160,2|0,0:0|0:0,0:0:0:0:
297,45,179547,1,2,0:0:0:0:
178,194,179862,1,2,0:0:0:0:
369,228,180178,1,0,0:0:0:0:
369,228,182704,6,0,L|288:84,1,160,4|2,0:0|0:0,0:0:0:0:
88,200,183178,2,0,P|164:208|231:165,1,160,8|4,0:0|0:3,0:0:0:0:
428,300,183652,6,0,P|351:308|284:265,1,160,4|8,0:3|0:0,0:0:0:0:
132,104,184125,2,0,L|296:80,1,160,4|0,0:3|0:0,0:0:0:0:
369,228,184599,6,0,P|324:189|267:177,1,120,8|0,0:0|0:0,0:0:0:0:
232,191,184915,2,0,P|190:192|152:180,1,80,8|8,0:0|0:0,0:0:0:0:
59,71,185231,1,8,0:0:0:0:
91,245,185389,5,2,0:0:0:0:
91,245,185468,1,2,0:0:0:0:
91,245,185547,1,4,0:3:0:0:
204,112,185704,1,2,0:0:0:0:
204,112,185783,1,2,0:0:0:0:
204,112,185862,1,8,0:3:0:0:
245,283,186020,1,2,0:0:0:0:
245,283,186099,1,2,0:0:0:0:
245,283,186178,1,4,0:3:0:0:
358,150,186336,1,4,0:3:0:0:
358,150,186415,1,4,0:3:0:0:
358,150,186494,5,10,1:2:0:0:
425,314,186652,1,10,1:2:0:0:
358,150,187125,5,8,1:2:0:0:
193,343,187283,1,8,1:2:0:0:
188,215,187441,2,0,P|236:198|298:212,1,96
332,276,187757,6,0,L|342:371,1,80,6|0,0:0|0:0,0:0:0:0:
442,114,188073,2,0,L|432:209,1,80,8|0,0:0|0:0,0:0:0:0:
298,83,188389,2,0,P|255:75|209:82,1,80,2|0,0:0|0:0,0:0:0:0:
104,191,188704,1,8,0:0:0:0:
50,101,188862,1,0,0:0:0:0:
190,161,189020,6,0,P|191:203|175:254,1,80,2|0,0:0|0:0,0:0:0:0:
48,303,189336,1,8,0:0:0:0:
104,191,189494,1,0,0:0:0:0:
145,338,189652,2,0,P|189:341|231:326,1,80,2|0,0:0|0:0,0:0:0:0:
410,189,189968,2,0,P|348:169|296:184,1,120,8|0,0:0|0:0,0:0:0:0:
273,205,190283,6,0,L|280:290,1,80,2|0,0:0|0:0,0:0:0:0:
392,363,190599,2,0,L|398:283,1,80,8|0,0:0|0:0,0:0:0:0:
222,330,190915,2,0,P|184:341|145:338,2,80,2|0|8,0:0|0:0|0:0,0:0:0:0:
273,205,191389,1,0,0:0:0:0:
180,267,191547,6,0,P|162:224|161:184,1,80,2|0,0:0|0:0,0:0:0:0:
196,68,191862,1,8,0:0:0:0:
79,210,192020,1,0,0:0:0:0:
220,146,192178,2,0,P|296:122|376:128,1,160,2|8,0:0|0:0,0:0:0:0:
450,202,192652,1,0,0:0:0:0:
313,300,192810,6,0,L|148:281,2,160,2|8|2,0:0|0:0|0:0,0:0:0:0:
369,201,193599,1,0,0:0:0:0:
274,101,193757,2,0,L|287:190,1,80,8|0,0:0|0:0,0:0:0:0:
407,295,194073,6,0,P|462:239|462:161,1,160,2|8,0:0|0:0,0:0:0:0:
382,91,194547,1,0,0:0:0:0:
267,192,194704,2,0,L|179:181,1,80,2|0,0:0|0:0,0:0:0:0:
39,104,195020,2,0,L|127:93,1,80,8|0,0:0|0:0,0:0:0:0:
217,266,195336,6,0,P|153:265|102:192,1,160,2|8,0:0|0:0,0:0:0:0:
191,109,195810,1,0,0:0:0:0:
325,256,195968,2,0,P|345:227|350:176,1,80,2|0,0:0|0:0,0:0:0:0:
241,44,196283,2,0,L|154:36,1,80,8|0,0:0|0:0,0:0:0:0:
39,104,196599,5,8,0:0:0:0:
81,225,196757,1,8,0:0:0:0:
81,225,196836,1,8,0:0:0:0:
81,225,196915,1,8,0:0:0:0:
264,115,197073,1,8,0:0:0:0:
264,115,197152,1,8,0:0:0:0:
264,115,197231,2,0,P|284:106|305:102,3,40,10|0|10|0,0:0|0:0|0:0|0:0,0:0:0:0:
389,122,197547,1,10,0:0:0:0:
414,142,197625,1,2,0:0:0:0:
430,171,197704,1,10,0:0:0:0:
436,203,197783,1,2,0:0:0:0:
427,234,197862,6,0,P|367:223|310:237,1,120,6|0,0:0|0:0,0:0:0:0:
246,284,198178,2,0,P|206:293|155:284,1,80,8|0,0:0|0:0,0:0:0:0:
50,178,198494,1,2,0:0:0:0:
79,293,198652,1,0,0:0:0:0:
203,205,198810,2,0,P|205:164|192:122,1,80,8|0,0:0|0:0,0:0:0:0:
106,57,199125,5,2,0:0:0:0:
271,21,199283,1,0,0:0:0:0:
129,170,199441,2,0,P|88:178|45:177,1,80,8|0,0:0|0:0,0:0:0:0:
264,115,199757,2,0,P|305:107|348:108,1,80,2|2,0:0|0:0,0:0:0:0:
426,325,200073,2,0,P|358:322|312:283,1,120,8|0,0:0|0:0,0:0:0:0:
314,261,200389,6,0,P|324:221|313:165,1,80,2|0,0:0|0:0,0:0:0:0:
241,301,200704,1,8,0:0:0:0:
393,255,200862,2,0,P|403:215|392:159,1,80,0|2,0:0|0:0,0:0:0:0:
299,61,201178,1,2,0:0:0:0:
192,145,201336,2,0,P|234:143|274:128,1,80,8|0,0:0|0:0,0:0:0:0:
213,42,201652,6,0,P|175:29|130:34,1,80,2|0,0:0|0:0,0:0:0:0:
75,164,201968,2,0,P|86:202|87:244,1,80,8|0,0:0|0:0,0:0:0:0:
4,370,202283,1,2,0:0:0:0:
83,268,202441,1,2,0:0:0:0:
211,350,202599,2,0,P|288:359|346:307,1,160,8|6,0:0|0:0,0:0:0:0:
375,142,203073,5,0,0:0:0:0:
270,215,203231,1,8,0:0:0:0:
427,259,203389,1,0,0:0:0:0:
375,142,203547,2,0,P|365:99|373:43,1,80,2|2,0:0|0:0,0:0:0:0:
502,230,203862,2,0,P|506:269|495:308,1,80,8|0,0:0|0:0,0:0:0:0:
270,215,204178,5,2,0:0:0:0:
290,111,204336,1,0,0:0:0:0:
292,290,204494,2,0,P|252:290|213:267,1,80,8|0,0:0|0:0,0:0:0:0:
151,105,204810,2,0,L|159:186,1,80,2|2,0:0|0:0,0:0:0:0:
297,31,205125,2,0,L|289:112,1,80,8|0,0:0|0:0,0:0:0:0:
139,267,205441,5,2,0:0:0:0:
82,162,205599,1,0,0:0:0:0:
270,215,205757,2,0,L|373:206,1,80,8|0,0:0|0:0,0:0:0:0:
393,353,206073,2,0,P|374:317|369:269,1,80,2|2,0:0|0:0,0:0:0:0:
457,143,206389,2,0,P|451:182|432:217,1,80,8|0,0:0|0:0,0:0:0:0:
254,142,206704,5,10,0:0:0:0:
139,267,206862,2,0,L|80:283,2,40,8|0|8,0:0|0:0|0:0,0:0:0:0:
226,72,207178,1,2,0:0:0:0:
226,72,207257,1,2,0:0:0:0:
226,72,207336,2,0,P|252:67|279:67,3,40,10|2|8|2,0:0|0:0|0:0|0:0,0:0:0:0:
345,107,207652,1,10,0:0:0:0:
353,137,207731,1,0,0:0:0:0:
349,168,207810,1,8,0:0:0:0:
336,197,207889,1,0,0:0:0:0:
317,223,207968,6,0,L|219:214,1,80,2|4,0:0|0:3,0:0:0:0:
113,143,208283,1,4,0:3:0:0:
305,285,208441,6,0,L|215:243,1,80,2|4,0:0|0:3,0:0:0:0:
113,143,208757,1,4,0:3:0:0:
52,264,208915,2,0,P|103:265|141:250,1,80,4|0,0:0|0:0,0:0:0:0:
256,120,209231,5,8,0:0:0:0:
176,41,209389,1,10,0:0:0:0:
256,160,209547,1,10,0:0:0:0:
336,41,209704,1,10,0:0:0:0:
256,200,209862,6,0,L|256:288,1,80,2|8,0:0|0:0,0:0:0:0:
256,384,210178,1,8,0:0:0:0:
256,120,210336,1,4,0:0:0:0:
256,192,210415,12,0,215547,0:0:0:0:
