osu file format v14

[General]
AudioFilename: audio.mp3
AudioLeadIn: 0
PreviewTime: 81773
Countdown: 0
SampleSet: Soft
StackLeniency: 0.7
Mode: 3
LetterboxInBreaks: 0
SpecialStyle: 0
WidescreenStoryboard: 1

[Editor]
Bookmarks: 543,15312,22696,37466,52235,67004,74389,81773,111312,126081,140850,153773,163004,192543,207312,220927
DistanceSpacing: 1
BeatDivisor: 4
GridSize: 16
TimelineZoom: 2.599999

[Metadata]
Title:Sunset March
TitleUnicode:サンセットマーチ
Artist:sana
ArtistUnicode:鎖那
Creator:DenYi
Version:Toko's Normal
Source:
Tags:- Inui Toko - Drum-hitnormal dudehacker japanese electronic j-pop jpop pop utaite cover さな female vocal けーだっしゅ 初音ミク hatsune miku kedashu n.k nantomo komatta
BeatmapID:3788112
BeatmapSetID:1794544

[Difficulty]
HPDrainRate:7
CircleSize:4
OverallDifficulty:7
ApproachRate:5
SliderMultiplier:1.4
SliderTickRate:1

[Events]
//Background and Video events
0,0,"toko nm.jpg",0,0
//Break Periods
//Storyboard Layer 0 (Background)
//Storyboard Layer 1 (Fail)
//Storyboard Layer 2 (Pass)
//Storyboard Layer 3 (Foreground)
//Storyboard Layer 4 (Overlay)
//Storyboard Sound Samples
Sample,2389,0,"LR_Long Bass.wav",40
Sample,4235,0,"LR_Long Bass.wav",40
Sample,6081,0,"LR_Long Bass.wav",40
Sample,7927,0,"Tom3.wav",30
Sample,9081,0,"Tom3.wav",30
Sample,9081,0,"kick2.wav",50
Sample,9773,0,"Tom3.wav",30
Sample,10927,0,"kick2.wav",50
Sample,10927,0,"Tom3.wav",30
Sample,11619,0,"Tom3.wav",30
Sample,12773,0,"Tom3.wav",30
Sample,12773,0,"kick2.wav",50
Sample,13466,0,"Tom3.wav",30
Sample,14619,0,"kick2.wav",50
Sample,14619,0,"Tom3.wav",30
Sample,15773,0,"LR4_ClapLRV.wav",25
Sample,16235,0,"LR4_ClapLRV.wav",25
Sample,16696,0,"LR4_ClapLRV.wav",25
Sample,17158,0,"LR4_ClapLRV.wav",30
Sample,17619,0,"LR4_ClapLRV.wav",30
Sample,18081,0,"LR4_ClapLRV.wav",35
Sample,18543,0,"LR4_ClapLRV.wav",35
Sample,19004,0,"LR4_ClapLRV.wav",40
Sample,19235,0,"LR4_ClapLRV.wav",40
Sample,19466,0,"LR4_ClapLRV.wav",40
Sample,19696,0,"LR4_ClapLRV.wav",40
Sample,19927,0,"LR4_ClapLRV.wav",40
Sample,20158,0,"LR4_ClapLRV.wav",40
Sample,20389,0,"LR4_ClapLRV.wav",40
Sample,20619,0,"LR4_ClapLRV.wav",40
Sample,20850,0,"LR4_ClapLRV.wav",45
Sample,21312,0,"LR4_ClapLRV.wav",45
Sample,21927,0,"Tom1.wav",35
Sample,65619,0,"clap2.wav",50
Sample,66081,0,"clap2.wav",50
Sample,66312,0,"clap2.wav",50
Sample,66773,0,"clap2.wav",50
Sample,70696,0,"LR_Long Bass.wav",40
Sample,72543,0,"LR_Long Bass.wav",40
Sample,78081,0,"clap2.wav",50
Sample,78312,0,"clap2.wav",50
Sample,78543,0,"clap2.wav",50
Sample,78773,0,"clap2.wav",50
Sample,79004,0,"clap2.wav",50
Sample,79235,0,"clap2.wav",50
Sample,79466,0,"clap2.wav",50
Sample,79696,0,"clap2.wav",50
Sample,139004,0,"kick2.wav",45
Sample,155619,0,"Tom3.wav",30
Sample,156081,0,"LR4_ClapLRV.wav",25
Sample,156081,0,"LR_Clap Reverb.wav",45
Sample,156543,0,"LR4_ClapLRV.wav",25
Sample,156773,0,"Tom3.wav",30
Sample,156773,0,"kick2.wav",50
Sample,157004,0,"LR_Clap Reverb.wav",45
Sample,157004,0,"LR4_ClapLRV.wav",25
Sample,157466,0,"LR4_ClapLRV.wav",30
Sample,157466,0,"kick2.wav",50
Sample,157466,0,"Tom3.wav",30
Sample,157927,0,"LR4_ClapLRV.wav",30
Sample,157927,0,"LR_Clap Reverb.wav",45
Sample,158389,0,"LR4_ClapLRV.wav",35
Sample,158619,0,"Tom3.wav",30
Sample,158619,0,"kick2.wav",50
Sample,158850,0,"LR_Clap Reverb.wav",45
Sample,158850,0,"LR4_ClapLRV.wav",35
Sample,159196,0,"Tom3.wav",30
Sample,159196,0,"kick2.wav",50
Sample,159312,0,"LR4_ClapLRV.wav",40
Sample,159312,0,"kick2.wav",50
Sample,159312,0,"Tom3.wav",30
Sample,159543,0,"LR4_ClapLRV.wav",40
Sample,159773,0,"LR_Clap Reverb.wav",45
Sample,159773,0,"LR4_ClapLRV.wav",40
Sample,160004,0,"LR_Clap Reverb.wav",45
Sample,160004,0,"LR4_ClapLRV.wav",40
Sample,160235,0,"LR4_ClapLRV.wav",40
Sample,160466,0,"Tom3.wav",30
Sample,160466,0,"kick2.wav",50
Sample,160466,0,"LR4_ClapLRV.wav",40
Sample,160696,0,"LR_Clap Reverb.wav",45
Sample,160696,0,"LR4_ClapLRV.wav",40
Sample,160927,0,"LR4_ClapLRV.wav",40
Sample,161158,0,"Tom3.wav",30
Sample,161158,0,"kick2.wav",50
Sample,161158,0,"LR4_ClapLRV.wav",45
Sample,161619,0,"LR_Clap Reverb.wav",45
Sample,203158,0,"LR_Clap Reverb.wav",25

[TimingPoints]
543,461.538461538462,4,2,1,50,1,0
81773,-100,4,2,1,50,0,1
96081,-100,4,2,1,50,0,0
96543,-100,4,2,1,50,0,1
111312,-100,4,2,1,50,0,0
163004,-100,4,2,1,50,0,1
177312,-100,4,2,1,50,0,0
177773,-100,4,2,1,50,0,1
192543,-100,4,2,1,50,0,0

[HitObjects]
320,192,543,5,2,0:0:0:0:
448,192,543,1,4,0:0:0:0:
192,192,1004,1,0,0:0:0:0:
320,192,1235,1,0,0:0:0:0:
64,192,1466,1,0,0:0:0:0:
64,192,1696,1,0,0:0:0:0:
448,192,1927,1,0,0:0:0:0:
320,192,2158,1,0,0:0:0:0:
64,192,2389,1,2,0:0:0:40:soft-hitwhistle.wav
448,192,2619,1,0,0:0:0:0:
192,192,2850,1,0,0:0:0:0:
192,192,3081,1,0,0:0:0:0:
320,192,3312,1,0,0:0:0:0:
192,192,3543,1,0,0:0:0:0:
448,192,3773,1,0,0:0:0:0:
320,192,4004,1,0,0:0:0:0:
64,192,4235,1,2,0:0:0:40:soft-hitwhistle.wav
192,192,4466,1,0,0:0:0:0:
320,192,4696,1,0,0:0:0:0:
320,192,4927,1,0,0:0:0:0:
64,192,5158,1,0,0:0:0:0:
320,192,5389,1,0,0:0:0:0:
192,192,5619,1,0,0:0:0:0:
64,192,5850,1,0,0:0:0:0:
320,192,6081,1,2,0:0:0:40:soft-hitwhistle.wav
192,192,6312,1,0,0:0:0:0:
448,192,6543,1,0,0:0:0:0:
448,192,6773,1,0,0:0:0:0:
64,192,7004,1,0,0:0:0:0:
192,192,7235,1,0,0:0:0:0:
448,192,7466,1,0,0:0:0:0:
320,192,7696,1,0,0:0:0:0:
64,192,7927,1,2,0:0:0:0:
448,192,7927,1,0,0:0:0:50:kick2.wav
192,192,8158,1,0,0:0:0:0:
320,192,8389,1,0,0:0:0:45:LR_Clap Reverb.wav
320,192,8619,1,0,0:0:0:45:LR_Clap Reverb.wav
192,192,8850,1,0,0:0:0:0:
448,192,9081,1,2,0:0:0:0:
320,192,9312,1,0,0:0:0:45:LR_Clap Reverb.wav
192,192,9543,1,0,0:0:0:0:
64,192,9773,1,2,0:0:0:0:
448,192,9773,1,0,0:0:0:50:kick2.wav
320,192,10004,1,0,0:0:0:0:
192,192,10235,1,0,0:0:0:45:LR_Clap Reverb.wav
192,192,10466,1,0,0:0:0:45:LR_Clap Reverb.wav
320,192,10696,1,0,0:0:0:0:
64,192,10927,1,2,0:0:0:0:
192,192,11158,1,0,0:0:0:45:LR_Clap Reverb.wav
320,192,11389,1,0,0:0:0:0:
64,192,11619,1,2,0:0:0:0:
192,192,11619,1,0,0:0:0:50:kick2.wav
320,192,11850,1,0,0:0:0:0:
448,192,12081,1,0,0:0:0:45:LR_Clap Reverb.wav
448,192,12312,1,0,0:0:0:45:LR_Clap Reverb.wav
192,192,12543,1,0,0:0:0:0:
320,192,12773,1,2,0:0:0:0:
448,192,13004,1,0,0:0:0:45:LR_Clap Reverb.wav
192,192,13235,1,0,0:0:0:0:
320,192,13466,1,2,0:0:0:0:
448,192,13466,1,0,0:0:0:50:kick2.wav
192,192,13696,1,0,0:0:0:0:
64,192,13927,1,0,0:0:0:45:LR_Clap Reverb.wav
64,192,14158,1,0,0:0:0:45:LR_Clap Reverb.wav
320,192,14389,1,0,0:0:0:0:
192,192,14619,1,2,0:0:0:0:
64,192,14850,1,0,0:0:0:45:LR_Clap Reverb.wav
320,192,15081,1,0,0:0:0:0:
64,192,15312,1,2,0:0:0:0:
448,192,15312,1,4,0:0:0:0:
192,192,15543,1,0,0:0:0:0:
320,192,15658,1,0,0:0:0:0:
448,192,15773,1,0,0:0:0:20:soft-hitwhistle.wav
320,192,16004,1,0,0:0:0:0:
192,192,16119,1,0,0:0:0:0:
64,192,16235,1,0,0:0:0:20:soft-hitwhistle.wav
448,192,16466,1,0,0:0:0:0:
320,192,16581,1,0,0:0:0:0:
192,192,16696,1,0,0:0:0:20:soft-hitwhistle.wav
64,192,16927,1,0,0:0:0:0:
192,192,17043,1,0,0:0:0:0:
320,192,17158,1,0,0:0:0:20:soft-hitwhistle.wav
448,192,17389,1,0,0:0:0:0:
64,192,17504,1,0,0:0:0:0:
192,192,17619,1,0,0:0:0:20:soft-hitwhistle.wav
320,192,17850,1,0,0:0:0:0:
192,192,17966,1,0,0:0:0:0:
448,192,18081,1,0,0:0:0:20:soft-hitwhistle.wav
64,192,18312,1,0,0:0:0:0:
448,192,18427,1,0,0:0:0:0:
320,192,18543,1,0,0:0:0:20:soft-hitwhistle.wav
192,192,18773,1,0,0:0:0:0:
320,192,18889,1,0,0:0:0:0:
64,192,19004,1,0,0:0:0:20:soft-hitwhistle.wav
64,192,19235,1,0,0:0:0:20:soft-hitwhistle.wav
448,192,19466,1,0,0:0:0:20:soft-hitwhistle.wav
448,192,19696,1,0,0:0:0:20:soft-hitwhistle.wav
192,192,19927,1,0,0:0:0:20:soft-hitwhistle.wav
192,192,20158,1,0,0:0:0:20:soft-hitwhistle.wav
320,192,20389,1,0,0:0:0:20:soft-hitwhistle.wav
320,192,20619,1,0,0:0:0:20:soft-hitwhistle.wav
64,192,20850,128,0,21312:0:0:0:15:soft-hitwhistle.wav
448,192,21312,128,0,21773:0:0:0:15:soft-hitwhistle.wav
64,192,21927,1,8,0:0:0:0:
320,192,22081,1,0,0:0:0:40:Tom2.wav
192,192,22235,1,0,0:0:0:50:Tom1.wav
448,192,22389,1,0,0:0:0:50:Tom2.wav
320,192,22543,1,0,0:0:0:40:Tom3.wav
64,192,22696,1,2,0:0:0:0:
192,192,22696,1,4,0:0:0:0:
320,192,22927,1,0,0:0:0:0:
64,192,23158,1,8,0:0:0:0:
448,192,23158,1,2,0:0:0:0:
320,192,23389,1,0,0:0:0:0:
448,192,23504,1,0,0:0:0:0:
64,192,23619,1,2,0:0:0:0:
192,192,23619,1,0,0:0:0:0:
448,192,23850,1,0,0:0:0:0:
192,192,24081,1,8,0:0:0:0:
320,192,24081,1,2,0:0:0:0:
64,192,24312,1,0,0:0:0:0:
192,192,24427,1,0,0:0:0:0:
320,192,24543,1,2,0:0:0:0:
448,192,24543,128,0,24773:0:0:0:0:
192,192,24773,128,0,25004:0:0:0:0:
64,192,25004,1,8,0:0:0:0:
448,192,25004,128,2,25235:0:0:0:0:
192,192,25235,128,0,25466:0:0:0:0:
64,192,25466,128,2,25696:0:0:0:0:
448,192,25466,1,0,0:0:0:0:
320,192,25696,128,0,25927:0:0:0:0:
64,192,25927,1,8,0:0:0:0:
448,192,25927,128,2,26158:0:0:0:0:
192,192,26158,128,0,26389:0:0:0:0:
64,192,26389,1,2,0:0:0:0:
320,192,26389,1,0,0:0:0:0:
448,192,26619,1,0,0:0:0:0:
64,192,26850,1,8,0:0:0:0:
320,192,26850,1,2,0:0:0:0:
448,192,27081,1,0,0:0:0:0:
320,192,27196,1,0,0:0:0:0:
64,192,27312,1,2,0:0:0:0:
192,192,27312,1,0,0:0:0:0:
448,192,27543,1,0,0:0:0:0:
64,192,27773,1,8,0:0:0:0:
192,192,27773,1,2,0:0:0:0:
320,192,28004,1,0,0:0:0:0:
448,192,28119,1,0,0:0:0:0:
64,192,28235,1,2,0:0:0:0:
192,192,28235,1,0,0:0:0:0:
320,192,28466,1,0,0:0:0:0:
192,192,28581,1,0,0:0:0:0:
64,192,28696,1,8,0:0:0:0:
448,192,28696,1,2,0:0:0:0:
320,192,28927,1,0,0:0:0:0:
192,192,29043,1,0,0:0:0:0:
64,192,29158,1,2,0:0:0:0:
448,192,29158,1,0,0:0:0:0:
192,192,29389,1,0,0:0:0:0:
320,192,29504,1,0,0:0:0:0:
64,192,29619,1,8,0:0:0:0:
448,192,29619,1,2,0:0:0:0:
192,192,29850,1,0,0:0:0:0:
320,192,29966,1,0,0:0:0:0:
64,192,30081,1,2,0:0:0:0:
448,192,30081,1,0,0:0:0:0:
192,192,30312,1,0,0:0:0:0:
320,192,30543,1,8,0:0:0:0:
448,192,30543,1,2,0:0:0:0:
192,192,30773,1,0,0:0:0:0:
320,192,30889,1,0,0:0:0:0:
64,192,31004,1,2,0:0:0:0:
448,192,31004,1,0,0:0:0:0:
320,192,31235,1,0,0:0:0:0:
192,192,31466,1,8,0:0:0:0:
448,192,31466,1,2,0:0:0:0:
64,192,31696,1,0,0:0:0:0:
192,192,31812,1,0,0:0:0:0:
320,192,31927,1,2,0:0:0:0:
448,192,31927,128,0,32158:0:0:0:0:
192,192,32158,128,0,32389:0:0:0:0:
64,192,32389,1,8,0:0:0:0:
448,192,32389,128,2,32619:0:0:0:0:
192,192,32619,128,0,32850:0:0:0:0:
64,192,32850,128,2,33081:0:0:0:0:
448,192,32850,1,0,0:0:0:25:LR_Clap Reverb.wav
320,192,33081,128,0,33312:0:0:0:0:
64,192,33312,1,10,0:0:0:0:
448,192,33312,128,0,33543:0:0:0:25:LR_Clap Reverb.wav
192,192,33543,128,0,33773:0:0:0:0:
64,192,33773,1,2,0:0:0:0:
320,192,33773,1,0,0:0:0:30:LR_Clap Reverb.wav
448,192,34004,1,0,0:0:0:30:LR_Clap Reverb.wav
64,192,34235,1,10,0:0:0:0:
192,192,34235,1,0,0:0:0:30:LR_Clap Reverb.wav
320,192,34466,1,0,0:0:0:30:LR_Clap Reverb.wav
192,192,34581,1,0,0:0:0:0:
64,192,34696,1,10,0:0:0:0:
448,192,34696,1,0,0:0:0:35:LR_Clap Reverb.wav
320,192,34927,1,0,0:0:0:35:LR_Clap Reverb.wav
64,192,35158,1,10,0:0:0:0:
192,192,35158,1,0,0:0:0:35:LR_Clap Reverb.wav
448,192,35389,1,0,0:0:0:35:LR_Clap Reverb.wav
320,192,35504,1,0,0:0:0:0:
64,192,35619,1,2,0:0:0:0:
192,192,35619,1,0,0:0:0:45:LR4_ClapLRV.wav
320,192,35850,1,0,0:0:0:45:LR4_ClapLRV.wav
192,192,35966,1,0,0:0:0:45:LR4_ClapLRV.wav
64,192,36081,1,10,0:0:0:0:
448,192,36081,1,0,0:0:0:45:LR4_ClapLRV.wav
320,192,36312,1,0,0:0:0:45:LR4_ClapLRV.wav
192,192,36427,1,0,0:0:0:45:LR4_ClapLRV.wav
64,192,36543,1,2,0:0:0:0:
448,192,36543,1,0,0:0:0:45:LR4_ClapLRV.wav
192,192,36773,1,0,0:0:0:45:LR4_ClapLRV.wav
320,192,36889,1,0,0:0:0:45:LR4_ClapLRV.wav
64,192,37004,1,10,0:0:0:0:
448,192,37004,1,0,0:0:0:45:LR4_ClapLRV.wav
192,192,37235,1,0,0:0:0:45:LR4_ClapLRV.wav
320,192,37350,1,0,0:0:0:45:LR4_ClapLRV.wav
64,192,37466,128,2,37927:0:0:0:0:
448,192,37466,1,4,0:0:0:0:
192,192,37927,128,0,38273:0:0:0:0:
448,192,38273,1,2,0:0:0:0:
320,192,38389,128,2,38619:0:0:0:0:
192,192,38619,128,0,38850:0:0:0:0:
448,192,38850,128,0,39081:0:0:0:0:
320,192,39081,128,0,39312:0:0:0:0:
64,192,39312,128,2,39658:0:0:0:0:
192,192,39658,1,0,0:0:0:0:
320,192,39773,128,0,40235:0:0:0:0:
192,192,40235,128,2,40466:0:0:0:0:
64,192,40466,128,0,40696:0:0:0:0:
320,192,40696,128,0,40927:0:0:0:0:
192,192,40927,128,0,41158:0:0:0:0:
64,192,41158,128,2,41504:0:0:0:0:
448,192,41158,1,0,0:0:0:0:
320,192,41504,1,0,0:0:0:0:
192,192,41619,128,0,42081:0:0:0:0:
320,192,42081,128,2,42427:0:0:0:0:
64,192,42427,1,0,0:0:0:0:
192,192,42543,128,0,42773:0:0:0:0:
320,192,42773,128,2,43004:0:0:0:0:
64,192,43004,128,2,43466:0:0:0:0:
320,192,43466,128,0,43812:0:0:0:0:
192,192,43812,1,2,0:0:0:0:
448,192,43927,128,2,44158:0:0:0:0:
320,192,44158,128,0,44389:0:0:0:0:
192,192,44389,128,0,44619:0:0:0:0:
64,192,44619,128,0,44850:0:0:0:0:
320,192,44850,128,2,45196:0:0:0:0:
448,192,44850,1,0,0:0:0:0:
192,192,45196,1,0,0:0:0:0:
64,192,45312,128,0,45658:0:0:0:0:
192,192,45658,1,2,0:0:0:0:
320,192,45773,128,2,46235:0:0:0:0:
192,192,46235,128,0,46466:0:0:0:0:
64,192,46466,128,0,46696:0:0:0:0:
320,192,46696,128,2,47158:0:0:0:0:
448,192,47158,128,0,47504:0:0:0:0:
320,192,47504,1,0,0:0:0:0:
192,192,47619,128,2,47850:0:0:0:0:
64,192,47850,128,0,48081:0:0:0:0:
448,192,48081,128,0,48312:0:0:0:0:
320,192,48312,128,0,48543:0:0:0:0:
64,192,48543,1,2,0:0:0:0:
192,192,48543,128,0,48773:0:0:0:0:
64,192,49004,128,0,49235:0:0:0:0:
320,192,49466,128,2,49696:0:0:0:0:
448,192,49927,128,0,50158:0:0:0:0:
192,192,50158,128,2,50389:0:0:0:0:
320,192,50619,1,0,0:0:0:0:
64,192,50850,1,0,0:0:0:0:
448,192,51081,1,0,0:0:0:0:
192,192,51312,1,0,0:0:0:0:
448,192,51543,1,0,0:0:0:0:
64,192,51773,1,0,0:0:0:0:
320,192,52004,1,0,0:0:0:0:
64,192,52235,128,2,52696:0:0:0:0:
448,192,52235,1,4,0:0:0:0:
320,192,52696,128,2,53043:0:0:0:0:
448,192,52696,1,0,0:0:0:50:clap2.wav
192,192,53043,1,0,0:0:0:0:
64,192,53158,128,2,53619:0:0:0:0:
448,192,53158,1,0,0:0:0:0:
320,192,53619,128,2,53966:0:0:0:0:
448,192,53619,1,0,0:0:0:50:clap2.wav
192,192,53966,1,0,0:0:0:0:
64,192,54081,128,2,54427:0:0:0:0:
448,192,54081,1,0,0:0:0:0:
192,192,54427,1,0,0:0:0:0:
320,192,54543,128,2,54889:0:0:0:0:
448,192,54543,1,0,0:0:0:50:clap2.wav
192,192,54889,1,0,0:0:0:0:
64,192,55004,1,2,0:0:0:0:
448,192,55004,128,0,55235:0:0:0:0:
320,192,55235,128,0,55466:0:0:0:0:
192,192,55466,128,2,55696:0:0:0:0:
448,192,55466,1,0,0:0:0:50:clap2.wav
64,192,55696,128,0,55927:0:0:0:0:
192,192,55927,1,2,0:0:0:0:
448,192,55927,128,0,56273:0:0:0:0:
320,192,56273,1,0,0:0:0:0:
64,192,56389,1,2,0:0:0:0:
192,192,56389,128,0,56619:0:0:0:50:clap2.wav
448,192,56619,128,0,56850:0:0:0:0:
64,192,56850,1,2,0:0:0:0:
192,192,56850,128,0,57196:0:0:0:0:
320,192,57196,1,0,0:0:0:0:
64,192,57312,1,2,0:0:0:0:
448,192,57312,128,0,57543:0:0:0:50:clap2.wav
192,192,57543,128,0,57773:0:0:0:0:
64,192,57773,1,2,0:0:0:0:
448,192,57773,128,0,58119:0:0:0:0:
320,192,58119,1,0,0:0:0:0:
64,192,58235,1,2,0:0:0:0:
192,192,58235,128,0,58581:0:0:0:50:clap2.wav
320,192,58581,1,0,0:0:0:0:
64,192,58696,1,2,0:0:0:0:
448,192,58696,128,0,58927:0:0:0:0:
320,192,58927,128,0,59158:0:0:0:0:
64,192,59158,1,2,0:0:0:0:
192,192,59158,128,0,59389:0:0:0:50:clap2.wav
448,192,59389,128,0,59619:0:0:0:45:clap2.wav
64,192,59619,128,2,59966:0:0:0:0:
320,192,59619,1,0,0:0:0:0:
192,192,59966,1,0,0:0:0:0:
320,192,60081,128,2,60312:0:0:0:0:
448,192,60081,1,0,0:0:0:50:clap2.wav
64,192,60312,128,0,60543:0:0:0:0:
320,192,60543,128,2,60889:0:0:0:0:
448,192,60543,1,0,0:0:0:0:
192,192,60889,1,0,0:0:0:0:
64,192,61004,128,2,61235:0:0:0:0:
448,192,61004,1,0,0:0:0:50:clap2.wav
320,192,61235,128,0,61466:0:0:0:0:
64,192,61466,128,2,61812:0:0:0:0:
448,192,61466,1,0,0:0:0:0:
192,192,61812,1,0,0:0:0:0:
320,192,61927,128,2,62273:0:0:0:0:
448,192,61927,1,0,0:0:0:50:clap2.wav
192,192,62273,1,0,0:0:0:0:
64,192,62389,128,2,62619:0:0:0:0:
448,192,62389,1,0,0:0:0:0:
320,192,62619,128,0,62850:0:0:0:0:
192,192,62850,128,2,63081:0:0:0:0:
448,192,62850,1,0,0:0:0:50:clap2.wav
448,192,63081,128,0,63312:0:0:0:0:
64,192,63312,1,2,0:0:0:0:
320,192,63312,128,0,63543:0:0:0:0:
192,192,63773,128,2,64004:0:0:0:0:
448,192,63773,1,0,0:0:0:50:clap2.wav
64,192,64235,128,2,64466:0:0:0:0:
320,192,64235,1,0,0:0:0:0:
192,192,64696,1,2,0:0:0:0:
448,192,64696,128,0,64927:0:0:0:50:clap2.wav
320,192,64927,128,0,65158:0:0:0:0:
64,192,65158,1,2,0:0:0:0:
192,192,65158,1,0,0:0:0:50:clap2.wav
320,192,65389,1,0,0:0:0:0:
64,192,65619,1,2,0:0:0:0:
320,192,65850,128,0,66081:0:0:0:0:
192,192,66081,128,2,66312:0:0:0:0:
64,192,66312,1,2,0:0:0:0:
448,192,66427,128,0,66773:0:0:0:0:
320,192,66773,128,2,67004:0:0:0:0:
64,192,67004,1,6,0:0:0:0:
192,192,67004,1,0,0:0:0:70:LR_Long Bass.wav
192,192,67696,128,0,67927:0:0:0:0:
320,192,67927,128,0,68158:0:0:0:0:
448,192,68158,1,0,0:0:0:0:
64,192,68273,128,0,68619:0:0:0:0:
192,192,68619,128,0,69312:0:0:0:0:
64,192,69543,128,0,69773:0:0:0:0:
192,192,69773,128,0,70119:0:0:0:0:
448,192,70119,128,0,70466:0:0:0:0:
320,192,70466,128,0,70696:0:0:0:0:
192,192,70696,128,2,71043:0:0:0:0:
448,192,71043,128,0,71389:0:0:0:0:
320,192,71389,128,0,71850:0:0:0:0:
64,192,71850,128,0,72081:0:0:0:0:
192,192,72081,128,0,72312:0:0:0:0:
320,192,72312,128,0,72543:0:0:0:0:
448,192,72543,128,2,72889:0:0:0:0:
192,192,72889,128,0,73235:0:0:0:0:
64,192,73235,128,0,73696:0:0:0:0:
320,192,73696,128,0,73927:0:0:0:0:
192,192,73927,128,0,74158:0:0:0:0:
448,192,74158,128,0,74389:0:0:0:0:
64,192,74389,128,2,74850:0:0:0:0:
320,192,74389,1,0,0:0:0:50:clap2.wav
192,192,74850,1,2,0:0:0:0:
448,192,74850,1,0,0:0:0:50:clap2.wav
320,192,75081,128,0,75312:0:0:0:0:
64,192,75312,128,2,75773:0:0:0:0:
192,192,75312,1,0,0:0:0:50:clap2.wav
320,192,75773,1,2,0:0:0:0:
448,192,75773,1,0,0:0:0:50:clap2.wav
192,192,76004,128,0,76235:0:0:0:0:
64,192,76235,128,2,76696:0:0:0:0:
448,192,76235,1,0,0:0:0:50:clap2.wav
192,192,76696,1,2,0:0:0:0:
320,192,76696,1,0,0:0:0:50:clap2.wav
64,192,76927,128,0,77158:0:0:0:0:
192,192,77158,1,2,0:0:0:0:
448,192,77158,128,0,77504:0:0:0:50:clap2.wav
320,192,77504,1,0,0:0:0:0:
64,192,77619,1,2,0:0:0:0:
192,192,77619,128,0,78081:0:0:0:50:clap2.wav
448,192,78081,128,2,78543:0:0:0:0:
320,192,78312,1,2,0:0:0:0:
64,192,78543,128,2,79004:0:0:0:0:
192,192,78773,1,2,0:0:0:0:
320,192,79004,128,2,79466:0:0:0:0:
448,192,79235,1,2,0:0:0:0:
192,192,79466,128,2,79696:0:0:0:0:
64,192,79696,128,2,79927:0:0:0:0:
64,192,81312,1,8,0:0:0:0:
448,192,81312,1,0,0:0:0:60:LR_Snare Wet High.wav
192,192,81773,128,2,82004:0:0:0:0:
320,192,81773,1,4,0:0:0:0:
64,192,82119,1,0,0:0:0:0:
320,192,82235,1,8,0:0:0:0:
448,192,82235,128,2,82466:0:0:0:0:
192,192,82466,128,0,82696:0:0:0:0:
64,192,82696,128,2,83158:0:0:0:0:
320,192,82696,1,0,0:0:0:0:
192,192,83158,1,8,0:0:0:0:
448,192,83158,128,2,83389:0:0:0:0:
320,192,83389,128,0,83619:0:0:0:0:
64,192,83619,1,2,0:0:0:0:
192,192,83619,128,0,83850:0:0:0:0:
448,192,83966,1,0,0:0:0:0:
64,192,84081,1,8,0:0:0:0:
192,192,84081,128,2,84312:0:0:0:0:
320,192,84312,128,0,84543:0:0:0:0:
64,192,84543,1,2,0:0:0:0:
448,192,84543,128,0,84773:0:0:0:0:
192,192,84773,128,0,85004:0:0:0:0:
320,192,85004,128,8,85235:0:0:0:0:
448,192,85004,1,2,0:0:0:0:
64,192,85235,128,0,85466:0:0:0:0:
192,192,85466,128,2,85927:0:0:0:0:
448,192,85466,1,0,0:0:0:0:
64,192,85927,128,2,86158:0:0:0:0:
448,192,85927,1,8,0:0:0:0:
320,192,86158,128,0,86389:0:0:0:0:
64,192,86389,1,2,0:0:0:0:
192,192,86389,128,0,86850:0:0:0:0:
64,192,86850,1,2,0:0:0:0:
448,192,86850,128,8,87081:0:0:0:0:
192,192,87081,128,0,87312:0:0:0:0:
320,192,87312,128,2,87543:0:0:0:0:
448,192,87312,1,0,0:0:0:0:
192,192,87658,1,0,0:0:0:0:
64,192,87773,1,8,0:0:0:0:
320,192,87773,128,2,88004:0:0:0:0:
64,192,88119,1,0,0:0:0:0:
192,192,88235,128,2,88466:0:0:0:0:
448,192,88235,1,0,0:0:0:0:
320,192,88466,128,0,88696:0:0:0:0:
64,192,88696,128,8,88927:0:0:0:0:
448,192,88696,1,2,0:0:0:0:
192,192,88927,1,8,0:0:0:0:
320,192,89043,1,8,0:0:0:0:
64,192,89158,1,2,0:0:0:0:
448,192,89158,128,0,89619:0:0:0:0:
64,192,89619,128,2,89850:0:0:0:0:
320,192,89619,1,8,0:0:0:0:
192,192,89850,128,0,90081:0:0:0:0:
320,192,90081,1,2,0:0:0:0:
448,192,90081,1,0,0:0:0:0:
64,192,90312,128,0,90543:0:0:0:0:
192,192,90543,1,2,0:0:0:0:
448,192,90543,1,8,0:0:0:0:
320,192,90773,128,0,91004:0:0:0:0:
64,192,91004,128,2,91466:0:0:0:0:
448,192,91004,1,0,0:0:0:0:
192,192,91466,128,8,91696:0:0:0:0:
448,192,91466,1,2,0:0:0:0:
320,192,91696,128,0,91927:0:0:0:0:
64,192,91927,1,2,0:0:0:0:
192,192,91927,1,0,0:0:0:0:
448,192,92158,128,0,92389:0:0:0:0:
64,192,92389,1,8,0:0:0:0:
320,192,92389,1,2,0:0:0:0:
192,192,92619,1,0,0:0:0:0:
320,192,92850,128,2,93081:0:0:0:0:
448,192,92850,1,0,0:0:0:0:
192,192,93081,128,0,93312:0:0:0:0:
64,192,93312,1,2,0:0:0:0:
320,192,93312,128,8,93543:0:0:0:0:
192,192,93543,128,0,93773:0:0:0:0:
320,192,93773,128,2,94004:0:0:0:0:
448,192,93773,1,0,0:0:0:0:
64,192,94004,128,0,94235:0:0:0:0:
320,192,94235,1,2,0:0:0:0:
448,192,94235,128,8,94466:0:0:0:0:
192,192,94466,128,0,94696:0:0:0:0:
64,192,94696,1,2,0:0:0:0:
320,192,94696,128,0,94927:0:0:0:0:
192,192,95158,128,8,95389:0:0:0:0:
448,192,95158,1,2,0:0:0:0:
64,192,95619,128,2,95850:0:0:0:0:
320,192,95619,1,0,0:0:0:0:
192,192,96081,1,2,0:0:0:0:
448,192,96081,128,8,96312:0:0:0:0:
64,192,96543,1,4,0:0:0:0:
320,192,96543,128,2,96773:0:0:0:0:
192,192,96889,1,0,0:0:0:0:
64,192,97004,1,8,0:0:0:0:
448,192,97004,128,2,97235:0:0:0:0:
192,192,97235,128,0,97466:0:0:0:0:
64,192,97466,1,2,0:0:0:0:
320,192,97466,128,0,97696:0:0:0:0:
192,192,97812,1,0,0:0:0:0:
64,192,97927,128,8,98158:0:0:0:0:
448,192,97927,1,2,0:0:0:0:
192,192,98158,128,0,98389:0:0:0:0:
320,192,98389,128,2,98619:0:0:0:0:
448,192,98389,1,0,0:0:0:0:
64,192,98735,1,0,0:0:0:0:
320,192,98850,128,2,99081:0:0:0:0:
448,192,98850,1,8,0:0:0:0:
192,192,99081,128,0,99312:0:0:0:0:
64,192,99312,128,2,99543:0:0:0:0:
448,192,99312,1,0,0:0:0:0:
320,192,99543,128,0,99773:0:0:0:0:
64,192,99773,1,2,0:0:0:0:
192,192,99773,128,8,100004:0:0:0:0:
448,192,100004,128,0,100235:0:0:0:0:
64,192,100235,1,2,0:0:0:0:
320,192,100235,128,0,100466:0:0:0:0:
192,192,100581,1,0,0:0:0:0:
64,192,100696,1,8,0:0:0:0:
448,192,100696,128,2,100927:0:0:0:0:
192,192,100927,128,0,101158:0:0:0:0:
64,192,101158,1,2,0:0:0:0:
320,192,101158,128,0,101389:0:0:0:0:
448,192,101504,1,0,0:0:0:0:
64,192,101619,128,8,101850:0:0:0:0:
192,192,101619,1,2,0:0:0:0:
320,192,101850,128,0,102081:0:0:0:0:
192,192,102081,128,2,102312:0:0:0:0:
448,192,102081,1,0,0:0:0:0:
64,192,102427,1,0,0:0:0:0:
192,192,102543,128,2,102773:0:0:0:0:
320,192,102543,1,8,0:0:0:0:
448,192,102889,1,0,0:0:0:0:
64,192,103004,1,2,0:0:0:0:
320,192,103004,128,0,103235:0:0:0:0:
192,192,103235,128,0,103466:0:0:0:0:
64,192,103466,1,2,0:0:0:0:
448,192,103466,128,8,103696:0:0:0:0:
320,192,103696,1,8,0:0:0:0:
192,192,103812,1,8,0:0:0:0:
64,192,103927,128,2,104389:0:0:0:0:
448,192,103927,1,0,0:0:0:0:
192,192,104389,1,8,0:0:0:0:
448,192,104389,128,2,104619:0:0:0:0:
320,192,104619,128,0,104850:0:0:0:0:
64,192,104850,1,2,0:0:0:0:
192,192,104850,1,0,0:0:0:0:
448,192,105081,128,0,105312:0:0:0:0:
64,192,105312,1,8,0:0:0:0:
320,192,105312,1,2,0:0:0:0:
192,192,105543,128,0,105773:0:0:0:0:
64,192,105773,1,2,0:0:0:0:
448,192,105773,128,0,106235:0:0:0:0:
64,192,106235,1,2,0:0:0:0:
320,192,106235,128,8,106466:0:0:0:0:
192,192,106466,128,0,106696:0:0:0:0:
320,192,106696,1,2,0:0:0:0:
448,192,106696,1,0,0:0:0:0:
64,192,106927,128,0,107158:0:0:0:0:
192,192,107158,1,2,0:0:0:0:
448,192,107158,1,8,0:0:0:0:
320,192,107389,1,0,0:0:0:0:
64,192,107619,1,2,0:0:0:0:
192,192,107619,128,0,107850:0:0:0:0:
320,192,107850,128,0,108081:0:0:0:0:
192,192,108081,128,8,108312:0:0:0:0:
448,192,108081,1,2,0:0:0:0:
320,192,108312,128,0,108543:0:0:0:0:
64,192,108543,1,2,0:0:0:0:
192,192,108543,128,0,108773:0:0:0:0:
448,192,108773,128,0,109004:0:0:0:0:
64,192,109004,128,8,109235:0:0:0:0:
192,192,109004,1,2,0:0:0:0:
448,192,109235,128,0,109466:0:0:0:0:
64,192,109466,128,2,109696:0:0:0:0:
320,192,109466,1,0,0:0:0:0:
192,192,109927,1,2,0:0:0:0:
448,192,109927,128,8,110158:0:0:0:0:
64,192,110389,1,2,0:0:0:0:
320,192,110389,128,0,110619:0:0:0:0:
192,192,110850,128,0,111081:0:0:0:50:Tom1.wav
448,192,110850,1,0,0:0:0:0:
320,192,111312,1,2,0:0:0:0:
448,192,111312,1,4,0:0:0:0:
192,192,111543,1,0,0:0:0:0:
64,192,111773,1,8,0:0:0:0:
448,192,111773,1,2,0:0:0:0:
320,192,112004,1,0,0:0:0:0:
448,192,112119,1,0,0:0:0:0:
64,192,112235,1,2,0:0:0:0:
192,192,112235,1,0,0:0:0:0:
448,192,112466,1,0,0:0:0:0:
192,192,112696,1,8,0:0:0:0:
320,192,112696,1,2,0:0:0:0:
64,192,112927,1,0,0:0:0:0:
192,192,113043,1,0,0:0:0:0:
320,192,113158,1,2,0:0:0:0:
448,192,113158,128,0,113389:0:0:0:0:
192,192,113389,128,0,113619:0:0:0:0:
64,192,113619,1,8,0:0:0:0:
448,192,113619,128,2,113850:0:0:0:0:
192,192,113850,128,0,114081:0:0:0:0:
64,192,114081,128,2,114312:0:0:0:0:
448,192,114081,1,0,0:0:0:0:
320,192,114312,128,0,114543:0:0:0:0:
64,192,114543,1,8,0:0:0:0:
448,192,114543,128,2,114773:0:0:0:0:
192,192,114773,128,0,115004:0:0:0:0:
64,192,115004,1,2,0:0:0:0:
320,192,115004,1,0,0:0:0:0:
448,192,115235,1,0,0:0:0:0:
64,192,115466,1,8,0:0:0:0:
320,192,115466,1,2,0:0:0:0:
448,192,115696,1,0,0:0:0:0:
320,192,115812,1,0,0:0:0:0:
64,192,115927,1,2,0:0:0:0:
192,192,115927,1,0,0:0:0:0:
448,192,116158,1,0,0:0:0:0:
64,192,116389,1,8,0:0:0:0:
192,192,116389,1,2,0:0:0:0:
320,192,116619,1,0,0:0:0:0:
448,192,116735,1,0,0:0:0:0:
64,192,116850,1,2,0:0:0:0:
192,192,116850,1,0,0:0:0:0:
320,192,117081,1,0,0:0:0:0:
192,192,117196,1,0,0:0:0:0:
64,192,117312,1,8,0:0:0:0:
448,192,117312,1,2,0:0:0:0:
320,192,117543,1,0,0:0:0:0:
192,192,117658,1,0,0:0:0:0:
64,192,117773,1,2,0:0:0:0:
448,192,117773,1,0,0:0:0:0:
192,192,118004,1,0,0:0:0:0:
320,192,118119,1,0,0:0:0:0:
64,192,118235,1,8,0:0:0:0:
448,192,118235,1,2,0:0:0:0:
192,192,118466,1,0,0:0:0:0:
320,192,118581,1,0,0:0:0:0:
64,192,118696,1,2,0:0:0:0:
448,192,118696,1,0,0:0:0:0:
192,192,118927,1,0,0:0:0:0:
320,192,119158,1,8,0:0:0:0:
448,192,119158,1,2,0:0:0:0:
192,192,119389,1,0,0:0:0:0:
320,192,119504,1,0,0:0:0:0:
64,192,119619,1,2,0:0:0:0:
448,192,119619,1,0,0:0:0:0:
320,192,119850,1,0,0:0:0:0:
192,192,120081,1,8,0:0:0:0:
448,192,120081,1,2,0:0:0:0:
64,192,120312,1,0,0:0:0:0:
192,192,120427,1,0,0:0:0:0:
320,192,120543,1,2,0:0:0:0:
448,192,120543,128,0,120773:0:0:0:0:
192,192,120773,128,0,121004:0:0:0:0:
64,192,121004,1,8,0:0:0:0:
448,192,121004,128,2,121235:0:0:0:0:
192,192,121235,128,0,121466:0:0:0:0:
64,192,121466,128,2,121696:0:0:0:0:
448,192,121466,1,0,0:0:0:25:LR_Clap Reverb.wav
320,192,121696,128,0,121927:0:0:0:0:
64,192,121927,1,10,0:0:0:0:
448,192,121927,128,0,122158:0:0:0:25:LR_Clap Reverb.wav
192,192,122158,128,0,122389:0:0:0:0:
64,192,122389,1,2,0:0:0:0:
320,192,122389,1,0,0:0:0:30:LR_Clap Reverb.wav
448,192,122619,1,0,0:0:0:30:LR_Clap Reverb.wav
64,192,122850,1,10,0:0:0:0:
192,192,122850,1,0,0:0:0:30:LR_Clap Reverb.wav
320,192,123081,1,0,0:0:0:30:LR_Clap Reverb.wav
192,192,123196,1,0,0:0:0:0:
64,192,123312,1,10,0:0:0:0:
448,192,123312,1,0,0:0:0:35:LR_Clap Reverb.wav
320,192,123543,1,0,0:0:0:35:LR_Clap Reverb.wav
64,192,123773,1,10,0:0:0:0:
192,192,123773,1,0,0:0:0:35:LR_Clap Reverb.wav
448,192,124004,1,0,0:0:0:35:LR_Clap Reverb.wav
320,192,124119,1,0,0:0:0:0:
64,192,124235,1,2,0:0:0:0:
192,192,124235,1,0,0:0:0:45:LR4_ClapLRV.wav
320,192,124466,1,0,0:0:0:45:LR4_ClapLRV.wav
192,192,124581,1,0,0:0:0:45:LR4_ClapLRV.wav
64,192,124696,1,10,0:0:0:0:
448,192,124696,1,0,0:0:0:45:LR4_ClapLRV.wav
320,192,124927,1,0,0:0:0:45:LR4_ClapLRV.wav
192,192,125043,1,0,0:0:0:45:LR4_ClapLRV.wav
64,192,125158,1,2,0:0:0:0:
448,192,125158,1,0,0:0:0:45:LR4_ClapLRV.wav
192,192,125389,1,0,0:0:0:45:LR4_ClapLRV.wav
320,192,125504,1,0,0:0:0:45:LR4_ClapLRV.wav
64,192,125619,1,10,0:0:0:0:
448,192,125619,1,0,0:0:0:45:LR4_ClapLRV.wav
192,192,125850,1,0,0:0:0:45:LR4_ClapLRV.wav
320,192,125966,1,0,0:0:0:45:LR4_ClapLRV.wav
64,192,126081,128,4,126312:0:0:0:0:
448,192,126081,1,0,0:0:0:45:kick2.wav
192,192,126543,128,0,126773:0:0:0:0:
320,192,126773,128,0,127004:0:0:0:45:kick2.wav
64,192,127235,1,0,0:0:0:0:
192,192,127466,1,0,0:0:0:0:
320,192,127696,128,0,127927:0:0:0:0:
64,192,127927,128,0,128158:0:0:0:45:kick2.wav
320,192,128389,128,0,128619:0:0:0:0:
192,192,128619,128,0,128850:0:0:0:45:kick2.wav
448,192,129081,1,0,0:0:0:0:
320,192,129312,1,0,0:0:0:0:
64,192,129773,128,0,130004:0:0:0:45:kick2.wav
192,192,130235,128,0,130466:0:0:0:0:
320,192,130466,128,0,130696:0:0:0:45:kick2.wav
64,192,130927,1,0,0:0:0:0:
192,192,131158,1,0,0:0:0:0:
320,192,131389,128,0,131619:0:0:0:0:
64,192,131619,128,0,131850:0:0:0:45:kick2.wav
448,192,132081,128,0,132312:0:0:0:0:
192,192,132312,128,0,132543:0:0:0:45:kick2.wav
64,192,133466,128,0,133696:0:0:0:45:kick2.wav
192,192,133927,128,0,134158:0:0:0:0:
320,192,134158,128,0,134389:0:0:0:45:kick2.wav
64,192,134619,1,0,0:0:0:0:
192,192,134850,1,0,0:0:0:0:
320,192,135081,128,0,135312:0:0:0:0:
64,192,135312,128,0,135543:0:0:0:45:kick2.wav
320,192,135773,128,0,136004:0:0:0:0:
192,192,136004,128,0,136235:0:0:0:45:kick2.wav
448,192,136235,1,0,0:0:0:0:
320,192,136466,1,0,0:0:0:0:
192,192,136696,1,0,0:0:0:0:
64,192,137158,128,0,137389:0:0:0:45:kick2.wav
192,192,137619,128,0,137850:0:0:0:0:
320,192,137850,128,0,138081:0:0:0:45:kick2.wav
64,192,138312,1,0,0:0:0:0:
192,192,138543,1,0,0:0:0:0:
320,192,138773,128,0,139004:0:0:0:0:
64,192,139004,128,2,139235:0:0:0:0:
448,192,139466,128,0,139696:0:0:0:0:
192,192,139696,128,0,139927:0:0:0:45:kick2.wav
64,192,140389,1,8,0:0:0:0:
448,192,140389,1,0,0:0:0:60:LR_Snare Wet High.wav
320,192,140850,128,2,141081:0:0:0:0:
448,192,140850,1,4,0:0:0:0:
64,192,141081,128,0,141312:0:0:0:0:
320,192,141312,128,8,141543:0:0:0:0:
448,192,141312,1,2,0:0:0:0:
64,192,141543,128,0,141773:0:0:0:0:
192,192,141773,128,2,142004:0:0:0:0:
448,192,141773,1,8,0:0:0:0:
320,192,142004,128,0,142235:0:0:0:0:
192,192,142235,1,8,0:0:0:0:
448,192,142235,1,2,0:0:0:0:
64,192,142466,128,0,142696:0:0:0:0:
192,192,142696,1,2,0:0:0:0:
448,192,142696,128,8,142927:0:0:0:0:
320,192,142927,128,0,143158:0:0:0:0:
192,192,143158,128,8,143389:0:0:0:0:
448,192,143158,1,2,0:0:0:0:
64,192,143389,128,0,143619:0:0:0:0:
320,192,143619,1,8,0:0:0:0:
448,192,143619,1,2,0:0:0:0:
64,192,143966,1,8,0:0:0:0:
192,192,144081,1,2,0:0:0:0:
320,192,144081,1,8,0:0:0:0:
448,192,144312,1,8,0:0:0:0:
320,192,144427,1,8,0:0:0:0:
64,192,144543,1,2,0:0:0:0:
192,192,144543,128,8,144773:0:0:0:0:
448,192,144773,128,0,145004:0:0:0:0:
64,192,145004,1,8,0:0:0:0:
192,192,145004,128,2,145235:0:0:0:0:
448,192,145235,128,0,145466:0:0:0:0:
64,192,145466,1,8,0:0:0:0:
192,192,145466,128,2,145696:0:0:0:0:
320,192,145696,128,0,145927:0:0:0:0:
64,192,145927,1,8,0:0:0:0:
448,192,145927,1,2,0:0:0:0:
320,192,146158,128,0,146389:0:0:0:0:
64,192,146389,128,8,146619:0:0:0:0:
448,192,146389,1,2,0:0:0:0:
192,192,146619,128,0,146850:0:0:0:0:
64,192,146850,1,2,0:0:0:0:
448,192,146850,128,8,147081:0:0:0:0:
64,192,147081,128,0,147312:0:0:0:0:
320,192,147312,1,2,0:0:0:0:
448,192,147312,1,0,0:0:0:0:
192,192,147427,1,8,0:0:0:0:
64,192,147773,1,8,0:0:0:0:
448,192,147773,1,2,0:0:0:0:
320,192,148235,128,6,148466:0:0:0:0:
448,192,148235,1,8,0:0:0:0:
64,192,148466,128,0,148696:0:0:0:0:
320,192,148696,128,8,148927:0:0:0:0:
448,192,148696,1,2,0:0:0:0:
64,192,148927,128,0,149158:0:0:0:0:
192,192,149158,128,8,149389:0:0:0:0:
448,192,149158,1,2,0:0:0:0:
320,192,149389,128,0,149619:0:0:0:0:
64,192,149619,1,8,0:0:0:0:
448,192,149619,1,2,0:0:0:0:
192,192,149850,128,0,150081:0:0:0:0:
64,192,150081,1,8,0:0:0:0:
448,192,150081,128,2,150312:0:0:0:0:
320,192,150312,128,0,150543:0:0:0:0:
192,192,150543,128,8,150773:0:0:0:0:
448,192,150543,1,2,0:0:0:0:
64,192,150773,128,0,151004:0:0:0:0:
320,192,151004,1,8,0:0:0:0:
448,192,151004,1,2,0:0:0:0:
64,192,151350,1,8,0:0:0:0:
192,192,151466,1,2,0:0:0:0:
320,192,151466,1,8,0:0:0:0:
448,192,151696,1,8,0:0:0:0:
320,192,151812,1,8,0:0:0:0:
64,192,151927,1,2,0:0:0:0:
192,192,151927,128,8,152158:0:0:0:0:
448,192,152158,128,0,152389:0:0:0:0:
64,192,152389,1,8,0:0:0:0:
192,192,152389,128,2,152619:0:0:0:0:
448,192,152619,128,0,152850:0:0:0:0:
64,192,152850,1,8,0:0:0:0:
192,192,152850,128,2,153081:0:0:0:0:
320,192,153081,128,0,153312:0:0:0:0:
64,192,153312,1,8,0:0:0:0:
448,192,153312,1,2,0:0:0:0:
192,192,153543,128,0,153773:0:0:0:0:
320,192,153773,128,2,154119:0:0:0:0:
448,192,153773,1,0,0:0:0:0:
64,192,154119,128,0,154466:0:0:0:0:
192,192,154466,128,0,154812:0:0:0:0:
320,192,154812,128,0,155158:0:0:0:0:
64,192,155158,1,8,0:0:0:0:
448,192,155158,128,0,155619:0:0:0:60:LR_Snare Wet High.wav
64,192,155619,1,6,0:0:0:0:
192,192,155619,1,0,0:0:0:50:kick2.wav
320,192,155850,1,0,0:0:0:0:
192,192,155966,1,0,0:0:0:0:
64,192,156081,1,0,0:0:0:30:soft-hitwhistle.wav
192,192,156312,1,0,0:0:0:45:LR_Clap Reverb.wav
320,192,156427,1,0,0:0:0:0:
448,192,156543,1,0,0:0:0:30:soft-hitwhistle.wav
64,192,156773,1,2,0:0:0:0:
192,192,156889,1,0,0:0:0:0:
320,192,157004,1,0,0:0:0:30:soft-hitwhistle.wav
448,192,157235,1,0,0:0:0:0:
320,192,157350,1,0,0:0:0:0:
192,192,157466,1,2,0:0:0:0:
64,192,157696,1,0,0:0:0:0:
448,192,157812,1,0,0:0:0:0:
320,192,157927,1,0,0:0:0:30:soft-hitwhistle.wav
192,192,158158,1,0,0:0:0:45:LR_Clap Reverb.wav
320,192,158273,1,0,0:0:0:0:
64,192,158389,1,0,0:0:0:30:soft-hitwhistle.wav
448,192,158619,1,2,0:0:0:0:
64,192,158735,1,0,0:0:0:0:
192,192,158850,1,0,0:0:0:30:soft-hitwhistle.wav
320,192,159081,1,0,0:0:0:0:
192,192,159196,1,2,0:0:0:0:
448,192,159312,1,2,0:0:0:0:
448,192,159543,1,2,0:0:0:0:
64,192,159773,1,2,0:0:0:0:
64,192,160004,1,2,0:0:0:0:
320,192,160235,1,2,0:0:0:0:
320,192,160466,1,2,0:0:0:0:
192,192,160696,1,2,0:0:0:0:
192,192,160927,1,2,0:0:0:0:
448,192,161158,128,2,161619:0:0:0:0:
64,192,161619,128,0,162081:0:0:0:45:LR4_ClapLRV.wav
320,192,162081,128,0,163004:0:0:0:0:
192,192,163004,128,2,163235:0:0:0:0:
448,192,163004,1,4,0:0:0:0:
320,192,163350,1,0,0:0:0:0:
64,192,163466,128,8,163696:0:0:0:0:
448,192,163466,1,2,0:0:0:0:
320,192,163696,128,0,163927:0:0:0:0:
192,192,163927,128,2,164158:0:0:0:0:
448,192,163927,1,0,0:0:0:0:
64,192,164158,128,0,164389:0:0:0:0:
320,192,164389,1,8,0:0:0:0:
448,192,164389,128,2,164619:0:0:0:0:
192,192,164619,128,0,164850:0:0:0:0:
64,192,164850,1,2,0:0:0:0:
320,192,164850,128,0,165081:0:0:0:0:
448,192,165196,1,0,0:0:0:0:
64,192,165312,1,8,0:0:0:0:
192,192,165312,128,2,165543:0:0:0:0:
320,192,165543,128,0,165773:0:0:0:0:
64,192,165773,1,2,0:0:0:0:
448,192,165773,128,0,166004:0:0:0:0:
192,192,166004,128,0,166235:0:0:0:0:
320,192,166235,128,8,166466:0:0:0:0:
448,192,166235,1,2,0:0:0:0:
64,192,166466,128,0,166696:0:0:0:0:
192,192,166696,128,2,166927:0:0:0:0:
448,192,166696,1,0,0:0:0:0:
320,192,167043,1,0,0:0:0:0:
64,192,167158,1,2,0:0:0:0:
448,192,167158,128,8,167389:0:0:0:0:
320,192,167389,128,0,167619:0:0:0:0:
192,192,167619,128,2,167850:0:0:0:0:
448,192,167619,1,0,0:0:0:0:
320,192,167966,1,0,0:0:0:0:
64,192,168081,1,2,0:0:0:0:
192,192,168081,128,8,168312:0:0:0:0:
448,192,168312,128,0,168543:0:0:0:0:
64,192,168543,128,2,168773:0:0:0:0:
320,192,168543,1,0,0:0:0:0:
192,192,168889,1,0,0:0:0:0:
64,192,169004,128,8,169235:0:0:0:0:
448,192,169004,1,2,0:0:0:0:
320,192,169235,128,0,169466:0:0:0:0:
64,192,169466,1,2,0:0:0:0:
192,192,169466,128,0,169696:0:0:0:0:
448,192,169696,128,0,169927:0:0:0:0:
64,192,169927,128,8,170158:0:0:0:0:
320,192,169927,1,2,0:0:0:0:
192,192,170158,1,8,0:0:0:0:
320,192,170273,1,8,0:0:0:0:
64,192,170389,1,2,0:0:0:0:
448,192,170389,128,0,170850:0:0:0:0:
64,192,170850,128,2,171081:0:0:0:0:
320,192,170850,1,8,0:0:0:0:
192,192,171081,128,0,171312:0:0:0:0:
320,192,171312,1,2,0:0:0:0:
448,192,171312,1,0,0:0:0:0:
64,192,171543,128,0,171773:0:0:0:0:
192,192,171773,1,2,0:0:0:0:
448,192,171773,1,8,0:0:0:0:
320,192,172004,128,0,172235:0:0:0:0:
64,192,172235,128,2,172696:0:0:0:0:
448,192,172235,1,0,0:0:0:0:
192,192,172696,128,8,172927:0:0:0:0:
448,192,172696,1,2,0:0:0:0:
320,192,172927,128,0,173158:0:0:0:0:
64,192,173158,1,2,0:0:0:0:
192,192,173158,1,0,0:0:0:0:
448,192,173389,128,0,173619:0:0:0:0:
64,192,173619,1,8,0:0:0:0:
320,192,173619,1,2,0:0:0:0:
192,192,173850,1,0,0:0:0:0:
320,192,174081,128,2,174312:0:0:0:0:
448,192,174081,1,0,0:0:0:0:
192,192,174312,128,0,174543:0:0:0:0:
64,192,174543,1,2,0:0:0:0:
320,192,174543,128,8,174773:0:0:0:0:
192,192,174773,128,0,175004:0:0:0:0:
320,192,175004,128,2,175235:0:0:0:0:
448,192,175004,1,0,0:0:0:0:
64,192,175235,128,0,175466:0:0:0:0:
320,192,175466,1,2,0:0:0:0:
448,192,175466,128,8,175696:0:0:0:0:
192,192,175696,128,0,175927:0:0:0:0:
64,192,175927,1,2,0:0:0:0:
320,192,175927,128,0,176158:0:0:0:0:
192,192,176389,128,8,176619:0:0:0:0:
448,192,176389,1,2,0:0:0:0:
64,192,176850,128,2,177081:0:0:0:0:
448,192,176850,1,0,0:0:0:0:
64,192,177312,1,2,0:0:0:0:
448,192,177312,128,8,177543:0:0:0:0:
64,192,177773,128,4,178004:0:0:0:0:
320,192,177773,1,2,0:0:0:0:
192,192,178119,1,0,0:0:0:0:
320,192,178235,1,8,0:0:0:0:
448,192,178235,128,2,178466:0:0:0:0:
192,192,178466,128,0,178696:0:0:0:0:
64,192,178696,1,2,0:0:0:0:
320,192,178696,128,0,179158:0:0:0:0:
64,192,179158,128,8,179389:0:0:0:0:
448,192,179158,1,2,0:0:0:0:
192,192,179389,128,0,179619:0:0:0:0:
320,192,179619,128,2,179850:0:0:0:0:
448,192,179619,1,0,0:0:0:0:
64,192,179966,1,0,0:0:0:0:
320,192,180081,128,2,180312:0:0:0:0:
448,192,180081,1,8,0:0:0:0:
192,192,180312,128,0,180543:0:0:0:0:
64,192,180543,128,2,180773:0:0:0:0:
448,192,180543,1,0,0:0:0:0:
320,192,180773,128,0,181004:0:0:0:0:
64,192,181004,1,2,0:0:0:0:
192,192,181004,128,8,181235:0:0:0:0:
448,192,181235,128,0,181466:0:0:0:0:
64,192,181466,1,2,0:0:0:0:
320,192,181466,128,0,181696:0:0:0:0:
192,192,181812,1,0,0:0:0:0:
64,192,181927,1,8,0:0:0:0:
448,192,181927,128,2,182158:0:0:0:0:
192,192,182158,128,0,182389:0:0:0:0:
320,192,182389,128,2,182850:0:0:0:0:
448,192,182389,1,0,0:0:0:0:
64,192,182850,128,8,183081:0:0:0:0:
192,192,182850,1,2,0:0:0:0:
320,192,183081,128,0,183312:0:0:0:0:
64,192,183312,1,2,0:0:0:0:
192,192,183312,128,0,183543:0:0:0:0:
448,192,183658,1,0,0:0:0:0:
64,192,183773,1,2,0:0:0:0:
192,192,183773,128,8,184004:0:0:0:0:
448,192,184119,1,0,0:0:0:0:
64,192,184235,1,2,0:0:0:0:
320,192,184235,128,0,184466:0:0:0:0:
192,192,184466,128,0,184696:0:0:0:0:
64,192,184696,1,2,0:0:0:0:
448,192,184696,128,8,184927:0:0:0:0:
320,192,184927,1,8,0:0:0:0:
192,192,185043,1,8,0:0:0:0:
64,192,185158,128,2,185619:0:0:0:0:
448,192,185158,1,0,0:0:0:0:
192,192,185619,1,8,0:0:0:0:
448,192,185619,128,2,185850:0:0:0:0:
320,192,185850,128,0,186081:0:0:0:0:
64,192,186081,1,2,0:0:0:0:
192,192,186081,1,0,0:0:0:0:
448,192,186312,128,0,186543:0:0:0:0:
64,192,186543,1,8,0:0:0:0:
320,192,186543,1,2,0:0:0:0:
192,192,186773,128,0,187004:0:0:0:0:
64,192,187004,1,2,0:0:0:0:
448,192,187004,128,0,187466:0:0:0:0:
64,192,187466,1,2,0:0:0:0:
320,192,187466,128,8,187696:0:0:0:0:
192,192,187696,128,0,187927:0:0:0:0:
320,192,187927,1,2,0:0:0:0:
448,192,187927,1,0,0:0:0:0:
64,192,188158,128,0,188389:0:0:0:0:
192,192,188389,1,2,0:0:0:0:
448,192,188389,1,8,0:0:0:0:
320,192,188619,1,0,0:0:0:0:
64,192,188850,1,2,0:0:0:0:
192,192,188850,128,0,189081:0:0:0:0:
320,192,189081,128,0,189312:0:0:0:0:
192,192,189312,128,8,189543:0:0:0:0:
448,192,189312,1,2,0:0:0:0:
320,192,189543,128,0,189773:0:0:0:0:
64,192,189773,1,2,0:0:0:0:
192,192,189773,128,0,190004:0:0:0:0:
448,192,190004,128,0,190235:0:0:0:0:
64,192,190235,128,8,190466:0:0:0:0:
192,192,190235,1,2,0:0:0:0:
448,192,190466,128,0,190696:0:0:0:0:
64,192,190696,1,2,0:0:0:0:
320,192,190696,128,0,190927:0:0:0:0:
192,192,191158,128,2,191389:0:0:0:0:
448,192,191158,1,8,0:0:0:0:
64,192,191619,128,2,191850:0:0:0:0:
448,192,191619,1,0,0:0:0:0:
448,192,192081,128,0,192312:0:0:0:50:Tom1.wav
64,192,192543,1,2,0:0:0:0:
192,192,192543,1,4,0:0:0:0:
320,192,192773,1,0,0:0:0:0:
64,192,193004,1,10,0:0:0:0:
448,192,193004,1,0,0:0:0:40:clap2.wav
320,192,193235,1,0,0:0:0:0:
448,192,193350,1,0,0:0:0:0:
64,192,193466,1,2,0:0:0:0:
192,192,193466,1,0,0:0:0:0:
448,192,193696,1,0,0:0:0:0:
192,192,193927,1,10,0:0:0:0:
320,192,193927,1,0,0:0:0:40:clap2.wav
64,192,194158,1,0,0:0:0:0:
192,192,194273,1,0,0:0:0:0:
320,192,194389,1,2,0:0:0:0:
448,192,194389,128,0,194619:0:0:0:0:
192,192,194619,128,0,194850:0:0:0:0:
64,192,194850,1,10,0:0:0:0:
448,192,194850,128,0,195081:0:0:0:40:clap2.wav
192,192,195081,128,0,195312:0:0:0:0:
64,192,195312,128,2,195543:0:0:0:0:
448,192,195312,1,0,0:0:0:0:
320,192,195543,128,0,195773:0:0:0:0:
64,192,195773,1,10,0:0:0:0:
448,192,195773,128,0,196004:0:0:0:40:clap2.wav
192,192,196004,128,0,196235:0:0:0:0:
64,192,196235,1,2,0:0:0:0:
320,192,196235,1,0,0:0:0:0:
448,192,196466,1,0,0:0:0:0:
64,192,196696,1,10,0:0:0:0:
320,192,196696,1,0,0:0:0:40:clap2.wav
448,192,196927,1,0,0:0:0:0:
320,192,197043,1,0,0:0:0:0:
64,192,197158,1,2,0:0:0:0:
192,192,197158,1,0,0:0:0:0:
448,192,197389,1,0,0:0:0:0:
64,192,197619,1,10,0:0:0:0:
192,192,197619,1,0,0:0:0:40:clap2.wav
320,192,197850,1,0,0:0:0:0:
448,192,197966,1,0,0:0:0:0:
64,192,198081,1,2,0:0:0:0:
192,192,198081,1,0,0:0:0:0:
320,192,198312,1,0,0:0:0:0:
192,192,198427,1,0,0:0:0:0:
64,192,198543,1,10,0:0:0:0:
448,192,198543,1,0,0:0:0:40:clap2.wav
320,192,198773,1,0,0:0:0:0:
192,192,198889,1,0,0:0:0:0:
64,192,199004,1,2,0:0:0:0:
448,192,199004,1,0,0:0:0:0:
192,192,199235,1,0,0:0:0:0:
320,192,199350,1,0,0:0:0:0:
64,192,199466,1,10,0:0:0:0:
448,192,199466,1,0,0:0:0:40:clap2.wav
192,192,199696,1,0,0:0:0:0:
320,192,199812,1,0,0:0:0:0:
64,192,199927,1,2,0:0:0:0:
448,192,199927,1,0,0:0:0:0:
192,192,200158,1,0,0:0:0:0:
320,192,200389,1,10,0:0:0:0:
448,192,200389,1,0,0:0:0:40:clap2.wav
192,192,200619,1,0,0:0:0:0:
320,192,200735,1,0,0:0:0:0:
64,192,200850,1,2,0:0:0:0:
448,192,200850,1,0,0:0:0:0:
320,192,201081,1,0,0:0:0:0:
192,192,201312,1,10,0:0:0:0:
448,192,201312,1,0,0:0:0:40:clap2.wav
64,192,201543,1,0,0:0:0:0:
192,192,201658,1,0,0:0:0:0:
320,192,201773,1,2,0:0:0:0:
448,192,201773,128,0,202004:0:0:0:0:
192,192,202004,128,0,202235:0:0:0:0:
64,192,202235,1,10,0:0:0:0:
448,192,202235,128,0,202466:0:0:0:40:clap2.wav
192,192,202466,128,0,202696:0:0:0:0:
64,192,202696,128,2,202927:0:0:0:0:
448,192,202696,1,0,0:0:0:25:LR_Clap Reverb.wav
320,192,202927,128,0,203158:0:0:0:0:
64,192,203158,1,10,0:0:0:0:
448,192,203158,128,0,203389:0:0:0:40:clap2.wav
192,192,203389,128,0,203619:0:0:0:0:
64,192,203619,1,2,0:0:0:0:
320,192,203619,1,0,0:0:0:30:LR_Clap Reverb.wav
448,192,203850,1,0,0:0:0:30:LR_Clap Reverb.wav
64,192,204081,1,10,0:0:0:0:
192,192,204081,1,0,0:0:0:30:LR_Clap Reverb.wav
320,192,204312,1,0,0:0:0:30:LR_Clap Reverb.wav
192,192,204427,1,0,0:0:0:0:
64,192,204543,1,10,0:0:0:0:
448,192,204543,1,0,0:0:0:35:LR_Clap Reverb.wav
320,192,204773,1,0,0:0:0:35:LR_Clap Reverb.wav
64,192,205004,1,10,0:0:0:0:
192,192,205004,1,0,0:0:0:35:LR_Clap Reverb.wav
448,192,205235,1,0,0:0:0:35:LR_Clap Reverb.wav
320,192,205350,1,0,0:0:0:0:
64,192,205466,1,2,0:0:0:0:
192,192,205466,1,0,0:0:0:45:LR4_ClapLRV.wav
320,192,205696,1,0,0:0:0:45:LR4_ClapLRV.wav
192,192,205812,1,0,0:0:0:45:LR4_ClapLRV.wav
64,192,205927,1,10,0:0:0:0:
448,192,205927,1,0,0:0:0:45:LR4_ClapLRV.wav
320,192,206158,1,0,0:0:0:45:LR4_ClapLRV.wav
192,192,206273,1,0,0:0:0:45:LR4_ClapLRV.wav
64,192,206389,1,2,0:0:0:0:
448,192,206389,1,0,0:0:0:45:LR4_ClapLRV.wav
192,192,206619,1,0,0:0:0:45:LR4_ClapLRV.wav
320,192,206735,1,0,0:0:0:45:LR4_ClapLRV.wav
64,192,206850,1,10,0:0:0:0:
448,192,206850,1,0,0:0:0:45:LR4_ClapLRV.wav
192,192,207081,1,0,0:0:0:45:LR4_ClapLRV.wav
320,192,207196,1,0,0:0:0:45:LR4_ClapLRV.wav
64,192,207312,1,4,0:0:0:0:
448,192,207312,1,2,0:0:0:45:kick2.wav
192,192,207543,1,0,0:0:0:0:
320,192,207773,1,0,0:0:0:0:
448,192,208004,1,0,0:0:0:15:kick2.wav
64,192,208466,1,0,0:0:0:0:
192,192,208696,1,0,0:0:0:0:
320,192,208927,1,0,0:0:0:0:
64,192,209158,1,0,0:0:0:15:kick2.wav
448,192,209389,1,0,0:0:0:0:
320,192,209619,1,0,0:0:0:0:
192,192,209850,1,0,0:0:0:15:kick2.wav
64,192,210081,1,0,0:0:0:0:
448,192,210312,1,0,0:0:0:0:
320,192,210543,1,0,0:0:0:0:
64,192,211004,1,0,0:0:0:15:kick2.wav
192,192,211235,1,0,0:0:0:0:
320,192,211466,1,0,0:0:0:0:
448,192,211696,1,0,0:0:0:15:kick2.wav
64,192,212158,1,0,0:0:0:0:
192,192,212389,1,0,0:0:0:0:
320,192,212619,1,0,0:0:0:0:
64,192,212850,1,0,0:0:0:15:kick2.wav
448,192,213081,1,0,0:0:0:0:
320,192,213312,1,0,0:0:0:0:
192,192,213543,1,0,0:0:0:15:kick2.wav
64,192,214696,1,0,0:0:0:15:kick2.wav
192,192,214927,1,0,0:0:0:0:
320,192,215158,1,0,0:0:0:0:
448,192,215389,1,0,0:0:0:15:kick2.wav
64,192,215850,1,0,0:0:0:0:
192,192,216081,1,0,0:0:0:0:
320,192,216312,1,0,0:0:0:0:
64,192,216543,1,0,0:0:0:15:kick2.wav
448,192,216773,1,0,0:0:0:0:
320,192,217004,1,0,0:0:0:0:
192,192,217235,1,0,0:0:0:15:kick2.wav
64,192,217466,1,0,0:0:0:0:
448,192,217696,1,0,0:0:0:0:
320,192,217927,1,0,0:0:0:0:
64,192,218389,1,0,0:0:0:15:kick2.wav
192,192,218619,1,0,0:0:0:0:
320,192,218850,1,0,0:0:0:0:
448,192,219081,1,0,0:0:0:15:kick2.wav
64,192,219543,1,0,0:0:0:0:
192,192,219773,1,0,0:0:0:0:
320,192,220004,1,0,0:0:0:0:
64,192,220235,1,0,0:0:0:15:kick2.wav
192,192,220927,1,0,0:0:0:15:kick2.wav
