osu file format v14

[General]
AudioFilename: audio.mp3
AudioLeadIn: 0
PreviewTime: 81773
Countdown: 0
SampleSet: Soft
StackLeniency: 0.7
Mode: 3
LetterboxInBreaks: 0
SpecialStyle: 0
WidescreenStoryboard: 0

[Editor]
DistanceSpacing: 1
BeatDivisor: 4
GridSize: 16
TimelineZoom: 2.599999

[Metadata]
Title:Sunset March
TitleUnicode:サンセットマーチ
Artist:sana
ArtistUnicode:鎖那
Creator:DenYi
Version:Sunset Sky
Source:
Tags:- Inui Toko - Drum-hitnormal dudehacker japanese electronic j-pop jpop pop utaite cover さな female vocal けーだっしゅ 初音ミク hatsune miku kedashu n.k nantomo komatta
BeatmapID:3678175
BeatmapSetID:1794544

[Difficulty]
HPDrainRate:8
CircleSize:4
OverallDifficulty:8
ApproachRate:5
SliderMultiplier:1.4
SliderTickRate:1

[Events]
//Background and Video events
0,0,"denyi in.jpg",0,0
//Break Periods
//Storyboard Layer 0 (Background)
//Storyboard Layer 1 (Fail)
//Storyboard Layer 2 (Pass)
//Storyboard Layer 3 (Foreground)
//Storyboard Layer 4 (Overlay)
//Storyboard Sound Samples
Sample,7927,0,"Tom3.wav",30
Sample,9081,0,"Tom3.wav",30
Sample,9773,0,"Tom3.wav",30
Sample,10927,0,"Tom3.wav",30
Sample,11619,0,"Tom3.wav",30
Sample,12773,0,"Tom3.wav",30
Sample,13466,0,"Tom3.wav",30
Sample,14619,0,"Tom3.wav",30
Sample,20908,0,"LR4_ClapLRV.wav",45
Sample,20966,0,"LR4_ClapLRV.wav",45
Sample,21023,0,"LR4_ClapLRV.wav",45
Sample,21081,0,"LR4_ClapLRV.wav",45
Sample,21139,0,"LR4_ClapLRV.wav",45
Sample,21196,0,"LR4_ClapLRV.wav",45
Sample,21254,0,"LR4_ClapLRV.wav",45
Sample,21312,0,"LR4_ClapLRV.wav",45
Sample,21369,0,"LR4_ClapLRV.wav",45
Sample,21427,0,"LR4_ClapLRV.wav",45
Sample,21485,0,"LR4_ClapLRV.wav",45
Sample,21543,0,"LR4_ClapLRV.wav",45
Sample,21600,0,"LR4_ClapLRV.wav",45
Sample,21658,0,"LR4_ClapLRV.wav",45
Sample,21716,0,"LR4_ClapLRV.wav",45
Sample,36081,0,"LR4_ClapLRV.wav",45
Sample,36543,0,"LR4_ClapLRV.wav",45
Sample,37004,0,"LR4_ClapLRV.wav",45
Sample,77850,0,"clap2.wav",50
Sample,124696,0,"LR4_ClapLRV.wav",45
Sample,125158,0,"LR4_ClapLRV.wav",45
Sample,125619,0,"LR4_ClapLRV.wav",45
Sample,156081,0,"LR_Clap Reverb.wav",45
Sample,156773,0,"Tom3.wav",30
Sample,157466,0,"LR4_ClapLRV.wav",30
Sample,157466,0,"Tom3.wav",30
Sample,157927,0,"LR_Clap Reverb.wav",45
Sample,158619,0,"Tom3.wav",30
Sample,159196,0,"Tom3.wav",30
Sample,159312,0,"Tom3.wav",30
Sample,160466,0,"Tom3.wav",30
Sample,161158,0,"LR4_ClapLRV.wav",45
Sample,161158,0,"Tom3.wav",30
Sample,161619,0,"LR_Clap Reverb.wav",45
Sample,161850,0,"LR_Clap Reverb.wav",45
Sample,203158,0,"LR_Clap Reverb.wav",25
Sample,205927,0,"LR4_ClapLRV.wav",45
Sample,206389,0,"LR4_ClapLRV.wav",45
Sample,206850,0,"LR4_ClapLRV.wav",45

[TimingPoints]
543,461.538461538462,4,2,1,50,1,0
81773,-100.0,4,2,1,50,0,1
96081,-100.0,4,2,1,50,0,0
96543,-100.0,4,2,1,50,0,1
111312,-100.0,4,2,1,50,0,0
163004,-100.0,4,2,1,50,0,1
177312,-100.0,4,2,1,50,0,0
177773,-100.0,4,2,1,50,0,1
192543,-100.0,4,2,1,50,0,0

[HitObjects]
64,192,543,1,2,0:0:0:0:
320,192,543,128,4,773:0:0:0:0:
448,192,543,128,0,1004:0:0:0:0:
64,192,1004,1,0,0:0:0:0:
192,192,1004,1,0,0:0:0:0:
320,192,1235,1,0,0:0:0:0:
64,192,1466,1,0,0:0:0:0:
448,192,1696,1,0,0:0:0:0:
320,192,1927,1,0,0:0:0:0:
192,192,2158,1,0,0:0:0:0:
320,192,2389,1,2,0:0:0:40:soft-hitwhistle.wav
448,192,2389,1,0,0:0:0:40:LR_Long Bass.wav
64,192,2619,1,0,0:0:0:0:
448,192,2735,1,0,0:0:0:0:
320,192,2850,1,0,0:0:0:0:
192,192,3081,1,0,0:0:0:0:
448,192,3312,1,0,0:0:0:0:
64,192,3543,1,0,0:0:0:0:
320,192,3773,1,0,0:0:0:0:
448,192,4004,1,0,0:0:0:0:
64,192,4235,1,2,0:0:0:40:soft-hitwhistle.wav
192,192,4235,1,0,0:0:0:40:LR_Long Bass.wav
320,192,4466,1,0,0:0:0:0:
64,192,4581,1,0,0:0:0:0:
448,192,4696,1,0,0:0:0:0:
192,192,4927,1,0,0:0:0:0:
448,192,5158,1,0,0:0:0:0:
64,192,5389,1,0,0:0:0:0:
320,192,5619,1,0,0:0:0:0:
192,192,5850,1,0,0:0:0:0:
320,192,6081,1,2,0:0:0:40:soft-hitwhistle.wav
448,192,6081,1,0,0:0:0:40:LR_Long Bass.wav
64,192,6312,1,0,0:0:0:0:
320,192,6427,1,0,0:0:0:0:
192,192,6543,1,0,0:0:0:0:
448,192,6773,1,0,0:0:0:0:
64,192,6889,1,0,0:0:0:0:
192,192,7004,1,0,0:0:0:0:
448,192,7235,1,0,0:0:0:0:
320,192,7466,1,0,0:0:0:0:
192,192,7696,1,0,0:0:0:0:
64,192,7927,1,2,0:0:0:0:
448,192,7927,1,0,0:0:0:50:kick2.wav
320,192,8158,1,0,0:0:0:0:
64,192,8389,1,0,0:0:0:45:LR_Clap Reverb.wav
192,192,8389,1,0,0:0:0:0:
64,192,8619,1,0,0:0:0:45:LR_Clap Reverb.wav
192,192,8619,1,0,0:0:0:0:
320,192,8850,1,0,0:0:0:0:
64,192,9081,1,2,0:0:0:0:
448,192,9081,1,0,0:0:0:50:kick2.wav
192,192,9312,1,0,0:0:0:45:LR_Clap Reverb.wav
320,192,9312,1,0,0:0:0:0:
192,192,9543,1,0,0:0:0:0:
64,192,9773,1,2,0:0:0:0:
448,192,9773,1,0,0:0:0:50:kick2.wav
192,192,10004,1,0,0:0:0:0:
320,192,10235,1,0,0:0:0:45:LR_Clap Reverb.wav
448,192,10235,1,0,0:0:0:0:
320,192,10466,1,0,0:0:0:45:LR_Clap Reverb.wav
448,192,10466,1,0,0:0:0:0:
192,192,10696,1,0,0:0:0:0:
64,192,10927,1,2,0:0:0:0:
448,192,10927,1,0,0:0:0:50:kick2.wav
192,192,11158,1,0,0:0:0:45:LR_Clap Reverb.wav
320,192,11158,1,0,0:0:0:0:
320,192,11389,1,0,0:0:0:0:
64,192,11619,1,2,0:0:0:0:
192,192,11619,1,0,0:0:0:50:kick2.wav
320,192,11850,1,0,0:0:0:0:
64,192,12081,1,0,0:0:0:45:LR_Clap Reverb.wav
448,192,12081,1,0,0:0:0:0:
64,192,12312,1,0,0:0:0:45:LR_Clap Reverb.wav
448,192,12312,1,0,0:0:0:0:
192,192,12543,1,0,0:0:0:0:
320,192,12773,1,2,0:0:0:0:
448,192,12773,1,0,0:0:0:50:kick2.wav
64,192,13004,1,0,0:0:0:45:LR_Clap Reverb.wav
192,192,13004,1,0,0:0:0:0:
64,192,13235,1,0,0:0:0:0:
320,192,13466,1,2,0:0:0:0:
448,192,13466,1,0,0:0:0:50:kick2.wav
192,192,13696,1,0,0:0:0:0:
64,192,13927,1,0,0:0:0:45:LR_Clap Reverb.wav
448,192,13927,1,0,0:0:0:0:
64,192,14158,1,0,0:0:0:45:LR_Clap Reverb.wav
448,192,14158,1,0,0:0:0:0:
320,192,14389,1,0,0:0:0:0:
64,192,14619,1,2,0:0:0:0:
192,192,14619,1,0,0:0:0:50:kick2.wav
320,192,14850,1,0,0:0:0:45:LR_Clap Reverb.wav
448,192,14850,1,0,0:0:0:0:
320,192,15081,1,0,0:0:0:0:
64,192,15312,1,2,0:0:0:0:
192,192,15312,1,4,0:0:0:0:
448,192,15312,1,0,0:0:0:0:
192,192,15543,128,0,15658:0:0:0:0:
320,192,15658,128,0,15773:0:0:0:0:
64,192,15773,1,0,0:0:0:20:soft-hitwhistle.wav
448,192,15773,1,0,0:0:0:25:LR4_ClapLRV.wav
64,192,16004,128,0,16119:0:0:0:0:
192,192,16119,128,0,16235:0:0:0:0:
320,192,16235,1,0,0:0:0:20:soft-hitwhistle.wav
448,192,16235,1,0,0:0:0:25:LR4_ClapLRV.wav
448,192,16466,128,0,16581:0:0:0:0:
320,192,16581,128,0,16696:0:0:0:0:
64,192,16696,1,0,0:0:0:20:soft-hitwhistle.wav
192,192,16696,1,0,0:0:0:25:LR4_ClapLRV.wav
64,192,16927,128,0,17043:0:0:0:0:
192,192,17043,128,0,17158:0:0:0:0:
320,192,17158,1,0,0:0:0:20:soft-hitwhistle.wav
448,192,17158,1,0,0:0:0:30:LR4_ClapLRV.wav
448,192,17389,128,0,17504:0:0:0:0:
64,192,17504,128,0,17619:0:0:0:0:
192,192,17619,1,0,0:0:0:20:soft-hitwhistle.wav
320,192,17619,1,0,0:0:0:30:LR4_ClapLRV.wav
192,192,17850,128,0,17966:0:0:0:0:
320,192,17966,128,0,18081:0:0:0:0:
64,192,18081,1,0,0:0:0:20:soft-hitwhistle.wav
448,192,18081,1,0,0:0:0:35:LR4_ClapLRV.wav
448,192,18312,128,0,18427:0:0:0:0:
320,192,18427,128,0,18543:0:0:0:0:
64,192,18543,1,0,0:0:0:20:soft-hitwhistle.wav
192,192,18543,1,0,0:0:0:35:LR4_ClapLRV.wav
64,192,18773,128,0,18889:0:0:0:0:
192,192,18889,128,0,19004:0:0:0:0:
320,192,19004,1,0,0:0:0:20:soft-hitwhistle.wav
448,192,19004,1,0,0:0:0:40:LR4_ClapLRV.wav
320,192,19235,1,0,0:0:0:20:soft-hitwhistle.wav
448,192,19235,1,0,0:0:0:40:LR4_ClapLRV.wav
320,192,19466,1,0,0:0:0:20:soft-hitwhistle.wav
448,192,19466,1,0,0:0:0:40:LR4_ClapLRV.wav
64,192,19696,1,0,0:0:0:20:soft-hitwhistle.wav
448,192,19696,1,0,0:0:0:40:LR4_ClapLRV.wav
64,192,19927,1,0,0:0:0:20:soft-hitwhistle.wav
192,192,19927,1,0,0:0:0:40:LR4_ClapLRV.wav
64,192,20158,1,0,0:0:0:20:soft-hitwhistle.wav
192,192,20158,1,0,0:0:0:40:LR4_ClapLRV.wav
64,192,20389,1,0,0:0:0:20:soft-hitwhistle.wav
192,192,20389,1,0,0:0:0:40:LR4_ClapLRV.wav
64,192,20619,1,0,0:0:0:20:soft-hitwhistle.wav
448,192,20619,1,0,0:0:0:40:LR4_ClapLRV.wav
320,192,20850,1,0,0:0:0:15:soft-hitwhistle.wav
448,192,20850,1,0,0:0:0:45:LR4_ClapLRV.wav
64,192,20908,1,0,0:0:0:15:soft-hitwhistle.wav
192,192,20966,1,0,0:0:0:15:soft-hitwhistle.wav
320,192,21023,1,0,0:0:0:15:soft-hitwhistle.wav
448,192,21081,1,0,0:0:0:15:soft-hitwhistle.wav
192,192,21139,1,0,0:0:0:15:soft-hitwhistle.wav
64,192,21196,1,0,0:0:0:15:soft-hitwhistle.wav
448,192,21254,1,0,0:0:0:15:soft-hitwhistle.wav
320,192,21312,1,0,0:0:0:15:soft-hitwhistle.wav
192,192,21369,1,0,0:0:0:15:soft-hitwhistle.wav
64,192,21427,1,0,0:0:0:15:soft-hitwhistle.wav
320,192,21485,1,0,0:0:0:15:soft-hitwhistle.wav
448,192,21543,1,0,0:0:0:15:soft-hitwhistle.wav
64,192,21600,1,0,0:0:0:15:soft-hitwhistle.wav
192,192,21658,1,0,0:0:0:15:soft-hitwhistle.wav
320,192,21716,1,0,0:0:0:15:soft-hitwhistle.wav
448,192,21773,1,0,0:0:0:0:
64,192,21927,1,8,0:0:0:0:
192,192,21927,1,0,0:0:0:35:Tom1.wav
320,192,21927,1,0,0:0:0:0:
320,192,22081,1,0,0:0:0:40:Tom2.wav
448,192,22081,1,0,0:0:0:0:
64,192,22235,1,0,0:0:0:50:Tom1.wav
192,192,22235,1,0,0:0:0:0:
64,192,22389,1,0,0:0:0:50:Tom2.wav
448,192,22389,1,0,0:0:0:0:
192,192,22543,1,0,0:0:0:40:Tom3.wav
320,192,22543,1,0,0:0:0:0:
64,192,22696,1,2,0:0:0:0:
320,192,22696,1,4,0:0:0:0:
448,192,22696,1,0,0:0:0:0:
192,192,22812,1,0,0:0:0:0:
320,192,22927,1,0,0:0:0:0:
192,192,23043,1,0,0:0:0:0:
64,192,23158,1,8,0:0:0:0:
448,192,23158,1,2,0:0:0:0:
320,192,23273,1,0,0:0:0:0:
192,192,23389,1,0,0:0:0:0:
448,192,23504,1,0,0:0:0:0:
64,192,23619,1,2,0:0:0:0:
192,192,23619,1,0,0:0:0:0:
320,192,23735,1,0,0:0:0:0:
64,192,23850,1,0,0:0:0:0:
192,192,23908,1,0,0:0:0:0:
320,192,23966,1,0,0:0:0:0:
192,192,24081,1,8,0:0:0:0:
448,192,24081,1,2,0:0:0:0:
448,192,24196,1,0,0:0:0:0:
64,192,24312,1,0,0:0:0:0:
64,192,24427,1,0,0:0:0:0:
320,192,24543,128,2,24773:0:0:0:0:
448,192,24543,1,0,0:0:0:0:
64,192,24658,1,0,0:0:0:0:
192,192,24773,128,0,25004:0:0:0:0:
320,192,24889,1,0,0:0:0:0:
64,192,25004,1,8,0:0:0:0:
448,192,25004,128,2,25235:0:0:0:0:
320,192,25119,1,0,0:0:0:0:
64,192,25235,128,0,25466:0:0:0:0:
192,192,25350,1,0,0:0:0:0:
320,192,25466,128,2,25696:0:0:0:0:
448,192,25466,1,0,0:0:0:0:
64,192,25581,1,0,0:0:0:0:
192,192,25696,128,0,25927:0:0:0:0:
320,192,25812,1,0,0:0:0:0:
64,192,25927,1,8,0:0:0:0:
448,192,25927,128,2,26158:0:0:0:0:
320,192,26043,1,0,0:0:0:0:
64,192,26158,128,0,26389:0:0:0:0:
192,192,26273,1,0,0:0:0:0:
320,192,26389,1,2,0:0:0:0:
448,192,26389,1,0,0:0:0:0:
192,192,26504,1,0,0:0:0:0:
64,192,26619,1,0,0:0:0:0:
448,192,26735,1,0,0:0:0:0:
64,192,26850,1,8,0:0:0:0:
192,192,26850,1,2,0:0:0:0:
320,192,26966,1,0,0:0:0:0:
448,192,27081,1,0,0:0:0:0:
192,192,27196,1,0,0:0:0:0:
64,192,27312,1,2,0:0:0:0:
448,192,27312,1,0,0:0:0:0:
320,192,27427,1,0,0:0:0:0:
192,192,27543,1,0,0:0:0:0:
320,192,27600,1,0,0:0:0:0:
448,192,27658,1,0,0:0:0:0:
64,192,27773,1,8,0:0:0:0:
192,192,27773,1,2,0:0:0:0:
192,192,27889,1,0,0:0:0:0:
320,192,28004,1,0,0:0:0:0:
320,192,28119,1,0,0:0:0:0:
64,192,28235,1,2,0:0:0:0:
448,192,28235,1,0,0:0:0:0:
192,192,28350,128,0,28466:0:0:0:0:
320,192,28466,128,0,28581:0:0:0:0:
192,192,28581,128,0,28696:0:0:0:0:
64,192,28696,1,8,0:0:0:0:
448,192,28696,1,2,0:0:0:0:
320,192,28812,128,0,28927:0:0:0:0:
192,192,28927,128,0,29043:0:0:0:0:
320,192,29043,128,0,29158:0:0:0:0:
64,192,29158,1,2,0:0:0:0:
448,192,29158,1,0,0:0:0:0:
192,192,29273,128,0,29389:0:0:0:0:
320,192,29389,128,0,29504:0:0:0:0:
448,192,29504,128,0,29619:0:0:0:0:
64,192,29619,1,8,0:0:0:0:
192,192,29619,1,2,0:0:0:0:
320,192,29735,128,0,29850:0:0:0:0:
192,192,29850,128,0,29966:0:0:0:0:
64,192,29966,128,0,30081:0:0:0:0:
448,192,30081,1,2,0:0:0:0:
320,192,30139,1,0,0:0:0:0:
192,192,30196,1,0,0:0:0:0:
64,192,30254,1,0,0:0:0:0:
448,192,30312,1,0,0:0:0:0:
320,192,30369,1,0,0:0:0:0:
192,192,30427,1,0,0:0:0:0:
64,192,30485,1,0,0:0:0:0:
320,192,30543,1,8,0:0:0:0:
448,192,30543,1,2,0:0:0:0:
192,192,30658,1,0,0:0:0:0:
320,192,30773,1,0,0:0:0:0:
64,192,30889,1,0,0:0:0:0:
192,192,31004,1,2,0:0:0:0:
448,192,31004,1,0,0:0:0:0:
320,192,31119,1,0,0:0:0:0:
64,192,31235,1,0,0:0:0:0:
192,192,31293,1,0,0:0:0:0:
320,192,31350,1,0,0:0:0:0:
64,192,31466,1,8,0:0:0:0:
448,192,31466,1,2,0:0:0:0:
64,192,31581,1,0,0:0:0:0:
320,192,31696,1,0,0:0:0:0:
320,192,31812,1,0,0:0:0:0:
64,192,31927,128,2,32158:0:0:0:0:
192,192,31927,1,0,0:0:0:0:
320,192,32043,1,0,0:0:0:0:
448,192,32158,128,0,32389:0:0:0:0:
64,192,32273,1,0,0:0:0:0:
192,192,32389,128,8,32619:0:0:0:0:
320,192,32389,1,2,0:0:0:0:
448,192,32504,1,0,0:0:0:0:
320,192,32619,128,0,32850:0:0:0:0:
448,192,32735,1,0,0:0:0:0:
64,192,32850,128,2,33081:0:0:0:0:
192,192,32850,1,0,0:0:0:25:LR_Clap Reverb.wav
320,192,32966,1,0,0:0:0:0:
448,192,33081,128,0,33312:0:0:0:0:
64,192,33196,1,0,0:0:0:0:
192,192,33312,128,10,33543:0:0:0:0:
320,192,33312,1,0,0:0:0:25:LR_Clap Reverb.wav
64,192,33427,1,0,0:0:0:0:
320,192,33543,128,0,33773:0:0:0:0:
448,192,33658,1,0,0:0:0:0:
64,192,33773,1,2,0:0:0:0:
192,192,33773,1,0,0:0:0:30:LR_Clap Reverb.wav
320,192,33889,1,0,0:0:0:0:
64,192,34004,1,0,0:0:0:30:LR_Clap Reverb.wav
448,192,34004,1,0,0:0:0:0:
192,192,34119,1,0,0:0:0:0:
320,192,34235,1,10,0:0:0:0:
448,192,34235,1,0,0:0:0:30:LR_Clap Reverb.wav
64,192,34350,1,0,0:0:0:0:
192,192,34466,1,0,0:0:0:30:LR_Clap Reverb.wav
320,192,34466,1,0,0:0:0:0:
448,192,34581,1,0,0:0:0:0:
64,192,34696,1,10,0:0:0:0:
192,192,34696,1,0,0:0:0:35:LR_Clap Reverb.wav
320,192,34812,1,0,0:0:0:0:
64,192,34927,1,0,0:0:0:35:LR_Clap Reverb.wav
448,192,34927,1,0,0:0:0:0:
192,192,35043,1,0,0:0:0:0:
320,192,35158,1,10,0:0:0:0:
448,192,35158,1,0,0:0:0:35:LR_Clap Reverb.wav
64,192,35273,1,0,0:0:0:0:
192,192,35389,1,0,0:0:0:35:LR_Clap Reverb.wav
320,192,35389,1,0,0:0:0:0:
448,192,35504,1,0,0:0:0:0:
64,192,35619,1,2,0:0:0:0:
192,192,35619,1,0,0:0:0:45:LR4_ClapLRV.wav
448,192,35677,1,0,0:0:0:45:LR4_ClapLRV.wav
320,192,35735,1,0,0:0:0:45:LR4_ClapLRV.wav
192,192,35793,1,0,0:0:0:45:LR4_ClapLRV.wav
64,192,35850,1,0,0:0:0:45:LR4_ClapLRV.wav
448,192,35908,1,0,0:0:0:45:LR4_ClapLRV.wav
320,192,35966,1,0,0:0:0:45:LR4_ClapLRV.wav
64,192,36023,1,0,0:0:0:45:LR4_ClapLRV.wav
192,192,36081,1,10,0:0:0:0:
320,192,36139,1,0,0:0:0:45:LR4_ClapLRV.wav
448,192,36196,1,0,0:0:0:45:LR4_ClapLRV.wav
64,192,36254,1,0,0:0:0:45:LR4_ClapLRV.wav
192,192,36312,1,0,0:0:0:45:LR4_ClapLRV.wav
320,192,36369,1,0,0:0:0:45:LR4_ClapLRV.wav
64,192,36427,1,0,0:0:0:45:LR4_ClapLRV.wav
192,192,36485,1,0,0:0:0:45:LR4_ClapLRV.wav
448,192,36543,1,2,0:0:0:0:
320,192,36600,1,0,0:0:0:45:LR4_ClapLRV.wav
192,192,36658,1,0,0:0:0:45:LR4_ClapLRV.wav
64,192,36716,1,0,0:0:0:45:LR4_ClapLRV.wav
448,192,36773,1,0,0:0:0:45:LR4_ClapLRV.wav
320,192,36831,1,0,0:0:0:45:LR4_ClapLRV.wav
64,192,36889,1,0,0:0:0:45:LR4_ClapLRV.wav
192,192,36946,1,0,0:0:0:45:LR4_ClapLRV.wav
448,192,37004,1,10,0:0:0:0:
320,192,37062,1,0,0:0:0:45:LR4_ClapLRV.wav
192,192,37119,1,0,0:0:0:45:LR4_ClapLRV.wav
64,192,37177,1,0,0:0:0:45:LR4_ClapLRV.wav
448,192,37235,1,0,0:0:0:45:LR4_ClapLRV.wav
320,192,37293,1,0,0:0:0:45:LR4_ClapLRV.wav
64,192,37350,1,0,0:0:0:45:LR4_ClapLRV.wav
192,192,37408,1,0,0:0:0:45:LR4_ClapLRV.wav
320,192,37466,1,2,0:0:0:0:
448,192,37466,128,4,37927:0:0:0:0:
64,192,37927,128,0,38273:0:0:0:0:
320,192,38273,128,2,38389:0:0:0:0:
448,192,38273,1,0,0:0:0:0:
64,192,38389,1,2,0:0:0:0:
192,192,38389,128,0,38735:0:0:0:0:
448,192,38735,128,0,38850:0:0:0:0:
320,192,38850,128,0,39081:0:0:0:0:
64,192,39081,128,0,39312:0:0:0:0:
192,192,39312,1,2,0:0:0:0:
320,192,39312,128,0,39658:0:0:0:0:
192,192,39658,128,0,39773:0:0:0:0:
448,192,39773,128,0,40235:0:0:0:0:
64,192,40004,1,2,0:0:0:0:
320,192,40004,128,0,40235:0:0:0:0:
64,192,40235,128,2,40466:0:0:0:0:
192,192,40235,1,0,0:0:0:0:
192,192,40466,128,0,40696:0:0:0:0:
448,192,40696,128,0,40927:0:0:0:0:
320,192,40927,128,0,41043:0:0:0:0:
64,192,41043,1,2,0:0:0:0:
448,192,41043,1,0,0:0:0:0:
192,192,41158,128,2,41504:0:0:0:0:
320,192,41158,1,0,0:0:0:0:
64,192,41504,128,0,41619:0:0:0:0:
320,192,41619,128,0,42081:0:0:0:0:
192,192,41850,128,0,42081:0:0:0:0:
64,192,42081,1,2,0:0:0:0:
448,192,42081,128,0,42427:0:0:0:0:
64,192,42427,128,0,42543:0:0:0:0:
192,192,42543,128,0,43004:0:0:0:0:
320,192,42773,128,2,43004:0:0:0:0:
448,192,42773,1,0,0:0:0:0:
64,192,43004,128,2,43235:0:0:0:0:
448,192,43004,1,0,0:0:0:0:
448,192,43235,128,0,43466:0:0:0:0:
320,192,43466,128,0,43696:0:0:0:0:
64,192,43812,128,2,43927:0:0:0:0:
192,192,43812,1,0,0:0:0:0:
320,192,43927,1,2,0:0:0:0:
448,192,43927,128,0,44158:0:0:0:0:
192,192,44158,128,0,44389:0:0:0:0:
320,192,44389,128,0,44619:0:0:0:0:
64,192,44619,128,0,44850:0:0:0:0:
192,192,44850,1,2,0:0:0:0:
448,192,44850,128,0,45081:0:0:0:0:
320,192,45081,128,0,45312:0:0:0:0:
64,192,45312,128,0,45658:0:0:0:0:
192,192,45658,128,2,45773:0:0:0:0:
320,192,45658,1,0,0:0:0:0:
64,192,45773,1,2,0:0:0:0:
448,192,45773,128,0,46235:0:0:0:0:
64,192,46235,128,0,46696:0:0:0:0:
320,192,46466,128,0,46696:0:0:0:0:
192,192,46696,128,2,47158:0:0:0:0:
448,192,46696,1,0,0:0:0:0:
448,192,47158,128,0,47389:0:0:0:0:
64,192,47389,1,2,0:0:0:0:
320,192,47389,1,0,0:0:0:0:
192,192,47504,128,0,47619:0:0:0:0:
64,192,47619,1,2,0:0:0:0:
320,192,47619,128,0,47850:0:0:0:0:
64,192,47850,128,0,47966:0:0:0:0:
64,192,48081,128,0,48312:0:0:0:0:
448,192,48312,128,0,48427:0:0:0:0:
64,192,48427,1,2,0:0:0:0:
320,192,48427,1,0,0:0:0:0:
192,192,48543,128,2,48773:0:0:0:0:
448,192,48543,1,0,0:0:0:0:
320,192,49004,128,0,49235:0:0:0:0:
192,192,49466,128,2,49696:0:0:0:0:
320,192,49466,1,0,0:0:0:0:
64,192,49927,128,0,50389:0:0:0:0:
320,192,50158,1,2,0:0:0:0:
448,192,50158,128,0,50389:0:0:0:0:
192,192,50619,1,0,0:0:0:0:
320,192,50648,1,0,0:0:0:0:
448,192,50677,1,0,0:0:0:0:
64,192,50706,1,0,0:0:0:0:
192,192,50850,128,0,50966:0:0:0:0:
320,192,51081,1,0,0:0:0:0:
192,192,51110,1,0,0:0:0:0:
64,192,51139,1,0,0:0:0:0:
448,192,51168,1,0,0:0:0:0:
320,192,51312,128,0,51427:0:0:0:0:
64,192,51543,1,0,0:0:0:0:
448,192,51571,1,0,0:0:0:0:
320,192,51600,1,0,0:0:0:0:
192,192,51629,1,0,0:0:0:0:
64,192,51773,128,0,51889:0:0:0:0:
448,192,52004,1,0,0:0:0:0:
64,192,52033,1,0,0:0:0:0:
192,192,52062,1,0,0:0:0:0:
320,192,52091,1,0,0:0:0:0:
64,192,52235,1,2,0:0:0:0:
192,192,52235,1,4,0:0:0:0:
448,192,52235,128,0,52696:0:0:0:0:
320,192,52466,1,0,0:0:0:0:
64,192,52696,128,2,52927:0:0:0:0:
192,192,52696,1,0,0:0:0:50:clap2.wav
320,192,52696,1,0,0:0:0:0:
448,192,52927,1,0,0:0:0:0:
320,192,53043,128,0,53158:0:0:0:0:
64,192,53158,1,2,0:0:0:0:
192,192,53158,128,0,53619:0:0:0:0:
448,192,53389,1,0,0:0:0:0:
64,192,53619,1,2,0:0:0:0:
320,192,53619,128,0,53850:0:0:0:50:clap2.wav
448,192,53619,1,0,0:0:0:0:
192,192,53850,1,0,0:0:0:0:
64,192,53966,128,0,54081:0:0:0:0:
320,192,54081,1,2,0:0:0:0:
448,192,54081,128,0,54312:0:0:0:0:
192,192,54312,128,0,54427:0:0:0:0:
64,192,54543,1,2,0:0:0:0:
192,192,54543,1,0,0:0:0:50:clap2.wav
320,192,54543,128,0,54773:0:0:0:0:
192,192,54773,128,0,54889:0:0:0:0:
64,192,55004,128,2,55235:0:0:0:0:
320,192,55004,1,0,0:0:0:0:
448,192,55235,128,0,55466:0:0:0:0:
64,192,55466,1,2,0:0:0:0:
192,192,55466,1,0,0:0:0:50:clap2.wav
320,192,55466,128,0,55696:0:0:0:0:
192,192,55696,128,0,55927:0:0:0:0:
64,192,55927,1,2,0:0:0:0:
448,192,55927,128,0,56158:0:0:0:0:
320,192,56158,1,0,0:0:0:0:
192,192,56273,128,0,56389:0:0:0:0:
64,192,56389,128,2,56619:0:0:0:0:
320,192,56389,1,0,0:0:0:50:clap2.wav
448,192,56389,1,0,0:0:0:0:
320,192,56619,128,0,56850:0:0:0:0:
192,192,56850,128,2,57081:0:0:0:0:
448,192,56850,1,0,0:0:0:0:
64,192,57081,1,0,0:0:0:0:
448,192,57196,128,0,57312:0:0:0:0:
64,192,57312,1,2,0:0:0:0:
192,192,57312,1,0,0:0:0:50:clap2.wav
320,192,57312,128,0,57543:0:0:0:0:
64,192,57543,128,0,57658:0:0:0:0:
64,192,57773,1,2,0:0:0:0:
192,192,57773,128,0,58119:0:0:0:0:
448,192,58004,1,0,0:0:0:0:
320,192,58119,128,0,58235:0:0:0:0:
64,192,58235,128,2,58466:0:0:0:0:
192,192,58235,1,0,0:0:0:50:clap2.wav
448,192,58235,1,0,0:0:0:0:
320,192,58466,1,0,0:0:0:0:
64,192,58696,1,2,0:0:0:0:
448,192,58696,128,0,58927:0:0:0:0:
320,192,58927,128,0,59158:0:0:0:0:
64,192,59158,128,2,59389:0:0:0:0:
192,192,59158,1,0,0:0:0:50:clap2.wav
448,192,59158,1,0,0:0:0:0:
192,192,59389,128,0,59619:0:0:0:45:clap2.wav
320,192,59389,1,0,0:0:0:0:
64,192,59619,1,2,0:0:0:0:
448,192,59619,128,0,59850:0:0:0:0:
320,192,59850,1,0,0:0:0:0:
192,192,59966,128,0,60081:0:0:0:0:
64,192,60081,1,2,0:0:0:0:
320,192,60081,128,0,60312:0:0:0:50:clap2.wav
448,192,60081,1,0,0:0:0:0:
64,192,60312,128,0,60543:0:0:0:0:
320,192,60543,1,2,0:0:0:0:
448,192,60543,128,0,60773:0:0:0:0:
192,192,60773,1,0,0:0:0:0:
448,192,60889,128,0,61004:0:0:0:0:
64,192,61004,128,2,61235:0:0:0:0:
192,192,61004,1,0,0:0:0:50:clap2.wav
320,192,61004,1,0,0:0:0:0:
320,192,61235,128,0,61466:0:0:0:0:
64,192,61466,1,2,0:0:0:0:
192,192,61466,128,0,61812:0:0:0:0:
320,192,61696,1,0,0:0:0:0:
448,192,61812,128,0,61927:0:0:0:0:
64,192,61927,1,2,0:0:0:0:
192,192,61927,1,0,0:0:0:50:clap2.wav
320,192,61927,128,0,62158:0:0:0:0:
64,192,62158,1,0,0:0:0:0:
192,192,62273,128,0,62389:0:0:0:0:
320,192,62389,1,2,0:0:0:0:
448,192,62389,128,0,62850:0:0:0:0:
64,192,62619,1,0,0:0:0:0:
64,192,62850,128,2,62966:0:0:0:0:
192,192,62850,1,0,0:0:0:50:clap2.wav
320,192,62850,1,0,0:0:0:0:
320,192,63081,128,0,63196:0:0:0:0:
64,192,63312,1,2,0:0:0:0:
192,192,63312,128,0,63543:0:0:0:0:
320,192,63543,1,0,0:0:0:0:
192,192,63773,1,2,0:0:0:0:
320,192,63773,128,0,64004:0:0:0:50:clap2.wav
448,192,63773,1,0,0:0:0:0:
64,192,64004,1,0,0:0:0:0:
320,192,64235,1,2,0:0:0:0:
448,192,64235,128,0,64466:0:0:0:0:
192,192,64466,1,0,0:0:0:0:
64,192,64696,1,2,0:0:0:0:
192,192,64696,1,0,0:0:0:50:clap2.wav
320,192,64696,128,0,64812:0:0:0:0:
192,192,64927,128,0,65158:0:0:0:0:
64,192,65158,1,2,0:0:0:0:
320,192,65158,1,0,0:0:0:50:clap2.wav
448,192,65158,1,0,0:0:0:0:
64,192,65389,128,0,65619:0:0:0:0:
192,192,65619,1,2,0:0:0:0:
320,192,65619,1,0,0:0:0:50:clap2.wav
448,192,65619,1,0,0:0:0:0:
64,192,65850,128,0,66196:0:0:0:0:
192,192,66081,128,2,66312:0:0:0:0:
448,192,66081,1,0,0:0:0:50:clap2.wav
64,192,66312,1,2,0:0:0:0:
320,192,66312,128,0,66773:0:0:0:50:clap2.wav
192,192,66427,128,0,67004:0:0:0:0:
64,192,66543,1,2,0:0:0:0:
448,192,66543,1,0,0:0:0:50:clap2.wav
64,192,66773,128,2,67466:0:0:0:0:
448,192,66773,1,0,0:0:0:50:clap2.wav
320,192,67004,1,6,0:0:0:0:
448,192,67004,1,0,0:0:0:70:LR_Long Bass.wav
192,192,67696,128,0,68043:0:0:0:0:
64,192,67927,128,0,68273:0:0:0:0:
192,192,68158,128,0,68619:0:0:0:0:
320,192,68273,128,0,68850:0:0:0:0:
448,192,68619,128,0,69312:0:0:0:0:
64,192,68850,1,2,0:0:0:0:
192,192,68850,1,0,0:0:0:40:LR_Long Bass.wav
320,192,69543,128,0,70119:0:0:0:0:
192,192,69773,128,0,70119:0:0:0:0:
448,192,70119,128,0,70466:0:0:0:0:
64,192,70466,128,0,70696:0:0:0:0:
192,192,70696,128,2,71389:0:0:0:0:
320,192,70696,1,0,0:0:0:40:LR_Long Bass.wav
64,192,71043,128,0,71850:0:0:0:0:
320,192,71389,128,0,71850:0:0:0:0:
448,192,71850,128,0,72312:0:0:0:0:
192,192,72081,128,0,72312:0:0:0:0:
64,192,72312,128,0,72543:0:0:0:0:
320,192,72543,128,2,73466:0:0:0:0:
448,192,72543,1,0,0:0:0:40:LR_Long Bass.wav
192,192,72889,128,0,73235:0:0:0:0:
64,192,73235,128,0,73466:0:0:0:0:
192,192,73696,128,0,73812:0:0:0:0:
192,192,73927,128,0,74043:0:0:0:0:
448,192,74158,128,0,74273:0:0:0:0:
64,192,74389,1,2,0:0:0:0:
192,192,74389,1,0,0:0:0:50:clap2.wav
320,192,74389,1,0,0:0:0:0:
64,192,74850,1,2,0:0:0:0:
192,192,74850,1,0,0:0:0:50:clap2.wav
320,192,74850,1,0,0:0:0:0:
448,192,75081,1,0,0:0:0:0:
64,192,75312,1,2,0:0:0:0:
320,192,75312,1,0,0:0:0:50:clap2.wav
448,192,75312,1,0,0:0:0:0:
64,192,75773,1,2,0:0:0:0:
320,192,75773,1,0,0:0:0:50:clap2.wav
448,192,75773,1,0,0:0:0:0:
192,192,76004,1,0,0:0:0:0:
192,192,76235,1,2,0:0:0:0:
320,192,76235,1,0,0:0:0:50:clap2.wav
448,192,76235,1,0,0:0:0:0:
192,192,76696,1,2,0:0:0:0:
320,192,76696,1,0,0:0:0:50:clap2.wav
448,192,76696,1,0,0:0:0:0:
64,192,76927,1,0,0:0:0:0:
64,192,77158,1,2,0:0:0:0:
192,192,77158,1,0,0:0:0:50:clap2.wav
320,192,77158,1,0,0:0:0:0:
448,192,77504,1,0,0:0:0:0:
64,192,77619,1,2,0:0:0:0:
192,192,77619,1,0,0:0:0:50:clap2.wav
320,192,77619,1,0,0:0:0:0:
192,192,77850,1,2,0:0:0:0:
64,192,78081,1,2,0:0:0:0:
320,192,78081,1,0,0:0:0:50:clap2.wav
448,192,78081,1,0,0:0:0:0:
64,192,78312,1,2,0:0:0:0:
192,192,78312,1,0,0:0:0:50:clap2.wav
448,192,78312,1,0,0:0:0:0:
64,192,78543,1,2,0:0:0:0:
192,192,78543,1,0,0:0:0:50:clap2.wav
320,192,78543,1,0,0:0:0:0:
192,192,78773,1,2,0:0:0:0:
320,192,78773,1,0,0:0:0:50:clap2.wav
448,192,78773,1,0,0:0:0:0:
64,192,79004,1,2,0:0:0:0:
320,192,79004,1,0,0:0:0:50:clap2.wav
448,192,79004,1,0,0:0:0:0:
64,192,79235,1,2,0:0:0:0:
192,192,79235,1,0,0:0:0:50:clap2.wav
448,192,79235,1,0,0:0:0:0:
64,192,79466,1,2,0:0:0:0:
192,192,79466,1,0,0:0:0:50:clap2.wav
320,192,79466,1,0,0:0:0:0:
192,192,79696,1,2,0:0:0:0:
320,192,79696,1,0,0:0:0:50:clap2.wav
448,192,79696,1,0,0:0:0:0:
64,192,81312,1,8,0:0:0:0:
192,192,81312,1,0,0:0:0:60:LR_Snare Wet High.wav
320,192,81312,1,0,0:0:0:0:
448,192,81312,1,0,0:0:0:0:
64,192,81773,128,2,82235:0:0:0:0:
320,192,81773,1,4,0:0:0:0:
448,192,81773,128,0,82004:0:0:0:0:
192,192,82004,1,0,0:0:0:0:
320,192,82119,1,0,0:0:0:0:
192,192,82235,1,8,0:0:0:0:
448,192,82235,128,2,82350:0:0:0:0:
320,192,82350,1,0,0:0:0:0:
448,192,82466,128,0,82696:0:0:0:0:
64,192,82581,1,0,0:0:0:0:
192,192,82696,128,2,83043:0:0:0:0:
320,192,82696,128,0,82927:0:0:0:0:
64,192,82927,128,0,83158:0:0:0:0:
448,192,83043,128,0,83158:0:0:0:0:
192,192,83158,1,8,0:0:0:0:
320,192,83158,128,2,83389:0:0:0:0:
192,192,83273,1,0,0:0:0:0:
64,192,83389,128,0,83619:0:0:0:0:
448,192,83389,1,0,0:0:0:0:
320,192,83504,1,0,0:0:0:0:
192,192,83619,128,2,83850:0:0:0:0:
448,192,83619,128,0,83966:0:0:0:0:
320,192,83850,1,0,0:0:0:0:
64,192,83966,128,0,84081:0:0:0:0:
192,192,84081,1,8,0:0:0:0:
320,192,84081,128,2,84312:0:0:0:0:
64,192,84196,1,0,0:0:0:0:
192,192,84312,128,0,84427:0:0:0:0:
320,192,84427,1,0,0:0:0:0:
64,192,84543,128,2,84773:0:0:0:0:
448,192,84543,128,0,85235:0:0:0:0:
320,192,84773,128,0,85235:0:0:0:0:
64,192,85004,128,8,85235:0:0:0:0:
192,192,85004,1,2,0:0:0:0:
192,192,85235,128,0,85466:0:0:0:0:
64,192,85466,1,2,0:0:0:0:
448,192,85466,128,0,85523:0:0:0:0:
320,192,85523,128,0,85581:0:0:0:0:
192,192,85581,128,0,85639:0:0:0:0:
64,192,85639,128,0,85696:0:0:0:0:
448,192,85696,128,0,85754:0:0:0:0:
320,192,85754,128,0,85812:0:0:0:0:
192,192,85812,128,0,85869:0:0:0:0:
64,192,85869,128,0,85927:0:0:0:0:
320,192,85927,1,2,0:0:0:0:
448,192,85927,128,8,86158:0:0:0:0:
192,192,86043,1,0,0:0:0:0:
320,192,86158,128,0,86389:0:0:0:0:
448,192,86273,1,0,0:0:0:0:
64,192,86389,128,2,86619:0:0:0:0:
192,192,86389,128,0,86850:0:0:0:0:
320,192,86504,1,0,0:0:0:0:
448,192,86619,128,0,86850:0:0:0:0:
320,192,86735,128,0,86850:0:0:0:0:
64,192,86850,128,10,87081:0:0:0:0:
192,192,87081,128,0,87312:0:0:0:0:
320,192,87081,128,0,87196:0:0:0:0:
64,192,87312,1,2,0:0:0:0:
448,192,87312,128,0,87543:0:0:0:0:
320,192,87427,1,0,0:0:0:0:
320,192,87543,1,0,0:0:0:0:
192,192,87658,128,0,87773:0:0:0:0:
64,192,87773,128,8,87889:0:0:0:0:
448,192,87773,1,2,0:0:0:0:
320,192,87812,1,0,0:0:0:0:
192,192,87927,1,0,0:0:0:0:
320,192,87966,1,0,0:0:0:0:
192,192,88081,1,0,0:0:0:0:
64,192,88119,1,0,0:0:0:0:
448,192,88235,128,2,88293:0:0:0:0:
320,192,88293,128,0,88350:0:0:0:0:
64,192,88350,128,0,88408:0:0:0:0:
192,192,88408,128,0,88466:0:0:0:0:
448,192,88466,128,0,88523:0:0:0:0:
320,192,88523,128,0,88581:0:0:0:0:
64,192,88581,128,0,88639:0:0:0:0:
192,192,88639,128,0,88696:0:0:0:0:
320,192,88696,1,8,0:0:0:0:
448,192,88696,1,2,0:0:0:0:
64,192,88927,1,8,0:0:0:0:
192,192,88927,1,0,0:0:0:0:
320,192,89043,1,8,0:0:0:0:
448,192,89043,1,0,0:0:0:0:
64,192,89158,128,2,89389:0:0:0:0:
192,192,89158,128,0,89619:0:0:0:0:
320,192,89158,1,0,0:0:0:0:
448,192,89389,1,0,0:0:0:0:
320,192,89504,1,0,0:0:0:0:
64,192,89619,128,2,89735:0:0:0:0:
448,192,89619,128,8,90081:0:0:0:0:
192,192,89735,1,0,0:0:0:0:
320,192,89850,128,0,90196:0:0:0:0:
64,192,90081,1,2,0:0:0:0:
192,192,90081,1,0,0:0:0:0:
448,192,90196,1,0,0:0:0:0:
320,192,90312,128,0,90543:0:0:0:0:
192,192,90427,128,0,90543:0:0:0:0:
64,192,90543,1,2,0:0:0:0:
448,192,90543,1,8,0:0:0:0:
448,192,90658,1,0,0:0:0:0:
64,192,90773,128,0,91004:0:0:0:0:
320,192,90773,1,0,0:0:0:0:
320,192,90889,1,0,0:0:0:0:
192,192,91004,128,2,91466:0:0:0:0:
448,192,91004,128,0,91235:0:0:0:0:
320,192,91235,1,0,0:0:0:0:
64,192,91350,1,0,0:0:0:0:
320,192,91466,128,8,91581:0:0:0:0:
448,192,91466,128,2,91927:0:0:0:0:
192,192,91581,1,0,0:0:0:0:
64,192,91696,128,0,92043:0:0:0:0:
192,192,91927,1,2,0:0:0:0:
320,192,91927,1,0,0:0:0:0:
64,192,92158,128,0,92389:0:0:0:0:
448,192,92158,128,0,92850:0:0:0:0:
192,192,92389,1,8,0:0:0:0:
320,192,92389,128,2,92850:0:0:0:0:
192,192,92619,128,0,92850:0:0:0:0:
64,192,92850,128,2,92908:0:0:0:0:
192,192,92908,128,0,92966:0:0:0:0:
320,192,92966,128,0,93023:0:0:0:0:
448,192,93023,128,0,93081:0:0:0:0:
64,192,93081,128,0,93139:0:0:0:0:
192,192,93139,128,0,93196:0:0:0:0:
320,192,93196,128,0,93254:0:0:0:0:
448,192,93254,128,0,93312:0:0:0:0:
64,192,93312,128,2,93427:0:0:0:0:
192,192,93312,1,8,0:0:0:0:
320,192,93427,1,0,0:0:0:0:
64,192,93543,128,0,93773:0:0:0:0:
192,192,93658,1,0,0:0:0:0:
320,192,93773,128,2,94004:0:0:0:0:
448,192,93773,128,0,94119:0:0:0:0:
64,192,94004,128,0,94696:0:0:0:0:
192,192,94119,1,0,0:0:0:0:
320,192,94235,128,2,94466:0:0:0:0:
448,192,94235,1,8,0:0:0:0:
192,192,94466,128,0,94696:0:0:0:0:
320,192,94696,1,2,0:0:0:0:
448,192,94696,1,0,0:0:0:0:
64,192,94812,1,8,0:0:0:0:
192,192,94812,1,0,0:0:0:0:
448,192,94927,1,0,0:0:0:0:
192,192,95043,1,0,0:0:0:0:
320,192,95158,1,8,0:0:0:0:
448,192,95158,1,2,0:0:0:0:
64,192,95273,1,0,0:0:0:0:
320,192,95389,1,8,0:0:0:0:
448,192,95389,1,0,0:0:0:0:
320,192,95504,1,8,0:0:0:0:
448,192,95504,1,0,0:0:0:0:
64,192,95619,1,2,0:0:0:0:
192,192,95619,1,0,0:0:0:0:
320,192,95735,1,8,0:0:0:0:
448,192,95735,1,0,0:0:0:0:
64,192,95850,1,8,0:0:0:0:
192,192,95850,1,0,0:0:0:0:
320,192,95966,1,8,0:0:0:0:
448,192,95966,1,0,0:0:0:0:
64,192,96081,1,2,0:0:0:0:
192,192,96081,1,8,0:0:0:0:
64,192,96196,1,8,0:0:0:0:
192,192,96196,1,0,0:0:0:0:
320,192,96312,1,8,0:0:0:0:
448,192,96312,1,0,0:0:0:0:
320,192,96427,1,8,0:0:0:0:
448,192,96427,1,0,0:0:0:0:
64,192,96543,128,4,96773:0:0:0:0:
192,192,96543,1,2,0:0:0:0:
448,192,96543,128,0,97004:0:0:0:0:
320,192,96773,1,0,0:0:0:0:
192,192,96889,1,0,0:0:0:0:
64,192,97004,128,8,97119:0:0:0:0:
320,192,97004,1,2,0:0:0:0:
192,192,97119,1,0,0:0:0:0:
64,192,97235,128,0,97466:0:0:0:0:
448,192,97350,1,0,0:0:0:0:
192,192,97466,128,2,97696:0:0:0:0:
320,192,97466,128,0,97812:0:0:0:0:
448,192,97696,128,0,97927:0:0:0:0:
64,192,97812,128,0,97927:0:0:0:0:
192,192,97927,128,8,98158:0:0:0:0:
320,192,97927,1,2,0:0:0:0:
320,192,98043,1,0,0:0:0:0:
64,192,98158,1,0,0:0:0:0:
448,192,98158,128,0,98389:0:0:0:0:
320,192,98273,1,0,0:0:0:0:
64,192,98389,128,2,98735:0:0:0:0:
192,192,98389,128,0,98619:0:0:0:0:
448,192,98619,1,0,0:0:0:0:
320,192,98735,128,0,98850:0:0:0:0:
64,192,98850,1,2,0:0:0:0:
192,192,98850,128,8,99081:0:0:0:0:
448,192,98850,1,0,0:0:0:0:
320,192,99081,128,0,99196:0:0:0:0:
64,192,99312,128,2,100004:0:0:0:0:
448,192,99312,128,0,99543:0:0:0:0:
192,192,99543,128,0,100004:0:0:0:0:
320,192,99773,1,2,0:0:0:0:
448,192,99773,128,8,100004:0:0:0:0:
320,192,100004,128,0,100235:0:0:0:0:
64,192,100235,128,2,100293:0:0:0:0:
448,192,100235,1,0,0:0:0:0:
192,192,100293,128,0,100350:0:0:0:0:
320,192,100350,128,0,100408:0:0:0:0:
448,192,100408,128,0,100466:0:0:0:0:
64,192,100466,128,0,100523:0:0:0:0:
192,192,100523,128,0,100581:0:0:0:0:
320,192,100581,128,0,100639:0:0:0:0:
448,192,100639,128,0,100696:0:0:0:0:
64,192,100696,1,8,0:0:0:0:
192,192,100696,128,2,100812:0:0:0:0:
320,192,100812,1,0,0:0:0:0:
192,192,100927,128,0,101158:0:0:0:0:
64,192,101043,1,0,0:0:0:0:
320,192,101158,128,2,101619:0:0:0:0:
448,192,101158,128,0,101389:0:0:0:0:
192,192,101273,1,0,0:0:0:0:
64,192,101389,128,0,101619:0:0:0:0:
192,192,101504,128,0,101619:0:0:0:0:
448,192,101619,128,10,101735:0:0:0:0:
320,192,101735,1,0,0:0:0:0:
192,192,101850,128,0,101966:0:0:0:0:
448,192,101850,128,0,102081:0:0:0:0:
64,192,102081,128,2,102312:0:0:0:0:
320,192,102081,1,0,0:0:0:0:
192,192,102196,1,0,0:0:0:0:
192,192,102312,1,0,0:0:0:0:
320,192,102427,128,0,102543:0:0:0:0:
64,192,102543,1,2,0:0:0:0:
448,192,102543,128,8,102658:0:0:0:0:
192,192,102581,1,0,0:0:0:0:
320,192,102696,1,0,0:0:0:0:
192,192,102735,1,0,0:0:0:0:
320,192,102850,1,0,0:0:0:0:
448,192,102889,1,0,0:0:0:0:
64,192,103004,128,2,103062:0:0:0:0:
192,192,103062,128,0,103119:0:0:0:0:
448,192,103119,128,0,103177:0:0:0:0:
320,192,103177,128,0,103235:0:0:0:0:
64,192,103235,128,0,103293:0:0:0:0:
192,192,103293,128,0,103350:0:0:0:0:
448,192,103350,128,0,103408:0:0:0:0:
320,192,103408,128,0,103466:0:0:0:0:
64,192,103466,1,2,0:0:0:0:
192,192,103466,1,8,0:0:0:0:
320,192,103696,1,8,0:0:0:0:
448,192,103696,1,0,0:0:0:0:
64,192,103812,1,8,0:0:0:0:
192,192,103812,1,0,0:0:0:0:
192,192,103927,1,2,0:0:0:0:
320,192,103927,128,0,104389:0:0:0:0:
448,192,103927,128,0,104158:0:0:0:0:
64,192,104158,1,0,0:0:0:0:
192,192,104273,1,0,0:0:0:0:
64,192,104389,128,8,104850:0:0:0:0:
448,192,104389,128,2,104504:0:0:0:0:
320,192,104504,1,0,0:0:0:0:
192,192,104619,128,0,104966:0:0:0:0:
320,192,104850,1,2,0:0:0:0:
448,192,104850,1,0,0:0:0:0:
192,192,105081,128,0,105312:0:0:0:0:
320,192,105196,128,0,105312:0:0:0:0:
64,192,105312,1,8,0:0:0:0:
448,192,105312,1,2,0:0:0:0:
64,192,105427,1,0,0:0:0:0:
192,192,105543,1,0,0:0:0:0:
448,192,105543,128,0,105773:0:0:0:0:
192,192,105658,1,0,0:0:0:0:
64,192,105773,128,2,106004:0:0:0:0:
320,192,105773,128,0,106235:0:0:0:0:
192,192,106004,1,0,0:0:0:0:
448,192,106119,1,0,0:0:0:0:
64,192,106235,128,2,106696:0:0:0:0:
192,192,106235,128,8,106350:0:0:0:0:
320,192,106350,1,0,0:0:0:0:
448,192,106466,128,0,106812:0:0:0:0:
192,192,106696,1,2,0:0:0:0:
320,192,106696,1,0,0:0:0:0:
64,192,106927,128,0,107619:0:0:0:0:
448,192,106927,128,0,107158:0:0:0:0:
192,192,107158,128,2,107619:0:0:0:0:
320,192,107158,1,8,0:0:0:0:
320,192,107389,128,0,107619:0:0:0:0:
448,192,107619,128,2,107677:0:0:0:0:
320,192,107677,128,0,107735:0:0:0:0:
192,192,107735,128,0,107793:0:0:0:0:
64,192,107793,128,0,107850:0:0:0:0:
448,192,107850,128,0,107908:0:0:0:0:
320,192,107908,128,0,107966:0:0:0:0:
192,192,107966,128,0,108023:0:0:0:0:
64,192,108023,128,0,108081:0:0:0:0:
320,192,108081,1,8,0:0:0:0:
448,192,108081,128,2,108196:0:0:0:0:
192,192,108196,1,0,0:0:0:0:
448,192,108312,128,0,108543:0:0:0:0:
320,192,108427,1,0,0:0:0:0:
64,192,108543,128,2,109004:0:0:0:0:
192,192,108543,128,0,108773:0:0:0:0:
448,192,108773,128,0,109466:0:0:0:0:
192,192,109004,128,8,109235:0:0:0:0:
320,192,109004,1,2,0:0:0:0:
320,192,109235,128,0,109466:0:0:0:0:
64,192,109466,1,2,0:0:0:0:
192,192,109466,1,0,0:0:0:0:
320,192,109581,1,8,0:0:0:0:
448,192,109581,1,0,0:0:0:0:
192,192,109696,1,0,0:0:0:0:
320,192,109812,1,0,0:0:0:0:
64,192,109927,1,2,0:0:0:0:
448,192,109927,1,8,0:0:0:0:
192,192,110158,1,8,0:0:0:0:
448,192,110158,1,0,0:0:0:0:
64,192,110273,1,8,0:0:0:0:
320,192,110273,1,0,0:0:0:0:
192,192,110389,1,2,0:0:0:0:
320,192,110389,1,0,0:0:0:0:
64,192,110543,1,8,0:0:0:0:
192,192,110543,1,0,0:0:0:35:Tom1.wav
448,192,110543,1,0,0:0:0:0:
320,192,110696,1,0,0:0:0:40:Tom2.wav
448,192,110696,1,0,0:0:0:0:
64,192,110850,1,0,0:0:0:50:Tom1.wav
192,192,110850,1,0,0:0:0:0:
64,192,111004,1,0,0:0:0:50:Tom2.wav
448,192,111004,1,0,0:0:0:0:
192,192,111158,1,0,0:0:0:40:Tom3.wav
320,192,111158,1,0,0:0:0:0:
64,192,111312,1,2,0:0:0:0:
192,192,111312,1,4,0:0:0:0:
448,192,111312,1,0,0:0:0:0:
320,192,111427,1,0,0:0:0:0:
192,192,111543,1,0,0:0:0:0:
320,192,111658,1,0,0:0:0:0:
64,192,111773,1,8,0:0:0:0:
448,192,111773,1,2,0:0:0:0:
192,192,111889,1,0,0:0:0:0:
320,192,112004,1,0,0:0:0:0:
64,192,112119,1,0,0:0:0:0:
320,192,112235,1,2,0:0:0:0:
448,192,112235,1,0,0:0:0:0:
192,192,112350,1,0,0:0:0:0:
448,192,112466,1,0,0:0:0:0:
320,192,112523,1,0,0:0:0:0:
192,192,112581,1,0,0:0:0:0:
64,192,112696,1,8,0:0:0:0:
320,192,112696,1,2,0:0:0:0:
64,192,112812,1,0,0:0:0:0:
448,192,112927,1,0,0:0:0:0:
448,192,113043,1,0,0:0:0:0:
64,192,113158,1,2,0:0:0:0:
192,192,113158,128,0,113389:0:0:0:0:
448,192,113273,1,0,0:0:0:0:
320,192,113389,128,0,113619:0:0:0:0:
192,192,113504,1,0,0:0:0:0:
64,192,113619,128,8,113850:0:0:0:0:
448,192,113619,1,2,0:0:0:0:
192,192,113735,1,0,0:0:0:0:
448,192,113850,128,0,114081:0:0:0:0:
320,192,113966,1,0,0:0:0:0:
64,192,114081,1,2,0:0:0:0:
192,192,114081,128,0,114312:0:0:0:0:
448,192,114196,1,0,0:0:0:0:
320,192,114312,128,0,114543:0:0:0:0:
192,192,114427,1,0,0:0:0:0:
64,192,114543,128,8,114773:0:0:0:0:
448,192,114543,1,2,0:0:0:0:
192,192,114658,1,0,0:0:0:0:
448,192,114773,128,0,115004:0:0:0:0:
320,192,114889,1,0,0:0:0:0:
64,192,115004,1,2,0:0:0:0:
192,192,115004,1,0,0:0:0:0:
320,192,115119,1,0,0:0:0:0:
448,192,115235,1,0,0:0:0:0:
64,192,115350,1,0,0:0:0:0:
320,192,115466,1,8,0:0:0:0:
448,192,115466,1,2,0:0:0:0:
192,192,115581,1,0,0:0:0:0:
64,192,115696,1,0,0:0:0:0:
320,192,115812,1,0,0:0:0:0:
64,192,115927,1,2,0:0:0:0:
448,192,115927,1,0,0:0:0:0:
192,192,116043,1,0,0:0:0:0:
320,192,116158,1,0,0:0:0:0:
192,192,116216,1,0,0:0:0:0:
64,192,116273,1,0,0:0:0:0:
320,192,116389,1,8,0:0:0:0:
448,192,116389,1,2,0:0:0:0:
320,192,116504,1,0,0:0:0:0:
192,192,116619,1,0,0:0:0:0:
192,192,116735,1,0,0:0:0:0:
64,192,116850,1,2,0:0:0:0:
448,192,116850,1,0,0:0:0:0:
320,192,116966,128,0,117081:0:0:0:0:
192,192,117081,128,0,117196:0:0:0:0:
320,192,117196,128,0,117312:0:0:0:0:
64,192,117312,1,8,0:0:0:0:
448,192,117312,1,2,0:0:0:0:
192,192,117427,128,0,117543:0:0:0:0:
320,192,117543,128,0,117658:0:0:0:0:
192,192,117658,128,0,117773:0:0:0:0:
64,192,117773,1,2,0:0:0:0:
448,192,117773,1,0,0:0:0:0:
320,192,117889,128,0,118004:0:0:0:0:
192,192,118004,128,0,118119:0:0:0:0:
64,192,118119,128,0,118235:0:0:0:0:
320,192,118235,1,8,0:0:0:0:
448,192,118235,1,2,0:0:0:0:
192,192,118350,128,0,118466:0:0:0:0:
320,192,118466,128,0,118581:0:0:0:0:
448,192,118581,128,0,118696:0:0:0:0:
64,192,118696,1,2,0:0:0:0:
192,192,118754,1,0,0:0:0:0:
320,192,118812,1,0,0:0:0:0:
448,192,118869,1,0,0:0:0:0:
64,192,118927,1,0,0:0:0:0:
192,192,118985,1,0,0:0:0:0:
320,192,119043,1,0,0:0:0:0:
448,192,119100,1,0,0:0:0:0:
64,192,119158,1,8,0:0:0:0:
192,192,119158,1,2,0:0:0:0:
320,192,119273,1,0,0:0:0:0:
192,192,119389,1,0,0:0:0:0:
448,192,119504,1,0,0:0:0:0:
64,192,119619,1,2,0:0:0:0:
320,192,119619,1,0,0:0:0:0:
192,192,119735,1,0,0:0:0:0:
448,192,119850,1,0,0:0:0:0:
320,192,119908,1,0,0:0:0:0:
192,192,119966,1,0,0:0:0:0:
64,192,120081,1,8,0:0:0:0:
448,192,120081,1,2,0:0:0:0:
448,192,120196,1,0,0:0:0:0:
192,192,120312,1,0,0:0:0:0:
192,192,120427,1,0,0:0:0:0:
320,192,120543,1,2,0:0:0:0:
448,192,120543,128,0,120773:0:0:0:0:
192,192,120658,1,0,0:0:0:0:
64,192,120773,128,0,121004:0:0:0:0:
448,192,120889,1,0,0:0:0:0:
192,192,121004,1,8,0:0:0:0:
320,192,121004,128,2,121235:0:0:0:0:
448,192,121119,1,0,0:0:0:0:
192,192,121235,128,0,121466:0:0:0:0:
64,192,121350,1,0,0:0:0:0:
320,192,121466,1,2,0:0:0:0:
448,192,121466,128,0,121696:0:0:0:25:LR_Clap Reverb.wav
192,192,121581,1,0,0:0:0:0:
64,192,121696,128,0,121927:0:0:0:0:
448,192,121812,1,0,0:0:0:0:
192,192,121927,1,10,0:0:0:0:
320,192,121927,128,0,122158:0:0:0:25:LR_Clap Reverb.wav
64,192,122043,1,0,0:0:0:0:
192,192,122158,128,0,122389:0:0:0:0:
64,192,122273,1,0,0:0:0:0:
320,192,122389,1,2,0:0:0:0:
448,192,122389,1,0,0:0:0:30:LR_Clap Reverb.wav
192,192,122504,1,0,0:0:0:0:
64,192,122619,1,0,0:0:0:30:LR_Clap Reverb.wav
448,192,122619,1,0,0:0:0:0:
320,192,122735,1,0,0:0:0:0:
64,192,122850,1,10,0:0:0:0:
192,192,122850,1,0,0:0:0:30:LR_Clap Reverb.wav
448,192,122966,1,0,0:0:0:0:
192,192,123081,1,0,0:0:0:30:LR_Clap Reverb.wav
320,192,123081,1,0,0:0:0:0:
64,192,123196,1,0,0:0:0:0:
320,192,123312,1,10,0:0:0:0:
448,192,123312,1,0,0:0:0:35:LR_Clap Reverb.wav
192,192,123427,1,0,0:0:0:0:
64,192,123543,1,0,0:0:0:35:LR_Clap Reverb.wav
448,192,123543,1,0,0:0:0:0:
320,192,123658,1,0,0:0:0:0:
64,192,123773,1,10,0:0:0:0:
192,192,123773,1,0,0:0:0:35:LR_Clap Reverb.wav
448,192,123889,1,0,0:0:0:0:
192,192,124004,1,0,0:0:0:35:LR_Clap Reverb.wav
320,192,124004,1,0,0:0:0:0:
64,192,124119,1,0,0:0:0:0:
320,192,124235,1,2,0:0:0:0:
448,192,124235,1,0,0:0:0:45:LR4_ClapLRV.wav
64,192,124293,1,0,0:0:0:45:LR4_ClapLRV.wav
192,192,124350,1,0,0:0:0:45:LR4_ClapLRV.wav
320,192,124408,1,0,0:0:0:45:LR4_ClapLRV.wav
448,192,124466,1,0,0:0:0:45:LR4_ClapLRV.wav
64,192,124523,1,0,0:0:0:45:LR4_ClapLRV.wav
192,192,124581,1,0,0:0:0:45:LR4_ClapLRV.wav
448,192,124639,1,0,0:0:0:45:LR4_ClapLRV.wav
320,192,124696,1,10,0:0:0:0:
192,192,124754,1,0,0:0:0:45:LR4_ClapLRV.wav
64,192,124812,1,0,0:0:0:45:LR4_ClapLRV.wav
448,192,124869,1,0,0:0:0:45:LR4_ClapLRV.wav
320,192,124927,1,0,0:0:0:45:LR4_ClapLRV.wav
192,192,124985,1,0,0:0:0:45:LR4_ClapLRV.wav
448,192,125043,1,0,0:0:0:45:LR4_ClapLRV.wav
320,192,125100,1,0,0:0:0:45:LR4_ClapLRV.wav
64,192,125158,1,2,0:0:0:0:
192,192,125216,1,0,0:0:0:45:LR4_ClapLRV.wav
320,192,125273,1,0,0:0:0:45:LR4_ClapLRV.wav
448,192,125331,1,0,0:0:0:45:LR4_ClapLRV.wav
64,192,125389,1,0,0:0:0:45:LR4_ClapLRV.wav
192,192,125446,1,0,0:0:0:45:LR4_ClapLRV.wav
448,192,125504,1,0,0:0:0:45:LR4_ClapLRV.wav
320,192,125562,1,0,0:0:0:45:LR4_ClapLRV.wav
64,192,125619,1,10,0:0:0:0:
192,192,125677,1,0,0:0:0:45:LR4_ClapLRV.wav
320,192,125735,1,0,0:0:0:45:LR4_ClapLRV.wav
448,192,125793,1,0,0:0:0:45:LR4_ClapLRV.wav
64,192,125850,1,0,0:0:0:45:LR4_ClapLRV.wav
192,192,125908,1,0,0:0:0:45:LR4_ClapLRV.wav
448,192,125966,1,0,0:0:0:45:LR4_ClapLRV.wav
320,192,126023,1,0,0:0:0:45:LR4_ClapLRV.wav
64,192,126081,128,4,126658:0:0:0:0:
192,192,126081,128,0,126312:0:0:0:45:kick2.wav
448,192,126312,128,0,126427:0:0:0:0:
192,192,126543,128,0,127004:0:0:0:0:
320,192,126543,128,0,126658:0:0:0:0:
64,192,126773,128,0,127004:0:0:0:45:kick2.wav
448,192,126773,128,0,126889:0:0:0:0:
320,192,127235,1,0,0:0:0:0:
320,192,127466,1,0,0:0:0:0:
64,192,127696,128,0,128158:0:0:0:0:
320,192,127927,128,0,128158:0:0:0:45:kick2.wav
448,192,127927,128,0,128504:0:0:0:0:
192,192,128158,128,0,128273:0:0:0:0:
64,192,128389,128,0,128504:0:0:0:0:
320,192,128389,128,0,128850:0:0:0:0:
192,192,128619,128,0,128850:0:0:0:45:kick2.wav
448,192,128619,128,0,128735:0:0:0:0:
64,192,128850,1,0,0:0:0:0:
320,192,129081,1,0,0:0:0:0:
192,192,129312,1,0,0:0:0:0:
448,192,129312,1,0,0:0:0:0:
192,192,129773,128,0,130350:0:0:0:45:kick2.wav
320,192,129773,128,0,130004:0:0:0:0:
64,192,130004,128,0,130119:0:0:0:0:
320,192,130235,128,0,130696:0:0:0:0:
448,192,130235,128,0,130350:0:0:0:0:
64,192,130466,128,0,130581:0:0:0:45:kick2.wav
192,192,130466,128,0,130696:0:0:0:0:
448,192,130696,1,0,0:0:0:0:
448,192,130927,1,0,0:0:0:0:
192,192,131158,1,0,0:0:0:0:
64,192,131389,128,0,131619:0:0:0:0:
192,192,131619,128,0,132196:0:0:0:45:kick2.wav
320,192,131619,128,0,131850:0:0:0:0:
448,192,131850,128,0,131966:0:0:0:0:
64,192,132081,128,0,132196:0:0:0:0:
320,192,132081,128,0,132543:0:0:0:0:
192,192,132312,128,0,132427:0:0:0:45:kick2.wav
448,192,132312,128,0,132543:0:0:0:0:
320,192,133466,128,0,133696:0:0:0:45:kick2.wav
448,192,133466,128,0,134043:0:0:0:0:
64,192,133696,128,0,133812:0:0:0:0:
192,192,133927,128,0,134043:0:0:0:0:
320,192,133927,128,0,134389:0:0:0:0:
64,192,134158,128,0,134273:0:0:0:45:kick2.wav
448,192,134158,128,0,134389:0:0:0:0:
192,192,134619,1,0,0:0:0:0:
192,192,134850,1,0,0:0:0:0:
448,192,135081,128,0,135543:0:0:0:0:
64,192,135312,128,0,135889:0:0:0:45:kick2.wav
192,192,135312,128,0,135543:0:0:0:0:
320,192,135543,128,0,135658:0:0:0:0:
192,192,135773,128,0,136235:0:0:0:0:
448,192,135773,128,0,135889:0:0:0:0:
64,192,136004,128,0,136119:0:0:0:45:kick2.wav
320,192,136004,128,0,136235:0:0:0:0:
448,192,136235,1,0,0:0:0:0:
64,192,136466,1,0,0:0:0:0:
320,192,136696,1,0,0:0:0:0:
192,192,137158,128,0,137389:0:0:0:45:kick2.wav
320,192,137158,128,0,137735:0:0:0:0:
448,192,137389,128,0,137504:0:0:0:0:
64,192,137619,128,0,137735:0:0:0:0:
192,192,137619,128,0,138081:0:0:0:0:
320,192,137850,128,0,138081:0:0:0:45:kick2.wav
448,192,137850,128,0,137966:0:0:0:0:
64,192,138081,1,0,0:0:0:0:
64,192,138312,1,0,0:0:0:0:
320,192,138543,1,0,0:0:0:0:
448,192,138773,128,0,139004:0:0:0:0:
192,192,139004,128,2,139235:0:0:0:0:
320,192,139004,128,0,139581:0:0:0:45:kick2.wav
64,192,139235,128,0,139350:0:0:0:0:
192,192,139466,128,0,139927:0:0:0:0:
448,192,139466,128,0,139581:0:0:0:0:
64,192,139696,128,0,139927:0:0:0:45:kick2.wav
320,192,139696,128,0,139812:0:0:0:0:
64,192,140389,1,8,0:0:0:0:
192,192,140389,1,0,0:0:0:60:LR_Snare Wet High.wav
320,192,140389,1,0,0:0:0:0:
448,192,140389,1,0,0:0:0:0:
64,192,140850,1,2,0:0:0:0:
320,192,140850,1,4,0:0:0:0:
448,192,140850,1,0,0:0:0:0:
192,192,140908,1,0,0:0:0:0:
64,192,141081,1,0,0:0:0:0:
320,192,141196,1,0,0:0:0:0:
448,192,141254,1,0,0:0:0:0:
64,192,141312,1,8,0:0:0:0:
192,192,141312,1,2,0:0:0:0:
320,192,141543,1,0,0:0:0:0:
320,192,141658,1,0,0:0:0:0:
192,192,141773,1,2,0:0:0:0:
448,192,141773,1,8,0:0:0:0:
64,192,141831,1,0,0:0:0:0:
320,192,142004,1,0,0:0:0:0:
192,192,142062,1,0,0:0:0:0:
64,192,142235,1,8,0:0:0:0:
448,192,142235,1,2,0:0:0:0:
320,192,142293,1,0,0:0:0:0:
64,192,142466,1,0,0:0:0:0:
192,192,142466,1,0,0:0:0:0:
64,192,142696,1,2,0:0:0:0:
320,192,142696,1,8,0:0:0:0:
448,192,142754,1,0,0:0:0:0:
192,192,142927,1,0,0:0:0:0:
320,192,143043,1,0,0:0:0:0:
448,192,143100,1,0,0:0:0:0:
64,192,143158,1,8,0:0:0:0:
192,192,143158,1,2,0:0:0:0:
320,192,143389,1,0,0:0:0:0:
320,192,143504,1,0,0:0:0:0:
64,192,143619,1,8,0:0:0:0:
448,192,143619,1,2,0:0:0:0:
64,192,143735,1,0,0:0:0:0:
64,192,143850,1,0,0:0:0:0:
320,192,143966,1,8,0:0:0:0:
448,192,143966,1,0,0:0:0:0:
64,192,144081,1,2,0:0:0:0:
192,192,144081,1,8,0:0:0:0:
320,192,144139,1,0,0:0:0:0:
192,192,144254,1,0,0:0:0:0:
64,192,144312,1,8,0:0:0:0:
448,192,144312,1,0,0:0:0:0:
320,192,144427,1,8,0:0:0:0:
448,192,144427,1,0,0:0:0:0:
64,192,144543,1,2,0:0:0:0:
192,192,144543,1,8,0:0:0:0:
320,192,144600,1,0,0:0:0:0:
448,192,144773,1,0,0:0:0:0:
192,192,144889,1,0,0:0:0:0:
64,192,144946,1,0,0:0:0:0:
320,192,145004,1,8,0:0:0:0:
448,192,145004,1,2,0:0:0:0:
192,192,145235,1,0,0:0:0:0:
192,192,145350,1,0,0:0:0:0:
64,192,145466,1,8,0:0:0:0:
448,192,145466,1,2,0:0:0:0:
320,192,145523,1,0,0:0:0:0:
192,192,145696,1,0,0:0:0:0:
320,192,145754,1,0,0:0:0:0:
64,192,145927,1,8,0:0:0:0:
448,192,145927,1,2,0:0:0:0:
192,192,145985,1,0,0:0:0:0:
448,192,146158,1,0,0:0:0:0:
320,192,146216,1,0,0:0:0:0:
192,192,146389,1,8,0:0:0:0:
448,192,146389,1,2,0:0:0:0:
64,192,146446,1,0,0:0:0:0:
320,192,146619,1,0,0:0:0:0:
192,192,146735,1,0,0:0:0:0:
64,192,146793,1,0,0:0:0:0:
320,192,146850,1,2,0:0:0:0:
448,192,146850,1,8,0:0:0:0:
192,192,147081,1,0,0:0:0:0:
192,192,147196,1,0,0:0:0:0:
64,192,147312,1,2,0:0:0:0:
448,192,147312,1,0,0:0:0:0:
320,192,147389,1,0,0:0:0:0:
64,192,147427,1,8,0:0:0:0:
192,192,147485,1,0,0:0:0:0:
320,192,147543,128,0,147773:0:0:0:0:
448,192,147581,128,0,147735:0:0:0:0:
64,192,147773,1,8,0:0:0:0:
192,192,147773,1,2,0:0:0:0:
448,192,147831,1,0,0:0:0:0:
192,192,147946,1,0,0:0:0:0:
320,192,148004,1,0,0:0:0:0:
64,192,148081,1,0,0:0:0:0:
192,192,148119,1,0,0:0:0:0:
64,192,148235,1,2,0:0:0:0:
192,192,148235,1,4,0:0:0:0:
448,192,148235,1,8,0:0:0:0:
320,192,148293,1,0,0:0:0:0:
64,192,148466,1,0,0:0:0:0:
320,192,148581,1,0,0:0:0:0:
448,192,148639,1,0,0:0:0:0:
64,192,148696,1,8,0:0:0:0:
192,192,148696,1,2,0:0:0:0:
320,192,148927,1,0,0:0:0:0:
320,192,149043,1,0,0:0:0:0:
64,192,149158,1,8,0:0:0:0:
448,192,149158,1,2,0:0:0:0:
192,192,149216,1,0,0:0:0:0:
320,192,149389,1,0,0:0:0:0:
192,192,149446,1,0,0:0:0:0:
64,192,149619,1,8,0:0:0:0:
448,192,149619,1,2,0:0:0:0:
320,192,149677,1,0,0:0:0:0:
64,192,149850,1,0,0:0:0:0:
192,192,149908,1,0,0:0:0:0:
64,192,150081,1,8,0:0:0:0:
320,192,150081,1,2,0:0:0:0:
448,192,150139,1,0,0:0:0:0:
320,192,150312,1,0,0:0:0:0:
192,192,150427,1,0,0:0:0:0:
64,192,150485,1,0,0:0:0:0:
320,192,150543,1,8,0:0:0:0:
448,192,150543,1,2,0:0:0:0:
192,192,150773,1,0,0:0:0:0:
192,192,150889,1,0,0:0:0:0:
64,192,151004,1,8,0:0:0:0:
448,192,151004,1,2,0:0:0:0:
448,192,151119,1,0,0:0:0:0:
448,192,151235,1,0,0:0:0:0:
64,192,151350,1,8,0:0:0:0:
192,192,151350,1,0,0:0:0:0:
320,192,151466,1,2,0:0:0:0:
448,192,151466,1,8,0:0:0:0:
192,192,151523,1,0,0:0:0:0:
320,192,151639,1,0,0:0:0:0:
64,192,151696,1,8,0:0:0:0:
448,192,151696,1,0,0:0:0:0:
64,192,151812,1,8,0:0:0:0:
192,192,151812,1,0,0:0:0:0:
320,192,151927,1,2,0:0:0:0:
448,192,151927,1,8,0:0:0:0:
192,192,151985,1,0,0:0:0:0:
448,192,152158,1,0,0:0:0:0:
192,192,152273,1,0,0:0:0:0:
64,192,152331,1,0,0:0:0:0:
320,192,152389,1,8,0:0:0:0:
448,192,152389,1,2,0:0:0:0:
192,192,152619,1,0,0:0:0:0:
192,192,152735,1,0,0:0:0:0:
64,192,152850,1,8,0:0:0:0:
448,192,152850,1,2,0:0:0:0:
320,192,152908,1,0,0:0:0:0:
192,192,153081,1,0,0:0:0:0:
320,192,153139,1,0,0:0:0:0:
64,192,153312,1,8,0:0:0:0:
448,192,153312,1,2,0:0:0:0:
192,192,153369,1,0,0:0:0:0:
320,192,153543,1,0,0:0:0:0:
192,192,153600,1,0,0:0:0:0:
64,192,153773,128,2,154004:0:0:0:0:
448,192,153773,1,0,0:0:0:0:
64,192,154119,128,0,154350:0:0:0:0:
320,192,154466,128,0,154696:0:0:0:0:
320,192,154812,128,0,155043:0:0:0:0:
64,192,155158,1,8,0:0:0:0:
192,192,155158,1,0,0:0:0:60:LR_Snare Wet High.wav
320,192,155158,1,0,0:0:0:0:
448,192,155158,1,0,0:0:0:0:
64,192,155619,1,6,0:0:0:0:
192,192,155619,1,0,0:0:0:50:kick2.wav
448,192,155619,1,0,0:0:0:30:Tom3.wav
320,192,155850,1,0,0:0:0:0:
192,192,155966,1,0,0:0:0:0:
320,192,156081,1,0,0:0:0:30:soft-hitwhistle.wav
448,192,156081,1,0,0:0:0:25:LR4_ClapLRV.wav
320,192,156312,1,0,0:0:0:45:LR_Clap Reverb.wav
448,192,156312,1,0,0:0:0:0:
192,192,156427,1,0,0:0:0:0:
64,192,156543,1,0,0:0:0:30:soft-hitwhistle.wav
448,192,156543,1,0,0:0:0:25:LR4_ClapLRV.wav
192,192,156773,1,2,0:0:0:0:
320,192,156773,1,0,0:0:0:50:kick2.wav
320,192,156889,1,0,0:0:0:0:
64,192,157004,1,0,0:0:0:30:soft-hitwhistle.wav
192,192,157004,1,0,0:0:0:25:LR4_ClapLRV.wav
448,192,157004,1,0,0:0:0:45:LR_Clap Reverb.wav
192,192,157235,1,0,0:0:0:0:
320,192,157350,1,0,0:0:0:0:
64,192,157466,1,2,0:0:0:0:
448,192,157466,1,0,0:0:0:50:kick2.wav
192,192,157696,1,0,0:0:0:0:
320,192,157812,1,0,0:0:0:0:
64,192,157927,1,0,0:0:0:30:soft-hitwhistle.wav
192,192,157927,1,0,0:0:0:30:LR4_ClapLRV.wav
64,192,158158,1,0,0:0:0:45:LR_Clap Reverb.wav
192,192,158158,1,0,0:0:0:0:
320,192,158273,1,0,0:0:0:0:
64,192,158389,1,0,0:0:0:30:soft-hitwhistle.wav
448,192,158389,1,0,0:0:0:35:LR4_ClapLRV.wav
192,192,158619,1,2,0:0:0:0:
320,192,158619,1,0,0:0:0:50:kick2.wav
192,192,158735,1,0,0:0:0:0:
64,192,158850,1,0,0:0:0:30:soft-hitwhistle.wav
320,192,158850,1,0,0:0:0:35:LR4_ClapLRV.wav
448,192,158850,1,0,0:0:0:45:LR_Clap Reverb.wav
320,192,159081,1,0,0:0:0:0:
64,192,159196,1,2,0:0:0:0:
192,192,159196,1,0,0:0:0:50:kick2.wav
64,192,159312,1,2,0:0:0:0:
320,192,159312,1,0,0:0:0:50:kick2.wav
448,192,159312,1,0,0:0:0:40:LR4_ClapLRV.wav
64,192,159543,1,2,0:0:0:0:
192,192,159543,1,0,0:0:0:40:LR4_ClapLRV.wav
448,192,159543,1,0,0:0:0:0:
64,192,159773,1,2,0:0:0:0:
192,192,159773,1,0,0:0:0:40:LR4_ClapLRV.wav
320,192,159773,1,0,0:0:0:45:LR_Clap Reverb.wav
192,192,160004,1,2,0:0:0:0:
320,192,160004,1,0,0:0:0:40:LR4_ClapLRV.wav
448,192,160004,1,0,0:0:0:45:LR_Clap Reverb.wav
64,192,160235,1,2,0:0:0:0:
320,192,160235,1,0,0:0:0:40:LR4_ClapLRV.wav
448,192,160235,1,0,0:0:0:0:
64,192,160466,1,2,0:0:0:0:
192,192,160466,1,0,0:0:0:50:kick2.wav
320,192,160466,1,0,0:0:0:40:LR4_ClapLRV.wav
64,192,160696,1,2,0:0:0:0:
192,192,160696,1,0,0:0:0:40:LR4_ClapLRV.wav
448,192,160696,1,0,0:0:0:45:LR_Clap Reverb.wav
192,192,160927,1,2,0:0:0:0:
320,192,160927,1,0,0:0:0:40:LR4_ClapLRV.wav
448,192,160927,1,0,0:0:0:0:
64,192,161158,1,2,0:0:0:0:
448,192,161158,1,0,0:0:0:50:kick2.wav
192,192,161216,1,0,0:0:0:45:LR4_ClapLRV.wav
320,192,161273,1,0,0:0:0:45:LR4_ClapLRV.wav
448,192,161331,1,0,0:0:0:45:LR4_ClapLRV.wav
64,192,161389,1,0,0:0:0:45:LR4_ClapLRV.wav
192,192,161446,1,0,0:0:0:45:LR4_ClapLRV.wav
448,192,161504,1,0,0:0:0:45:LR4_ClapLRV.wav
320,192,161562,1,0,0:0:0:45:LR4_ClapLRV.wav
192,192,161619,1,0,0:0:0:45:LR4_ClapLRV.wav
64,192,161677,1,0,0:0:0:45:LR4_ClapLRV.wav
448,192,161735,1,0,0:0:0:45:LR4_ClapLRV.wav
320,192,161793,1,0,0:0:0:45:LR4_ClapLRV.wav
64,192,161850,1,0,0:0:0:45:LR4_ClapLRV.wav
192,192,161908,1,0,0:0:0:45:LR4_ClapLRV.wav
448,192,161966,1,0,0:0:0:45:LR4_ClapLRV.wav
320,192,162023,1,0,0:0:0:45:LR4_ClapLRV.wav
192,192,162081,1,0,0:0:0:0:
64,192,162196,128,0,162889:0:0:0:0:
192,192,162427,128,0,162889:0:0:0:0:
320,192,162543,128,0,162889:0:0:0:0:
64,192,163004,128,2,163466:0:0:0:0:
192,192,163004,1,4,0:0:0:0:
448,192,163004,128,0,163235:0:0:0:0:
320,192,163235,1,0,0:0:0:0:
192,192,163350,1,0,0:0:0:0:
320,192,163466,1,8,0:0:0:0:
448,192,163466,128,2,163812:0:0:0:0:
192,192,163581,1,0,0:0:0:0:
320,192,163696,128,0,163812:0:0:0:0:
64,192,163812,1,0,0:0:0:0:
192,192,163927,128,2,164273:0:0:0:0:
320,192,163927,128,0,164158:0:0:0:0:
64,192,164158,128,0,164504:0:0:0:0:
448,192,164273,128,0,164389:0:0:0:0:
192,192,164389,128,8,164504:0:0:0:0:
320,192,164389,1,2,0:0:0:0:
320,192,164504,1,0,0:0:0:0:
64,192,164619,128,0,164850:0:0:0:0:
192,192,164619,1,0,0:0:0:0:
192,192,164735,1,0,0:0:0:0:
320,192,164850,128,2,165081:0:0:0:0:
448,192,164850,128,0,165196:0:0:0:0:
64,192,165081,1,0,0:0:0:0:
320,192,165196,128,0,165427:0:0:0:0:
64,192,165312,1,8,0:0:0:0:
192,192,165312,128,2,165658:0:0:0:0:
448,192,165312,1,0,0:0:0:0:
320,192,165543,128,0,165658:0:0:0:0:
64,192,165773,128,2,166004:0:0:0:0:
192,192,165773,128,0,166466:0:0:0:0:
320,192,166004,128,0,166466:0:0:0:0:
64,192,166235,1,8,0:0:0:0:
448,192,166235,128,2,166466:0:0:0:0:
64,192,166466,128,0,166696:0:0:0:0:
192,192,166696,1,2,0:0:0:0:
448,192,166696,128,0,166754:0:0:0:0:
320,192,166754,128,0,166812:0:0:0:0:
64,192,166812,128,0,166869:0:0:0:0:
192,192,166869,128,0,166927:0:0:0:0:
320,192,166927,128,0,166985:0:0:0:0:
448,192,166985,128,0,167043:0:0:0:0:
192,192,167043,128,0,167100:0:0:0:0:
64,192,167100,128,0,167158:0:0:0:0:
320,192,167158,128,2,167504:0:0:0:0:
448,192,167158,1,8,0:0:0:0:
192,192,167273,1,0,0:0:0:0:
448,192,167389,128,0,167619:0:0:0:0:
64,192,167504,1,0,0:0:0:0:
192,192,167619,128,2,168081:0:0:0:0:
320,192,167619,128,0,167850:0:0:0:0:
448,192,167735,1,0,0:0:0:0:
64,192,167850,128,0,168081:0:0:0:0:
448,192,167966,128,0,168196:0:0:0:0:
320,192,168081,128,10,168427:0:0:0:0:
64,192,168196,1,0,0:0:0:0:
192,192,168312,128,0,168543:0:0:0:0:
448,192,168312,128,0,168427:0:0:0:0:
64,192,168543,128,2,168889:0:0:0:0:
448,192,168543,1,0,0:0:0:0:
320,192,168658,1,0,0:0:0:0:
320,192,168773,1,0,0:0:0:0:
192,192,168889,128,0,169004:0:0:0:0:
64,192,169004,128,8,169119:0:0:0:0:
448,192,169004,1,2,0:0:0:0:
320,192,169043,1,0,0:0:0:0:
192,192,169158,1,0,0:0:0:0:
320,192,169196,1,0,0:0:0:0:
192,192,169312,1,0,0:0:0:0:
64,192,169350,1,0,0:0:0:0:
448,192,169466,128,2,169523:0:0:0:0:
320,192,169523,128,0,169581:0:0:0:0:
192,192,169581,128,0,169639:0:0:0:0:
64,192,169639,128,0,169696:0:0:0:0:
448,192,169696,128,0,169754:0:0:0:0:
320,192,169754,128,0,169812:0:0:0:0:
192,192,169812,128,0,169869:0:0:0:0:
64,192,169869,128,0,169927:0:0:0:0:
320,192,169927,1,8,0:0:0:0:
448,192,169927,1,2,0:0:0:0:
64,192,170158,1,8,0:0:0:0:
192,192,170158,1,0,0:0:0:0:
320,192,170273,1,8,0:0:0:0:
448,192,170273,1,0,0:0:0:0:
64,192,170389,1,2,0:0:0:0:
192,192,170389,128,0,170850:0:0:0:0:
320,192,170389,128,0,170619:0:0:0:0:
448,192,170619,1,0,0:0:0:0:
320,192,170735,1,0,0:0:0:0:
64,192,170850,128,2,171081:0:0:0:0:
448,192,170850,128,8,171427:0:0:0:0:
192,192,170966,1,0,0:0:0:0:
320,192,171081,128,0,171427:0:0:0:0:
64,192,171312,1,2,0:0:0:0:
192,192,171312,1,0,0:0:0:0:
320,192,171543,128,0,171773:0:0:0:0:
192,192,171658,128,0,171773:0:0:0:0:
64,192,171773,1,2,0:0:0:0:
448,192,171773,1,8,0:0:0:0:
448,192,171889,1,0,0:0:0:0:
64,192,172004,1,0,0:0:0:0:
320,192,172004,128,0,172235:0:0:0:0:
64,192,172119,1,0,0:0:0:0:
192,192,172235,128,2,172696:0:0:0:0:
448,192,172235,128,0,172466:0:0:0:0:
320,192,172466,1,0,0:0:0:0:
64,192,172581,1,0,0:0:0:0:
320,192,172696,128,8,172927:0:0:0:0:
448,192,172696,128,2,173158:0:0:0:0:
192,192,172812,1,0,0:0:0:0:
64,192,172927,128,0,173273:0:0:0:0:
192,192,173158,1,2,0:0:0:0:
320,192,173158,128,0,173850:0:0:0:0:
448,192,173273,1,0,0:0:0:0:
192,192,173389,128,0,173850:0:0:0:0:
64,192,173619,128,8,173850:0:0:0:0:
448,192,173619,1,2,0:0:0:0:
448,192,173850,128,0,174081:0:0:0:0:
64,192,174081,128,2,174139:0:0:0:0:
192,192,174139,128,0,174196:0:0:0:0:
448,192,174196,128,0,174254:0:0:0:0:
320,192,174254,128,0,174312:0:0:0:0:
192,192,174312,128,0,174369:0:0:0:0:
64,192,174369,128,0,174427:0:0:0:0:
320,192,174427,128,0,174485:0:0:0:0:
448,192,174485,128,0,174543:0:0:0:0:
64,192,174543,128,2,174889:0:0:0:0:
192,192,174543,1,8,0:0:0:0:
448,192,174658,1,0,0:0:0:0:
192,192,174773,128,0,175004:0:0:0:0:
320,192,174889,1,0,0:0:0:0:
64,192,175004,128,2,175235:0:0:0:0:
448,192,175004,128,0,175350:0:0:0:0:
320,192,175235,128,0,175927:0:0:0:0:
64,192,175350,1,0,0:0:0:0:
192,192,175466,128,2,175581:0:0:0:0:
448,192,175466,1,8,0:0:0:0:
192,192,175696,128,0,175927:0:0:0:0:
64,192,175927,1,2,0:0:0:0:
448,192,175927,1,0,0:0:0:0:
192,192,176043,1,8,0:0:0:0:
320,192,176043,1,0,0:0:0:0:
64,192,176158,1,0,0:0:0:0:
448,192,176273,1,0,0:0:0:0:
64,192,176389,1,8,0:0:0:0:
192,192,176389,1,2,0:0:0:0:
320,192,176504,1,0,0:0:0:0:
64,192,176619,1,8,0:0:0:0:
192,192,176619,1,0,0:0:0:0:
64,192,176735,1,8,0:0:0:0:
192,192,176735,1,0,0:0:0:0:
320,192,176850,1,2,0:0:0:0:
448,192,176850,1,0,0:0:0:0:
64,192,176966,1,8,0:0:0:0:
192,192,176966,1,0,0:0:0:0:
320,192,177081,1,8,0:0:0:0:
448,192,177081,1,0,0:0:0:0:
64,192,177196,1,8,0:0:0:0:
192,192,177196,1,0,0:0:0:0:
320,192,177312,1,2,0:0:0:0:
448,192,177312,1,8,0:0:0:0:
64,192,177543,1,8,0:0:0:0:
192,192,177543,1,0,0:0:0:0:
64,192,177658,1,8,0:0:0:0:
192,192,177658,1,0,0:0:0:0:
64,192,177773,128,4,178004:0:0:0:0:
320,192,177773,1,2,0:0:0:0:
448,192,177773,128,0,178235:0:0:0:0:
192,192,178004,1,0,0:0:0:0:
320,192,178119,1,0,0:0:0:0:
64,192,178235,128,8,178581:0:0:0:0:
192,192,178235,1,2,0:0:0:0:
320,192,178350,1,0,0:0:0:0:
192,192,178466,128,0,178581:0:0:0:0:
448,192,178581,1,0,0:0:0:0:
192,192,178696,128,2,178927:0:0:0:0:
320,192,178696,128,0,179043:0:0:0:0:
448,192,178927,128,0,179273:0:0:0:0:
64,192,179043,128,0,179158:0:0:0:0:
192,192,179158,1,8,0:0:0:0:
320,192,179158,128,2,179273:0:0:0:0:
192,192,179273,1,0,0:0:0:0:
320,192,179389,1,0,0:0:0:0:
448,192,179389,128,0,179619:0:0:0:0:
320,192,179504,1,0,0:0:0:0:
64,192,179619,128,2,179966:0:0:0:0:
192,192,179619,128,0,179850:0:0:0:0:
448,192,179850,1,0,0:0:0:0:
320,192,179966,128,0,180312:0:0:0:0:
64,192,180081,1,2,0:0:0:0:
192,192,180081,128,8,180427:0:0:0:0:
448,192,180081,1,0,0:0:0:0:
64,192,180312,128,0,180427:0:0:0:0:
320,192,180543,128,2,181235:0:0:0:0:
448,192,180543,128,0,180773:0:0:0:0:
192,192,180773,128,0,181235:0:0:0:0:
64,192,181004,128,2,181235:0:0:0:0:
448,192,181004,1,8,0:0:0:0:
448,192,181235,128,0,181466:0:0:0:0:
64,192,181466,128,2,181523:0:0:0:0:
320,192,181466,1,0,0:0:0:0:
192,192,181523,128,0,181581:0:0:0:0:
448,192,181581,128,0,181639:0:0:0:0:
320,192,181639,128,0,181696:0:0:0:0:
192,192,181696,128,0,181754:0:0:0:0:
64,192,181754,128,0,181812:0:0:0:0:
320,192,181812,128,0,181869:0:0:0:0:
448,192,181869,128,0,181927:0:0:0:0:
64,192,181927,1,8,0:0:0:0:
192,192,181927,128,2,182273:0:0:0:0:
320,192,182043,1,0,0:0:0:0:
64,192,182158,128,0,182273:0:0:0:0:
448,192,182273,1,0,0:0:0:0:
192,192,182389,128,2,182619:0:0:0:0:
320,192,182389,128,0,182850:0:0:0:0:
64,192,182504,1,0,0:0:0:0:
448,192,182619,128,0,182850:0:0:0:0:
64,192,182735,128,0,182966:0:0:0:0:
192,192,182850,128,10,183196:0:0:0:0:
448,192,182966,1,0,0:0:0:0:
64,192,183081,128,0,183196:0:0:0:0:
320,192,183081,128,0,183312:0:0:0:0:
64,192,183312,1,2,0:0:0:0:
448,192,183312,128,0,183658:0:0:0:0:
192,192,183427,1,0,0:0:0:0:
192,192,183543,1,0,0:0:0:0:
320,192,183658,128,0,183773:0:0:0:0:
64,192,183773,1,2,0:0:0:0:
448,192,183773,128,8,183889:0:0:0:0:
192,192,183812,1,0,0:0:0:0:
320,192,183927,1,0,0:0:0:0:
192,192,183966,1,0,0:0:0:0:
320,192,184081,1,0,0:0:0:0:
448,192,184119,1,0,0:0:0:0:
64,192,184235,128,2,184293:0:0:0:0:
192,192,184293,128,0,184350:0:0:0:0:
320,192,184350,128,0,184408:0:0:0:0:
448,192,184408,128,0,184466:0:0:0:0:
64,192,184466,128,0,184523:0:0:0:0:
192,192,184523,128,0,184581:0:0:0:0:
320,192,184581,128,0,184639:0:0:0:0:
448,192,184639,128,0,184696:0:0:0:0:
64,192,184696,1,2,0:0:0:0:
192,192,184696,1,8,0:0:0:0:
320,192,184927,1,8,0:0:0:0:
448,192,184927,1,0,0:0:0:0:
64,192,185043,1,8,0:0:0:0:
192,192,185043,1,0,0:0:0:0:
192,192,185158,128,2,185389:0:0:0:0:
320,192,185158,128,0,185619:0:0:0:0:
448,192,185158,1,0,0:0:0:0:
64,192,185389,1,0,0:0:0:0:
192,192,185504,1,0,0:0:0:0:
64,192,185619,128,8,186196:0:0:0:0:
448,192,185619,128,2,185850:0:0:0:0:
320,192,185735,1,0,0:0:0:0:
192,192,185850,128,0,186196:0:0:0:0:
320,192,186081,1,2,0:0:0:0:
448,192,186081,1,0,0:0:0:0:
192,192,186312,128,0,186543:0:0:0:0:
320,192,186427,128,0,186543:0:0:0:0:
64,192,186543,1,8,0:0:0:0:
448,192,186543,1,2,0:0:0:0:
64,192,186658,1,0,0:0:0:0:
192,192,186773,128,0,187004:0:0:0:0:
448,192,186773,1,0,0:0:0:0:
448,192,186889,1,0,0:0:0:0:
64,192,187004,128,2,187235:0:0:0:0:
320,192,187004,128,0,187466:0:0:0:0:
192,192,187235,1,0,0:0:0:0:
448,192,187350,1,0,0:0:0:0:
64,192,187466,128,2,187927:0:0:0:0:
192,192,187466,128,8,187696:0:0:0:0:
320,192,187581,1,0,0:0:0:0:
448,192,187696,128,0,188043:0:0:0:0:
192,192,187927,128,2,188619:0:0:0:0:
320,192,187927,1,0,0:0:0:0:
64,192,188043,1,0,0:0:0:0:
320,192,188158,128,0,188619:0:0:0:0:
64,192,188389,1,2,0:0:0:0:
448,192,188389,128,8,188619:0:0:0:0:
64,192,188619,128,0,188850:0:0:0:0:
448,192,188850,128,2,188908:0:0:0:0:
320,192,188908,128,0,188966:0:0:0:0:
64,192,188966,128,0,189023:0:0:0:0:
192,192,189023,128,0,189081:0:0:0:0:
320,192,189081,128,0,189139:0:0:0:0:
448,192,189139,128,0,189196:0:0:0:0:
192,192,189196,128,0,189254:0:0:0:0:
64,192,189254,128,0,189312:0:0:0:0:
320,192,189312,128,8,189427:0:0:0:0:
448,192,189312,1,2,0:0:0:0:
64,192,189427,1,0,0:0:0:0:
320,192,189543,128,0,189773:0:0:0:0:
192,192,189658,1,0,0:0:0:0:
64,192,189773,128,2,190119:0:0:0:0:
448,192,189773,128,0,190004:0:0:0:0:
192,192,190004,128,0,190696:0:0:0:0:
448,192,190119,1,0,0:0:0:0:
64,192,190235,1,8,0:0:0:0:
320,192,190235,128,2,190466:0:0:0:0:
64,192,190466,128,0,190696:0:0:0:0:
320,192,190696,1,2,0:0:0:0:
448,192,190696,1,0,0:0:0:0:
64,192,190812,1,8,0:0:0:0:
192,192,190812,1,0,0:0:0:0:
320,192,190927,1,0,0:0:0:0:
192,192,191043,1,0,0:0:0:0:
64,192,191158,1,2,0:0:0:0:
448,192,191158,1,8,0:0:0:0:
64,192,191389,1,8,0:0:0:0:
320,192,191389,1,0,0:0:0:0:
192,192,191504,1,8,0:0:0:0:
448,192,191504,1,0,0:0:0:0:
192,192,191619,1,2,0:0:0:0:
320,192,191619,1,0,0:0:0:0:
64,192,191773,1,8,0:0:0:0:
320,192,191773,1,0,0:0:0:35:Tom1.wav
448,192,191773,1,0,0:0:0:0:
64,192,191927,1,0,0:0:0:40:Tom2.wav
192,192,191927,1,0,0:0:0:0:
320,192,192081,1,0,0:0:0:50:Tom1.wav
448,192,192081,1,0,0:0:0:0:
64,192,192235,1,0,0:0:0:50:Tom2.wav
448,192,192235,1,0,0:0:0:0:
192,192,192389,1,0,0:0:0:40:Tom3.wav
320,192,192389,1,0,0:0:0:0:
64,192,192543,1,2,0:0:0:0:
320,192,192543,1,4,0:0:0:0:
448,192,192543,1,0,0:0:0:0:
192,192,192658,1,0,0:0:0:0:
320,192,192773,1,0,0:0:0:0:
192,192,192889,1,0,0:0:0:0:
64,192,193004,1,10,0:0:0:0:
448,192,193004,1,0,0:0:0:40:clap2.wav
320,192,193119,1,0,0:0:0:0:
192,192,193235,1,0,0:0:0:0:
448,192,193350,1,0,0:0:0:0:
64,192,193466,1,2,0:0:0:0:
192,192,193466,1,0,0:0:0:0:
320,192,193581,1,0,0:0:0:0:
64,192,193696,1,0,0:0:0:0:
192,192,193754,1,0,0:0:0:0:
320,192,193812,1,0,0:0:0:0:
64,192,193927,1,10,0:0:0:0:
448,192,193927,1,0,0:0:0:40:clap2.wav
448,192,194043,1,0,0:0:0:0:
192,192,194158,1,0,0:0:0:0:
192,192,194273,1,0,0:0:0:0:
320,192,194389,128,2,194619:0:0:0:0:
448,192,194389,1,0,0:0:0:0:
64,192,194504,1,0,0:0:0:0:
192,192,194619,128,0,194850:0:0:0:0:
320,192,194735,1,0,0:0:0:0:
64,192,194850,1,10,0:0:0:0:
448,192,194850,128,0,195081:0:0:0:40:clap2.wav
320,192,194966,1,0,0:0:0:0:
64,192,195081,128,0,195312:0:0:0:0:
192,192,195196,1,0,0:0:0:0:
320,192,195312,128,2,195543:0:0:0:0:
448,192,195312,1,0,0:0:0:0:
64,192,195427,1,0,0:0:0:0:
192,192,195543,128,0,195773:0:0:0:0:
320,192,195658,1,0,0:0:0:0:
64,192,195773,1,10,0:0:0:0:
448,192,195773,128,0,196004:0:0:0:40:clap2.wav
320,192,195889,1,0,0:0:0:0:
64,192,196004,128,0,196235:0:0:0:0:
192,192,196119,1,0,0:0:0:0:
320,192,196235,1,2,0:0:0:0:
448,192,196235,1,0,0:0:0:0:
192,192,196350,1,0,0:0:0:0:
64,192,196466,1,0,0:0:0:0:
448,192,196581,1,0,0:0:0:0:
64,192,196696,1,10,0:0:0:0:
192,192,196696,1,0,0:0:0:40:clap2.wav
320,192,196812,1,0,0:0:0:0:
448,192,196927,1,0,0:0:0:0:
192,192,197043,1,0,0:0:0:0:
64,192,197158,1,2,0:0:0:0:
448,192,197158,1,0,0:0:0:0:
320,192,197273,1,0,0:0:0:0:
192,192,197389,1,0,0:0:0:0:
320,192,197446,1,0,0:0:0:0:
448,192,197504,1,0,0:0:0:0:
64,192,197619,1,10,0:0:0:0:
192,192,197619,1,0,0:0:0:40:clap2.wav
192,192,197735,1,0,0:0:0:0:
320,192,197850,1,0,0:0:0:0:
320,192,197966,1,0,0:0:0:0:
64,192,198081,1,2,0:0:0:0:
448,192,198081,1,0,0:0:0:0:
192,192,198196,128,0,198312:0:0:0:0:
320,192,198312,128,0,198427:0:0:0:0:
192,192,198427,128,0,198543:0:0:0:0:
64,192,198543,1,10,0:0:0:0:
448,192,198543,1,0,0:0:0:40:clap2.wav
320,192,198658,128,0,198773:0:0:0:0:
192,192,198773,128,0,198889:0:0:0:0:
320,192,198889,128,0,199004:0:0:0:0:
64,192,199004,1,2,0:0:0:0:
448,192,199004,1,0,0:0:0:0:
192,192,199119,128,0,199235:0:0:0:0:
320,192,199235,128,0,199350:0:0:0:0:
448,192,199350,128,0,199466:0:0:0:0:
64,192,199466,1,10,0:0:0:0:
192,192,199466,1,0,0:0:0:40:clap2.wav
320,192,199581,128,0,199696:0:0:0:0:
192,192,199696,128,0,199812:0:0:0:0:
64,192,199812,128,0,199927:0:0:0:0:
448,192,199927,1,2,0:0:0:0:
320,192,199985,1,0,0:0:0:0:
192,192,200043,1,0,0:0:0:0:
64,192,200100,1,0,0:0:0:0:
448,192,200158,1,0,0:0:0:0:
320,192,200216,1,0,0:0:0:0:
192,192,200273,1,0,0:0:0:0:
64,192,200331,1,0,0:0:0:0:
320,192,200389,1,10,0:0:0:0:
448,192,200389,1,0,0:0:0:40:clap2.wav
192,192,200504,1,0,0:0:0:0:
320,192,200619,1,0,0:0:0:0:
64,192,200735,1,0,0:0:0:0:
192,192,200850,1,2,0:0:0:0:
448,192,200850,1,0,0:0:0:0:
320,192,200966,1,0,0:0:0:0:
64,192,201081,1,0,0:0:0:0:
192,192,201139,1,0,0:0:0:0:
320,192,201196,1,0,0:0:0:0:
64,192,201312,1,10,0:0:0:0:
448,192,201312,1,0,0:0:0:40:clap2.wav
64,192,201427,1,0,0:0:0:0:
320,192,201543,1,0,0:0:0:0:
320,192,201658,1,0,0:0:0:0:
64,192,201773,128,2,202004:0:0:0:0:
192,192,201773,1,0,0:0:0:0:
320,192,201889,1,0,0:0:0:0:
448,192,202004,128,0,202235:0:0:0:0:
64,192,202119,1,0,0:0:0:0:
192,192,202235,128,10,202466:0:0:0:0:
320,192,202235,1,0,0:0:0:40:clap2.wav
64,192,202350,1,0,0:0:0:0:
320,192,202466,128,0,202696:0:0:0:0:
448,192,202581,1,0,0:0:0:0:
64,192,202696,128,2,202927:0:0:0:0:
192,192,202696,1,0,0:0:0:25:LR_Clap Reverb.wav
320,192,202812,1,0,0:0:0:0:
448,192,202927,128,0,203158:0:0:0:0:
64,192,203043,1,0,0:0:0:0:
192,192,203158,128,10,203389:0:0:0:0:
320,192,203158,1,0,0:0:0:40:clap2.wav
448,192,203273,1,0,0:0:0:0:
320,192,203389,128,0,203619:0:0:0:0:
448,192,203504,1,0,0:0:0:0:
64,192,203619,1,2,0:0:0:0:
192,192,203619,1,0,0:0:0:30:LR_Clap Reverb.wav
320,192,203735,1,0,0:0:0:0:
64,192,203850,1,0,0:0:0:30:LR_Clap Reverb.wav
448,192,203850,1,0,0:0:0:0:
192,192,203966,1,0,0:0:0:0:
320,192,204081,1,10,0:0:0:0:
448,192,204081,1,0,0:0:0:30:LR_Clap Reverb.wav
64,192,204196,1,0,0:0:0:0:
192,192,204312,1,0,0:0:0:30:LR_Clap Reverb.wav
320,192,204312,1,0,0:0:0:0:
448,192,204427,1,0,0:0:0:0:
64,192,204543,1,10,0:0:0:0:
192,192,204543,1,0,0:0:0:35:LR_Clap Reverb.wav
320,192,204658,1,0,0:0:0:0:
64,192,204773,1,0,0:0:0:35:LR_Clap Reverb.wav
448,192,204773,1,0,0:0:0:0:
192,192,204889,1,0,0:0:0:0:
320,192,205004,1,10,0:0:0:0:
448,192,205004,1,0,0:0:0:35:LR_Clap Reverb.wav
64,192,205119,1,0,0:0:0:0:
192,192,205235,1,0,0:0:0:35:LR_Clap Reverb.wav
320,192,205235,1,0,0:0:0:0:
448,192,205350,1,0,0:0:0:0:
64,192,205466,1,2,0:0:0:0:
192,192,205466,1,0,0:0:0:45:LR4_ClapLRV.wav
448,192,205523,1,0,0:0:0:45:LR4_ClapLRV.wav
320,192,205581,1,0,0:0:0:45:LR4_ClapLRV.wav
192,192,205639,1,0,0:0:0:45:LR4_ClapLRV.wav
64,192,205696,1,0,0:0:0:45:LR4_ClapLRV.wav
448,192,205754,1,0,0:0:0:45:LR4_ClapLRV.wav
320,192,205812,1,0,0:0:0:45:LR4_ClapLRV.wav
64,192,205869,1,0,0:0:0:45:LR4_ClapLRV.wav
192,192,205927,1,10,0:0:0:0:
320,192,205985,1,0,0:0:0:45:LR4_ClapLRV.wav
448,192,206043,1,0,0:0:0:45:LR4_ClapLRV.wav
64,192,206100,1,0,0:0:0:45:LR4_ClapLRV.wav
192,192,206158,1,0,0:0:0:45:LR4_ClapLRV.wav
320,192,206216,1,0,0:0:0:45:LR4_ClapLRV.wav
64,192,206273,1,0,0:0:0:45:LR4_ClapLRV.wav
192,192,206331,1,0,0:0:0:45:LR4_ClapLRV.wav
448,192,206389,1,2,0:0:0:0:
320,192,206446,1,0,0:0:0:45:LR4_ClapLRV.wav
192,192,206504,1,0,0:0:0:45:LR4_ClapLRV.wav
64,192,206562,1,0,0:0:0:45:LR4_ClapLRV.wav
448,192,206619,1,0,0:0:0:45:LR4_ClapLRV.wav
320,192,206677,1,0,0:0:0:45:LR4_ClapLRV.wav
64,192,206735,1,0,0:0:0:45:LR4_ClapLRV.wav
192,192,206793,1,0,0:0:0:45:LR4_ClapLRV.wav
448,192,206850,1,10,0:0:0:0:
320,192,206908,1,0,0:0:0:45:LR4_ClapLRV.wav
192,192,206966,1,0,0:0:0:45:LR4_ClapLRV.wav
64,192,207023,1,0,0:0:0:45:LR4_ClapLRV.wav
448,192,207081,1,0,0:0:0:45:LR4_ClapLRV.wav
320,192,207139,1,0,0:0:0:45:LR4_ClapLRV.wav
64,192,207196,1,0,0:0:0:45:LR4_ClapLRV.wav
192,192,207254,1,0,0:0:0:45:LR4_ClapLRV.wav
320,192,207312,1,4,0:0:0:0:
448,192,207312,128,2,207773:0:0:0:45:kick2.wav
64,192,207543,1,0,0:0:0:0:
320,192,207773,1,0,0:0:0:0:
64,192,208004,1,0,0:0:0:15:kick2.wav
192,192,208004,1,0,0:0:0:0:
320,192,208466,1,0,0:0:0:0:
320,192,208696,1,0,0:0:0:0:
192,192,208927,1,0,0:0:0:0:
64,192,209158,1,0,0:0:0:15:kick2.wav
448,192,209158,1,0,0:0:0:0:
320,192,209389,1,0,0:0:0:0:
64,192,209619,1,0,0:0:0:0:
192,192,209850,1,0,0:0:0:15:kick2.wav
448,192,209850,1,0,0:0:0:0:
320,192,210081,128,0,210427:0:0:0:0:
192,192,210543,128,0,210889:0:0:0:0:
64,192,211004,1,0,0:0:0:15:kick2.wav
320,192,211004,1,0,0:0:0:0:
448,192,211235,1,0,0:0:0:0:
192,192,211466,1,0,0:0:0:0:
320,192,211696,1,0,0:0:0:15:kick2.wav
448,192,211696,1,0,0:0:0:0:
64,192,211927,1,0,0:0:0:0:
64,192,212158,1,0,0:0:0:0:
448,192,212389,1,0,0:0:0:0:
320,192,212619,1,0,0:0:0:0:
64,192,212850,1,0,0:0:0:15:kick2.wav
192,192,212850,1,0,0:0:0:0:
448,192,213081,1,0,0:0:0:0:
64,192,213312,1,0,0:0:0:0:
192,192,213543,1,0,0:0:0:15:kick2.wav
320,192,213543,1,0,0:0:0:0:
320,192,214696,1,0,0:0:0:15:kick2.wav
448,192,214696,1,0,0:0:0:0:
64,192,214927,1,0,0:0:0:0:
448,192,215158,1,0,0:0:0:0:
192,192,215389,1,0,0:0:0:15:kick2.wav
320,192,215389,1,0,0:0:0:0:
64,192,215619,1,0,0:0:0:0:
320,192,215850,1,0,0:0:0:0:
320,192,216081,1,0,0:0:0:0:
192,192,216312,1,0,0:0:0:0:
64,192,216543,1,0,0:0:0:15:kick2.wav
448,192,216543,1,0,0:0:0:0:
320,192,216773,1,0,0:0:0:0:
192,192,217004,1,0,0:0:0:0:
320,192,217235,1,0,0:0:0:15:kick2.wav
448,192,217235,1,0,0:0:0:0:
64,192,217466,128,0,217812:0:0:0:0:
192,192,217927,128,0,218273:0:0:0:0:
320,192,218389,1,0,0:0:0:15:kick2.wav
448,192,218389,1,0,0:0:0:0:
64,192,218619,1,0,0:0:0:0:
448,192,218850,1,0,0:0:0:0:
64,192,219081,1,0,0:0:0:15:kick2.wav
192,192,219081,1,0,0:0:0:0:
320,192,219312,1,0,0:0:0:0:
320,192,219543,1,0,0:0:0:0:
192,192,219773,1,0,0:0:0:0:
448,192,220004,1,0,0:0:0:0:
64,192,220235,1,0,0:0:0:15:kick2.wav
192,192,220235,1,0,0:0:0:0:
320,192,220927,1,0,0:0:0:15:kick2.wav
448,192,220927,1,0,0:0:0:0:
