osu file format v14

[General]
AudioFilename: audio.mp3
AudioLeadIn: 0
PreviewTime: 81764
Countdown: 1
SampleSet: Normal
StackLeniency: 0.7
Mode: 3
LetterboxInBreaks: 0
SpecialStyle: 0
WidescreenStoryboard: 0

[Editor]
Bookmarks: -41,15304,22688,37457,52226,65726,81302,96533,103917,111302,126071,140840,155609,162993,177762,192531,207300
DistanceSpacing: 0.8
BeatDivisor: 4
GridSize: 16
TimelineZoom: 1.8

[Metadata]
Title:Sunset March
TitleUnicode:サンセットマーチ
Artist:sana
ArtistUnicode:鎖那
Creator:Chromaggus
Version:Stroll
Source:
Tags:
BeatmapID:1521424
BeatmapSetID:720598

[Difficulty]
HPDrainRate:8
CircleSize:4
OverallDifficulty:7
ApproachRate:5
SliderMultiplier:1.4
SliderTickRate:1

[Events]
//Background and Video events
0,0,"Sunset March.jpg",0,0
//Break Periods
//Storyboard Layer 0 (Background)
//Storyboard Layer 1 (Fail)
//Storyboard Layer 2 (Pass)
//Storyboard Layer 3 (Foreground)
//Storyboard Layer 4 (Overlay)
//Storyboard Sound Samples

[TimingPoints]
535.328524802145,461.538461538462,4,1,0,50,1,0

[HitObjects]
448,192,535,5,0,0:0:0:0:
64,192,535,1,0,0:0:0:0:
320,192,766,1,0,0:0:0:0:
192,192,996,1,0,0:0:0:0:
448,192,1227,1,0,0:0:0:0:
320,192,1458,1,0,0:0:0:0:
64,192,1689,1,0,0:0:0:0:
448,192,1919,1,0,0:0:0:0:
192,192,2150,1,0,0:0:0:0:
320,192,2381,1,0,0:0:0:0:
64,192,2381,1,0,0:0:0:0:
192,192,2612,1,0,0:0:0:0:
448,192,2842,1,0,0:0:0:0:
192,192,3073,1,0,0:0:0:0:
320,192,3304,1,0,0:0:0:0:
64,192,3535,1,0,0:0:0:0:
448,192,3766,1,0,0:0:0:0:
320,192,3996,1,0,0:0:0:0:
64,192,4227,1,0,0:0:0:0:
192,192,4227,1,0,0:0:0:0:
320,192,4458,1,0,0:0:0:0:
448,192,4689,1,0,0:0:0:0:
192,192,4919,1,0,0:0:0:0:
64,192,5150,1,0,0:0:0:0:
320,192,5381,1,0,0:0:0:0:
192,192,5612,1,0,0:0:0:0:
64,192,5842,1,0,0:0:0:0:
320,192,6073,1,0,0:0:0:0:
448,192,6073,1,0,0:0:0:0:
320,192,6419,1,0,0:0:0:0:
192,192,6535,1,0,0:0:0:0:
192,192,6881,1,0,0:0:0:0:
320,192,6996,1,0,0:0:0:0:
192,192,7227,1,0,0:0:0:0:
64,192,7458,1,0,0:0:0:0:
192,192,7689,1,0,0:0:0:0:
64,192,7919,128,0,9765:0:0:0:0:
448,192,7919,1,0,0:0:0:0:
320,192,8150,1,0,0:0:0:0:
192,192,8266,1,0,0:0:0:0:
448,192,8381,1,0,0:0:0:0:
192,192,8612,1,0,0:0:0:0:
320,192,8842,1,0,0:0:0:0:
448,192,9073,1,0,0:0:0:0:
192,192,9304,1,0,0:0:0:0:
448,192,9535,1,0,0:0:0:0:
448,192,9765,128,0,11612:0:0:0:0:
320,192,9765,1,0,0:0:0:0:
64,192,9996,1,0,0:0:0:0:
320,192,10112,1,0,0:0:0:0:
192,192,10227,1,0,0:0:0:0:
320,192,10458,1,0,0:0:0:0:
64,192,10688,1,0,0:0:0:0:
320,192,10919,1,0,0:0:0:0:
192,192,11150,1,0,0:0:0:0:
192,192,11381,1,0,0:0:0:0:
320,192,11612,128,0,13458:0:0:0:0:
64,192,11612,1,0,0:0:0:0:
448,192,11843,1,0,0:0:0:0:
64,192,11958,1,0,0:0:0:0:
192,192,12073,1,0,0:0:0:0:
64,192,12304,1,0,0:0:0:0:
448,192,12535,1,0,0:0:0:0:
192,192,12766,1,0,0:0:0:0:
448,192,12996,1,0,0:0:0:0:
192,192,13227,1,0,0:0:0:0:
192,192,13458,128,0,15304:0:0:0:0:
64,192,13458,1,0,0:0:0:0:
448,192,13689,1,0,0:0:0:0:
64,192,13919,1,0,0:0:0:0:
320,192,14150,1,0,0:0:0:0:
448,192,14381,1,0,0:0:0:0:
64,192,14612,1,0,0:0:0:0:
320,192,14842,1,0,0:0:0:0:
320,192,15073,1,0,0:0:0:0:
64,192,15304,1,0,0:0:0:0:
448,192,15304,1,0,0:0:0:0:
320,192,15304,1,0,0:0:0:0:
320,192,15535,1,0,0:0:0:0:
192,192,15765,1,0,0:0:0:0:
64,192,15996,1,0,0:0:0:0:
192,192,16227,1,0,0:0:0:0:
320,192,16227,1,0,0:0:0:0:
448,192,16458,1,0,0:0:0:0:
320,192,16688,1,0,0:0:0:0:
192,192,16688,1,0,0:0:0:0:
64,192,16919,1,0,0:0:0:0:
448,192,17150,1,0,0:0:0:0:
192,192,17150,1,0,0:0:0:0:
320,192,17150,1,0,0:0:0:0:
64,192,17381,1,0,0:0:0:0:
448,192,17611,1,0,0:0:0:0:
320,192,17612,1,0,0:0:0:0:
192,192,17842,1,0,0:0:0:0:
448,192,18073,1,0,0:0:0:0:
64,192,18073,1,0,0:0:0:0:
320,192,18304,1,0,0:0:0:0:
64,192,18534,1,0,0:0:0:0:
192,192,18765,1,0,0:0:0:0:
320,192,18996,1,0,0:0:0:0:
64,192,18996,1,0,0:0:0:0:
448,192,18996,1,0,0:0:0:0:
192,192,19227,1,0,0:0:0:0:
192,192,19458,1,0,0:0:0:0:
64,192,19688,1,0,0:0:0:0:
448,192,19919,1,0,0:0:0:0:
192,192,19919,1,0,0:0:0:0:
320,192,20150,1,0,0:0:0:0:
192,192,20381,1,0,0:0:0:0:
64,192,20611,1,0,0:0:0:0:
64,192,20842,1,0,0:0:0:0:
192,192,20958,1,0,0:0:0:0:
320,192,21073,1,0,0:0:0:0:
448,192,21188,1,0,0:0:0:0:
64,192,21304,1,0,0:0:0:0:
192,192,21419,1,0,0:0:0:0:
320,192,21534,1,0,0:0:0:0:
192,192,21650,1,0,0:0:0:0:
64,192,21765,128,0,22688:0:0:0:0:
448,192,21765,128,0,22688:0:0:0:0:
320,192,22688,1,0,0:0:0:0:
320,192,22919,1,0,0:0:0:0:
64,192,23150,1,0,0:0:0:0:
192,192,23381,1,0,0:0:0:0:
448,192,23611,1,0,0:0:0:0:
320,192,23842,1,0,0:0:0:0:
64,192,24073,1,0,0:0:0:0:
448,192,24304,1,0,0:0:0:0:
320,192,24419,1,0,0:0:0:0:
192,192,24534,128,0,24765:0:0:0:0:
320,192,24765,128,0,24996:0:0:0:0:
192,192,24996,128,0,25227:0:0:0:0:
320,192,25227,128,0,25457:0:0:0:0:
64,192,25457,128,0,25688:0:0:0:0:
192,192,25688,128,0,25919:0:0:0:0:
448,192,25919,128,0,26150:0:0:0:0:
320,192,26150,128,0,26380:0:0:0:0:
64,192,26380,1,0,0:0:0:0:
192,192,26381,1,0,0:0:0:0:
448,192,26611,1,0,0:0:0:0:
192,192,26842,1,0,0:0:0:0:
320,192,27073,1,0,0:0:0:0:
64,192,27304,1,0,0:0:0:0:
192,192,27534,1,0,0:0:0:0:
448,192,27765,1,0,0:0:0:0:
320,192,27996,1,0,0:0:0:0:
192,192,28111,1,0,0:0:0:0:
64,192,28227,128,0,28919:0:0:0:0:
192,192,28457,1,0,0:0:0:0:
320,192,28688,1,0,0:0:0:0:
448,192,28919,128,0,29611:0:0:0:0:
64,192,29150,1,0,0:0:0:0:
320,192,29380,1,0,0:0:0:0:
64,192,29611,128,0,30073:0:0:0:0:
448,192,29842,1,0,0:0:0:0:
320,192,30073,1,0,0:0:0:0:
192,192,30303,1,0,0:0:0:0:
320,192,30534,1,0,0:0:0:0:
448,192,30765,1,0,0:0:0:0:
64,192,30996,1,0,0:0:0:0:
192,192,31227,1,0,0:0:0:0:
320,192,31457,1,0,0:0:0:0:
448,192,31688,1,0,0:0:0:0:
64,192,31919,128,0,32150:0:0:0:0:
192,192,31919,1,0,0:0:0:0:
448,192,32150,128,0,32380:0:0:0:0:
64,192,32380,128,0,32611:0:0:0:0:
448,192,32611,128,0,32842:0:0:0:0:
192,192,32842,128,0,33073:0:0:0:0:
320,192,33073,128,0,33303:0:0:0:0:
448,192,33303,128,0,33534:0:0:0:0:
64,192,33534,128,0,33765:0:0:0:0:
448,192,33765,1,0,0:0:0:0:
320,192,33996,1,0,0:0:0:0:
192,192,34226,1,0,0:0:0:0:
64,192,34457,1,0,0:0:0:0:
192,192,34688,1,0,0:0:0:0:
64,192,34919,1,0,0:0:0:0:
192,192,35150,1,0,0:0:0:0:
320,192,35380,1,0,0:0:0:0:
448,192,35611,1,0,0:0:0:0:
192,192,35611,1,0,0:0:0:0:
320,192,35842,1,0,0:0:0:0:
64,192,36073,1,0,0:0:0:0:
448,192,36073,1,0,0:0:0:0:
320,192,36303,1,0,0:0:0:0:
64,192,36534,1,0,0:0:0:0:
192,192,36650,1,0,0:0:0:0:
320,192,36765,1,0,0:0:0:0:
448,192,36880,1,0,0:0:0:0:
320,192,36996,1,0,0:0:0:0:
192,192,37111,1,0,0:0:0:0:
64,192,37226,1,0,0:0:0:0:
192,192,37342,1,0,0:0:0:0:
320,192,37457,1,0,0:0:0:0:
448,192,37457,1,0,0:0:0:0:
448,192,37919,1,0,0:0:0:0:
320,192,38265,1,0,0:0:0:0:
192,192,38380,1,0,0:0:0:0:
64,192,38611,1,0,0:0:0:0:
448,192,38842,1,0,0:0:0:0:
320,192,39073,1,0,0:0:0:0:
192,192,39303,1,0,0:0:0:0:
448,192,39303,1,0,0:0:0:0:
64,192,39649,1,0,0:0:0:0:
448,192,39765,1,0,0:0:0:0:
448,192,40111,1,0,0:0:0:0:
64,192,40226,1,0,0:0:0:0:
320,192,40457,1,0,0:0:0:0:
192,192,40688,1,0,0:0:0:0:
64,192,40919,1,0,0:0:0:0:
192,192,41149,1,0,0:0:0:0:
320,192,41149,1,0,0:0:0:0:
64,192,41496,1,0,0:0:0:0:
448,192,41611,1,0,0:0:0:0:
320,192,42072,1,0,0:0:0:0:
192,192,42419,1,0,0:0:0:0:
64,192,42534,1,0,0:0:0:0:
192,192,42765,1,0,0:0:0:0:
320,192,42996,1,0,0:0:0:0:
64,192,42996,1,0,0:0:0:0:
448,192,43226,1,0,0:0:0:0:
320,192,43457,1,0,0:0:0:0:
448,192,43803,1,0,0:0:0:0:
192,192,43919,1,0,0:0:0:0:
448,192,44149,1,0,0:0:0:0:
320,192,44380,1,0,0:0:0:0:
64,192,44611,1,0,0:0:0:0:
320,192,44842,1,0,0:0:0:0:
192,192,44842,1,0,0:0:0:0:
320,192,45188,1,0,0:0:0:0:
448,192,45303,1,0,0:0:0:0:
192,192,45649,1,0,0:0:0:0:
64,192,45765,1,0,0:0:0:0:
320,192,45766,1,0,0:0:0:0:
448,192,46226,1,0,0:0:0:0:
320,192,46457,1,0,0:0:0:0:
64,192,46688,1,0,0:0:0:0:
192,192,46689,1,0,0:0:0:0:
320,192,47149,1,0,0:0:0:0:
192,192,47495,1,0,0:0:0:0:
448,192,47611,1,0,0:0:0:0:
64,192,47611,1,0,0:0:0:0:
192,192,47842,1,0,0:0:0:0:
448,192,48072,1,0,0:0:0:0:
320,192,48303,1,0,0:0:0:0:
448,192,48534,1,0,0:0:0:0:
192,192,48534,1,0,0:0:0:0:
64,192,48995,1,0,0:0:0:0:
320,192,48995,1,0,0:0:0:0:
448,192,49457,1,0,0:0:0:0:
192,192,49457,1,0,0:0:0:0:
64,192,49688,1,0,0:0:0:0:
448,192,49918,1,0,0:0:0:0:
320,192,49918,1,0,0:0:0:0:
192,192,50149,1,0,0:0:0:0:
64,192,50149,1,0,0:0:0:0:
192,192,50611,128,0,50842:0:0:0:0:
320,192,50611,128,0,50842:0:0:0:0:
448,192,50612,1,0,0:0:0:0:
192,192,51072,128,0,51303:0:0:0:0:
320,192,51072,128,0,51303:0:0:0:0:
64,192,51073,1,0,0:0:0:0:
320,192,51534,128,0,51765:0:0:0:0:
192,192,51534,128,0,51765:0:0:0:0:
448,192,51535,1,0,0:0:0:0:
64,192,51995,1,0,0:0:0:0:
448,192,51995,1,0,0:0:0:0:
320,192,52111,1,0,0:0:0:0:
192,192,52226,1,0,0:0:0:0:
320,192,52688,1,0,0:0:0:0:
64,192,52918,1,0,0:0:0:0:
192,192,53034,1,0,0:0:0:0:
320,192,53149,1,0,0:0:0:0:
448,192,53611,1,0,0:0:0:0:
192,192,53611,1,0,0:0:0:0:
320,192,53841,1,0,0:0:0:0:
64,192,53841,1,0,0:0:0:0:
448,192,54072,1,0,0:0:0:0:
64,192,54303,1,0,0:0:0:0:
192,192,54418,1,0,0:0:0:0:
320,192,54534,1,0,0:0:0:0:
192,192,54765,1,0,0:0:0:0:
64,192,54880,1,0,0:0:0:0:
448,192,54995,1,0,0:0:0:0:
192,192,55226,1,0,0:0:0:0:
448,192,55457,1,0,0:0:0:0:
64,192,55688,1,0,0:0:0:0:
320,192,55688,1,0,0:0:0:0:
192,192,55918,1,0,0:0:0:0:
448,192,56149,1,0,0:0:0:0:
320,192,56265,1,0,0:0:0:0:
192,192,56380,1,0,0:0:0:0:
320,192,56611,1,0,0:0:0:0:
448,192,56841,1,0,0:0:0:0:
64,192,57072,1,0,0:0:0:0:
448,192,57303,1,0,0:0:0:0:
320,192,57534,1,0,0:0:0:0:
64,192,57764,1,0,0:0:0:0:
64,192,57995,1,0,0:0:0:0:
192,192,58111,1,0,0:0:0:0:
448,192,58226,1,0,0:0:0:0:
320,192,58457,1,0,0:0:0:0:
64,192,58572,1,0,0:0:0:0:
192,192,58688,1,0,0:0:0:0:
448,192,58918,1,0,0:0:0:0:
64,192,59149,1,0,0:0:0:0:
192,192,59380,1,0,0:0:0:0:
448,192,59611,1,0,0:0:0:0:
192,192,59841,1,0,0:0:0:0:
320,192,59957,1,0,0:0:0:0:
64,192,60072,1,0,0:0:0:0:
192,192,60303,1,0,0:0:0:0:
448,192,60534,1,0,0:0:0:0:
320,192,60764,1,0,0:0:0:0:
448,192,60995,1,0,0:0:0:0:
64,192,61226,1,0,0:0:0:0:
192,192,61457,1,0,0:0:0:0:
320,192,61687,1,0,0:0:0:0:
192,192,61803,1,0,0:0:0:0:
448,192,61918,1,0,0:0:0:0:
320,192,62149,1,0,0:0:0:0:
64,192,62264,1,0,0:0:0:0:
448,192,62380,1,0,0:0:0:0:
448,192,62611,1,0,0:0:0:0:
64,192,62841,1,0,0:0:0:0:
320,192,63072,1,0,0:0:0:0:
448,192,63303,1,0,0:0:0:0:
192,192,63303,1,0,0:0:0:0:
320,192,63764,1,0,0:0:0:0:
448,192,63764,1,0,0:0:0:0:
448,192,64226,1,0,0:0:0:0:
64,192,64226,1,0,0:0:0:0:
320,192,64457,1,0,0:0:0:0:
64,192,64687,1,0,0:0:0:0:
192,192,64687,1,0,0:0:0:0:
64,192,64918,1,0,0:0:0:0:
320,192,64918,1,0,0:0:0:0:
448,192,64918,1,0,0:0:0:0:
64,192,65380,128,0,65610:0:0:0:0:
320,192,65380,128,0,65610:0:0:0:0:
64,192,65841,128,0,66072:0:0:0:0:
320,192,65841,128,0,66072:0:0:0:0:
192,192,65841,1,0,0:0:0:0:
448,192,66072,1,0,0:0:0:0:
320,192,66303,1,0,0:0:0:0:
64,192,66534,1,0,0:0:0:0:
192,192,66764,1,0,0:0:0:0:
64,192,66995,128,0,68841:0:0:0:0:
320,192,66996,1,0,0:0:0:0:
192,192,67687,1,0,0:0:0:0:
448,192,67918,1,0,0:0:0:0:
192,192,68149,1,0,0:0:0:0:
448,192,68264,1,0,0:0:0:0:
320,192,68380,1,0,0:0:0:0:
448,192,68610,1,0,0:0:0:0:
192,192,68841,128,0,70687:0:0:0:0:
320,192,68843,1,0,0:0:0:0:
64,192,69533,1,0,0:0:0:0:
320,192,69764,1,0,0:0:0:0:
448,192,69995,1,0,0:0:0:0:
320,192,70110,1,0,0:0:0:0:
64,192,70226,1,0,0:0:0:0:
448,192,70457,1,0,0:0:0:0:
320,192,70687,128,0,72533:0:0:0:0:
64,192,70687,1,0,0:0:0:0:
448,192,70918,1,0,0:0:0:0:
64,192,71380,1,0,0:0:0:0:
192,192,71495,1,0,0:0:0:0:
448,192,71610,1,0,0:0:0:0:
64,192,71841,1,0,0:0:0:0:
448,192,72072,1,0,0:0:0:0:
192,192,72303,1,0,0:0:0:0:
448,192,72533,128,0,74380:0:0:0:0:
64,192,72533,1,0,0:0:0:0:
192,192,72880,1,0,0:0:0:0:
320,192,72995,1,0,0:0:0:0:
64,192,73110,1,0,0:0:0:0:
320,192,73226,1,0,0:0:0:0:
320,192,73687,1,0,0:0:0:0:
64,192,73918,1,0,0:0:0:0:
192,192,74149,1,0,0:0:0:0:
64,192,74380,1,0,0:0:0:0:
320,192,74380,1,0,0:0:0:0:
192,192,74610,1,0,0:0:0:0:
320,192,74841,1,0,0:0:0:0:
448,192,74841,1,0,0:0:0:0:
192,192,75073,1,0,0:0:0:0:
64,192,75303,1,0,0:0:0:0:
320,192,75304,1,0,0:0:0:0:
64,192,75533,1,0,0:0:0:0:
320,192,75764,1,0,0:0:0:0:
448,192,75764,1,0,0:0:0:0:
192,192,75996,1,0,0:0:0:0:
320,192,76226,1,0,0:0:0:0:
64,192,76226,1,0,0:0:0:0:
448,192,76456,1,0,0:0:0:0:
192,192,76687,1,0,0:0:0:0:
448,192,76687,1,0,0:0:0:0:
64,192,76919,1,0,0:0:0:0:
64,192,77149,1,0,0:0:0:0:
320,192,77149,1,0,0:0:0:0:
192,192,77381,1,0,0:0:0:0:
192,192,77610,1,0,0:0:0:0:
448,192,77610,1,0,0:0:0:0:
320,192,77841,1,0,0:0:0:0:
64,192,78072,1,0,0:0:0:0:
320,192,78072,1,0,0:0:0:0:
192,192,78303,1,0,0:0:0:0:
448,192,78533,1,0,0:0:0:0:
64,192,78533,1,0,0:0:0:0:
320,192,78764,1,0,0:0:0:0:
192,192,78995,1,0,0:0:0:0:
448,192,78995,1,0,0:0:0:0:
320,192,79226,1,0,0:0:0:0:
64,192,79456,1,0,0:0:0:0:
448,192,79456,1,0,0:0:0:0:
192,192,79687,128,0,81302:0:0:0:0:
320,192,81302,1,0,0:0:0:0:
64,192,81302,1,0,0:0:0:0:
448,192,81304,1,0,0:0:0:0:
64,192,81764,128,0,82226:0:0:0:0:
192,192,81766,1,0,0:0:0:0:
448,192,82226,128,0,82456:0:0:0:0:
320,192,82456,128,0,82687:0:0:0:0:
192,192,82687,128,0,83149:0:0:0:0:
64,192,83149,128,0,83379:0:0:0:0:
320,192,83379,128,0,83610:0:0:0:0:
192,192,83610,1,0,0:0:0:0:
448,192,83956,1,0,0:0:0:0:
192,192,84072,1,0,0:0:0:0:
64,192,84302,1,0,0:0:0:0:
448,192,84533,1,0,0:0:0:0:
192,192,84764,1,0,0:0:0:0:
448,192,84995,1,0,0:0:0:0:
64,192,84995,1,0,0:0:0:0:
448,192,85225,1,0,0:0:0:0:
192,192,85225,1,0,0:0:0:0:
64,192,85456,128,0,85802:0:0:0:0:
320,192,85456,1,0,0:0:0:0:
192,192,85802,1,0,0:0:0:0:
448,192,85918,1,0,0:0:0:0:
320,192,86149,1,0,0:0:0:0:
64,192,86379,128,0,86841:0:0:0:0:
192,192,86841,128,0,87072:0:0:0:0:
320,192,87072,128,0,87302:0:0:0:0:
192,192,87302,1,0,0:0:0:0:
64,192,87649,1,0,0:0:0:0:
448,192,87764,1,0,0:0:0:0:
320,192,88110,1,0,0:0:0:0:
192,192,88225,1,0,0:0:0:0:
448,192,88456,1,0,0:0:0:0:
64,192,88687,1,0,0:0:0:0:
320,192,88918,1,0,0:0:0:0:
64,192,89148,128,0,90995:0:0:0:0:
448,192,89148,1,0,0:0:0:0:
192,192,89610,1,0,0:0:0:0:
448,192,89610,1,0,0:0:0:0:
320,192,89841,1,0,0:0:0:0:
320,192,90302,1,0,0:0:0:0:
192,192,90764,1,0,0:0:0:0:
448,192,90879,1,0,0:0:0:0:
320,192,90995,128,0,92841:0:0:0:0:
64,192,91456,1,0,0:0:0:0:
192,192,91687,1,0,0:0:0:0:
64,192,92148,1,0,0:0:0:0:
448,192,92148,1,0,0:0:0:0:
448,192,92379,1,0,0:0:0:0:
192,192,92610,1,0,0:0:0:0:
64,192,92841,1,0,0:0:0:0:
320,192,93071,1,0,0:0:0:0:
64,192,93302,1,0,0:0:0:0:
320,192,93533,1,0,0:0:0:0:
448,192,93764,1,0,0:0:0:0:
320,192,93995,1,0,0:0:0:0:
192,192,94225,1,0,0:0:0:0:
448,192,94456,1,0,0:0:0:0:
64,192,94687,1,0,0:0:0:0:
320,192,94687,1,0,0:0:0:0:
448,192,95148,1,0,0:0:0:0:
192,192,95148,1,0,0:0:0:0:
448,192,95610,1,0,0:0:0:0:
320,192,95610,1,0,0:0:0:0:
64,192,96071,1,0,0:0:0:0:
192,192,96071,1,0,0:0:0:0:
64,192,96533,1,0,0:0:0:0:
320,192,96533,1,0,0:0:0:0:
192,192,96535,1,0,0:0:0:0:
448,192,96994,1,0,0:0:0:0:
192,192,97225,1,0,0:0:0:0:
320,192,97456,1,0,0:0:0:0:
192,192,97687,1,0,0:0:0:0:
64,192,97802,1,0,0:0:0:0:
320,192,97918,1,0,0:0:0:0:
192,192,98148,1,0,0:0:0:0:
64,192,98379,128,0,98725:0:0:0:0:
448,192,98379,1,0,0:0:0:0:
192,192,98725,128,0,98841:0:0:0:0:
320,192,98841,128,0,99071:0:0:0:0:
192,192,99071,128,0,99302:0:0:0:0:
448,192,99302,128,0,99533:0:0:0:0:
320,192,99533,128,0,99764:0:0:0:0:
64,192,99533,1,0,0:0:0:0:
64,192,99764,128,0,99994:0:0:0:0:
448,192,99764,1,0,0:0:0:0:
192,192,99994,128,0,100225:0:0:0:0:
320,192,99994,1,0,0:0:0:0:
64,192,100225,1,0,0:0:0:0:
448,192,100571,1,0,0:0:0:0:
320,192,100687,1,0,0:0:0:0:
64,192,100917,1,0,0:0:0:0:
192,192,101148,1,0,0:0:0:0:
192,192,101494,1,0,0:0:0:0:
320,192,101610,1,0,0:0:0:0:
64,192,101841,1,0,0:0:0:0:
192,192,102071,128,0,102417:0:0:0:0:
448,192,102417,1,0,0:0:0:0:
64,192,102533,128,0,102994:0:0:0:0:
448,192,102879,1,0,0:0:0:0:
320,192,102994,1,0,0:0:0:0:
192,192,103225,1,0,0:0:0:0:
448,192,103456,1,0,0:0:0:0:
64,192,103687,1,0,0:0:0:0:
192,192,103917,128,0,104379:0:0:0:0:
448,192,103917,128,0,104379:0:0:0:0:
64,192,104379,1,0,0:0:0:0:
448,192,104610,1,0,0:0:0:0:
320,192,105071,1,0,0:0:0:0:
448,192,105302,1,0,0:0:0:0:
192,192,105417,1,0,0:0:0:0:
64,192,105533,1,0,0:0:0:0:
192,192,105764,128,0,106225:0:0:0:0:
320,192,105764,128,0,106225:0:0:0:0:
448,192,106225,1,0,0:0:0:0:
64,192,106456,1,0,0:0:0:0:
448,192,106687,1,0,0:0:0:0:
64,192,106917,1,0,0:0:0:0:
320,192,106917,1,0,0:0:0:0:
192,192,107033,1,0,0:0:0:0:
448,192,107148,1,0,0:0:0:0:
320,192,107379,1,0,0:0:0:0:
64,192,107610,128,0,108071:0:0:0:0:
192,192,107840,1,0,0:0:0:0:
448,192,108071,128,0,108533:0:0:0:0:
320,192,108071,1,0,0:0:0:0:
64,192,108302,1,0,0:0:0:0:
192,192,108533,1,0,0:0:0:0:
192,192,108763,1,0,0:0:0:0:
64,192,108994,1,0,0:0:0:0:
448,192,108994,1,0,0:0:0:0:
192,192,109225,1,0,0:0:0:0:
64,192,109456,128,0,109917:0:0:0:0:
320,192,109456,1,0,0:0:0:0:
448,192,109917,128,0,110379:0:0:0:0:
320,192,110379,128,0,110840:0:0:0:0:
192,192,110840,128,0,111302:0:0:0:0:
64,192,111302,1,0,0:0:0:0:
320,192,111302,1,0,0:0:0:0:
448,192,111533,1,0,0:0:0:0:
320,192,111763,1,0,0:0:0:0:
192,192,111994,1,0,0:0:0:0:
320,192,112225,1,0,0:0:0:0:
64,192,112456,1,0,0:0:0:0:
448,192,112686,1,0,0:0:0:0:
192,192,112917,1,0,0:0:0:0:
320,192,113148,128,0,113379:0:0:0:0:
64,192,113148,1,0,0:0:0:0:
448,192,113379,128,0,113610:0:0:0:0:
320,192,113610,128,0,113840:0:0:0:0:
448,192,113840,128,0,114071:0:0:0:0:
64,192,114071,128,0,114302:0:0:0:0:
192,192,114302,128,0,114533:0:0:0:0:
448,192,114533,128,0,114763:0:0:0:0:
320,192,114763,128,0,114994:0:0:0:0:
64,192,114994,1,0,0:0:0:0:
448,192,114994,1,0,0:0:0:0:
320,192,115225,1,0,0:0:0:0:
192,192,115456,1,0,0:0:0:0:
64,192,115686,1,0,0:0:0:0:
448,192,115917,1,0,0:0:0:0:
192,192,116148,1,0,0:0:0:0:
320,192,116379,1,0,0:0:0:0:
64,192,116609,1,0,0:0:0:0:
64,192,116840,128,0,118686:0:0:0:0:
192,192,117071,1,0,0:0:0:0:
320,192,117186,1,0,0:0:0:0:
448,192,117302,1,0,0:0:0:0:
320,192,117533,1,0,0:0:0:0:
192,192,117648,1,0,0:0:0:0:
448,192,117763,1,0,0:0:0:0:
192,192,117994,1,0,0:0:0:0:
448,192,118109,1,0,0:0:0:0:
320,192,118225,1,0,0:0:0:0:
448,192,118456,1,0,0:0:0:0:
320,192,118571,1,0,0:0:0:0:
192,192,118686,1,0,0:0:0:0:
448,192,118686,1,0,0:0:0:0:
448,192,118917,1,0,0:0:0:0:
320,192,119148,1,0,0:0:0:0:
448,192,119379,1,0,0:0:0:0:
64,192,119609,1,0,0:0:0:0:
448,192,119840,1,0,0:0:0:0:
192,192,120071,1,0,0:0:0:0:
192,192,120302,1,0,0:0:0:0:
64,192,120532,128,0,120763:0:0:0:0:
448,192,120535,1,0,0:0:0:0:
320,192,120763,128,0,120994:0:0:0:0:
64,192,120994,128,0,121225:0:0:0:0:
320,192,121225,128,0,121456:0:0:0:0:
192,192,121456,128,0,121686:0:0:0:0:
448,192,121686,128,0,121917:0:0:0:0:
320,192,121917,128,0,122148:0:0:0:0:
64,192,122148,128,0,122379:0:0:0:0:
320,192,122379,1,0,0:0:0:0:
448,192,122609,1,0,0:0:0:0:
320,192,122840,1,0,0:0:0:0:
192,192,123071,1,0,0:0:0:0:
320,192,123302,1,0,0:0:0:0:
64,192,123532,1,0,0:0:0:0:
192,192,123763,1,0,0:0:0:0:
320,192,123994,1,0,0:0:0:0:
448,192,124225,1,0,0:0:0:0:
320,192,124340,1,0,0:0:0:0:
192,192,124455,1,0,0:0:0:0:
64,192,124571,1,0,0:0:0:0:
192,192,124686,1,0,0:0:0:0:
320,192,124802,1,0,0:0:0:0:
448,192,124917,1,0,0:0:0:0:
320,192,125032,1,0,0:0:0:0:
192,192,125148,128,0,126071:0:0:0:0:
64,192,125379,1,0,0:0:0:0:
320,192,125609,1,0,0:0:0:0:
448,192,125840,1,0,0:0:0:0:
64,192,126071,1,0,0:0:0:0:
320,192,126073,1,0,0:0:0:0:
64,192,126532,1,0,0:0:0:0:
192,192,126763,1,0,0:0:0:0:
448,192,126763,1,0,0:0:0:0:
320,192,127227,1,0,0:0:0:0:
192,192,127458,1,0,0:0:0:0:
448,192,127686,1,0,0:0:0:0:
192,192,127917,1,0,0:0:0:0:
64,192,127917,1,0,0:0:0:0:
320,192,128148,1,0,0:0:0:0:
448,192,128378,1,0,0:0:0:0:
320,192,128609,1,0,0:0:0:0:
64,192,128609,1,0,0:0:0:0:
64,192,129763,1,0,0:0:0:0:
448,192,129763,1,0,0:0:0:0:
192,192,130225,1,0,0:0:0:0:
320,192,130455,1,0,0:0:0:0:
448,192,130455,1,0,0:0:0:0:
192,192,130686,1,0,0:0:0:0:
320,192,130917,1,0,0:0:0:0:
64,192,131148,1,0,0:0:0:0:
320,192,131378,1,0,0:0:0:0:
64,192,131609,1,0,0:0:0:0:
192,192,131609,1,0,0:0:0:0:
320,192,131840,1,0,0:0:0:0:
448,192,132071,1,0,0:0:0:0:
320,192,132301,1,0,0:0:0:0:
64,192,132301,1,0,0:0:0:0:
64,192,133455,128,0,133917:0:0:0:0:
192,192,133917,128,0,134148:0:0:0:0:
320,192,134148,1,0,0:0:0:0:
64,192,134378,1,0,0:0:0:0:
448,192,134609,1,0,0:0:0:0:
320,192,134840,1,0,0:0:0:0:
192,192,135071,128,0,135301:0:0:0:0:
64,192,135301,128,0,135763:0:0:0:0:
320,192,135532,1,0,0:0:0:0:
448,192,135763,128,0,135994:0:0:0:0:
320,192,135994,1,0,0:0:0:0:
64,192,137148,128,0,137840:0:0:0:0:
448,192,137148,128,0,137840:0:0:0:0:
320,192,137609,1,0,0:0:0:0:
192,192,137840,128,0,138301:0:0:0:0:
64,192,138071,1,0,0:0:0:0:
320,192,138301,1,0,0:0:0:0:
192,192,138532,1,0,0:0:0:0:
448,192,138763,1,0,0:0:0:0:
64,192,138994,128,0,139455:0:0:0:0:
320,192,138994,128,0,139455:0:0:0:0:
192,192,139455,1,0,0:0:0:0:
448,192,139686,128,0,140148:0:0:0:0:
192,192,140378,1,0,0:0:0:0:
64,192,140378,1,0,0:0:0:0:
320,192,140378,1,0,0:0:0:0:
320,192,140840,1,0,0:0:0:0:
192,192,141071,1,0,0:0:0:0:
64,192,141301,1,0,0:0:0:0:
448,192,141532,1,0,0:0:0:0:
192,192,141763,1,0,0:0:0:0:
320,192,141994,1,0,0:0:0:0:
320,192,142455,1,0,0:0:0:0:
192,192,142686,1,0,0:0:0:0:
448,192,142917,1,0,0:0:0:0:
320,192,143147,1,0,0:0:0:0:
64,192,143378,128,0,144071:0:0:0:0:
448,192,143609,1,0,0:0:0:0:
320,192,143840,1,0,0:0:0:0:
448,192,144071,1,0,0:0:0:0:
192,192,144301,1,0,0:0:0:0:
64,192,144532,128,0,144763:0:0:0:0:
320,192,144763,128,0,144994:0:0:0:0:
192,192,144994,128,0,145224:0:0:0:0:
448,192,145224,128,0,145455:0:0:0:0:
320,192,145455,128,0,145686:0:0:0:0:
64,192,145686,128,0,146147:0:0:0:0:
320,192,146147,1,0,0:0:0:0:
192,192,146378,1,0,0:0:0:0:
64,192,146381,1,0,0:0:0:0:
320,192,146609,1,0,0:0:0:0:
448,192,146840,1,0,0:0:0:0:
64,192,147070,1,0,0:0:0:0:
320,192,147070,1,0,0:0:0:0:
192,192,147301,1,0,0:0:0:0:
64,192,147532,1,0,0:0:0:0:
448,192,147532,1,0,0:0:0:0:
320,192,147763,1,0,0:0:0:0:
192,192,147994,1,0,0:0:0:0:
64,192,148224,128,0,148455:0:0:0:0:
320,192,148227,1,0,0:0:0:0:
192,192,148455,1,0,0:0:0:0:
448,192,148686,128,0,148917:0:0:0:0:
320,192,148917,1,0,0:0:0:0:
64,192,149147,1,0,0:0:0:0:
320,192,149147,1,0,0:0:0:0:
192,192,149378,1,0,0:0:0:0:
448,192,149378,1,0,0:0:0:0:
192,192,149840,1,0,0:0:0:0:
320,192,149955,1,0,0:0:0:0:
448,192,150070,1,0,0:0:0:0:
64,192,150073,1,0,0:0:0:0:
320,192,150301,1,0,0:0:0:0:
64,192,150532,1,0,0:0:0:0:
192,192,150763,128,0,151686:0:0:0:0:
64,192,150996,1,0,0:0:0:0:
448,192,151227,1,0,0:0:0:0:
320,192,151458,1,0,0:0:0:0:
448,192,151689,1,0,0:0:0:0:
320,192,151917,1,0,0:0:0:0:
64,192,151919,1,0,0:0:0:0:
448,192,152147,1,0,0:0:0:0:
192,192,152263,1,0,0:0:0:0:
64,192,152378,1,0,0:0:0:0:
320,192,152609,1,0,0:0:0:0:
64,192,152840,1,0,0:0:0:0:
448,192,153070,1,0,0:0:0:0:
192,192,153532,1,0,0:0:0:0:
320,192,153647,1,0,0:0:0:0:
64,192,153763,128,0,154109:0:0:0:0:
448,192,153766,1,0,0:0:0:0:
192,192,154109,128,0,154455:0:0:0:0:
448,192,154455,128,0,154801:0:0:0:0:
320,192,154801,128,0,155147:0:0:0:0:
64,192,155147,128,0,155609:0:0:0:0:
192,192,155147,128,0,155609:0:0:0:0:
320,192,155609,1,0,0:0:0:0:
192,192,155840,1,0,0:0:0:0:
64,192,156070,1,0,0:0:0:0:
320,192,156301,1,0,0:0:0:0:
64,192,156532,1,0,0:0:0:0:
448,192,156763,1,0,0:0:0:0:
192,192,156993,1,0,0:0:0:0:
320,192,157224,1,0,0:0:0:0:
64,192,157455,1,0,0:0:0:0:
448,192,157455,1,0,0:0:0:0:
192,192,157686,1,0,0:0:0:0:
64,192,157916,1,0,0:0:0:0:
448,192,158147,1,0,0:0:0:0:
320,192,158378,1,0,0:0:0:0:
64,192,158609,1,0,0:0:0:0:
192,192,158839,1,0,0:0:0:0:
320,192,159070,1,0,0:0:0:0:
64,192,159301,1,0,0:0:0:0:
448,192,159301,1,0,0:0:0:0:
320,192,159532,1,0,0:0:0:0:
192,192,159763,1,0,0:0:0:0:
320,192,159993,1,0,0:0:0:0:
64,192,160224,1,0,0:0:0:0:
192,192,160455,1,0,0:0:0:0:
320,192,160686,1,0,0:0:0:0:
448,192,160916,1,0,0:0:0:0:
64,192,161147,1,0,0:0:0:0:
192,192,161262,1,0,0:0:0:0:
64,192,161378,1,0,0:0:0:0:
192,192,161493,1,0,0:0:0:0:
448,192,161609,1,0,0:0:0:0:
320,192,161724,1,0,0:0:0:0:
448,192,161839,1,0,0:0:0:0:
320,192,161955,1,0,0:0:0:0:
64,192,162070,128,0,162993:0:0:0:0:
192,192,162070,128,0,162993:0:0:0:0:
320,192,162993,1,0,0:0:0:0:
448,192,163455,1,0,0:0:0:0:
320,192,163686,1,0,0:0:0:0:
64,192,163916,1,0,0:0:0:0:
192,192,164147,1,0,0:0:0:0:
192,192,164378,1,0,0:0:0:0:
64,192,164609,1,0,0:0:0:0:
64,192,164839,128,0,166685:0:0:0:0:
192,192,164839,1,0,0:0:0:0:
448,192,165185,1,0,0:0:0:0:
320,192,165301,1,0,0:0:0:0:
192,192,165532,1,0,0:0:0:0:
448,192,165762,1,0,0:0:0:0:
192,192,165993,1,0,0:0:0:0:
448,192,166224,1,0,0:0:0:0:
320,192,166455,1,0,0:0:0:0:
320,192,166685,1,0,0:0:0:0:
448,192,167032,1,0,0:0:0:0:
64,192,167147,1,0,0:0:0:0:
192,192,167147,1,0,0:0:0:0:
320,192,167378,1,0,0:0:0:0:
192,192,167609,1,0,0:0:0:0:
448,192,167609,1,0,0:0:0:0:
448,192,167839,1,0,0:0:0:0:
320,192,167955,1,0,0:0:0:0:
192,192,168070,1,0,0:0:0:0:
64,192,168301,1,0,0:0:0:0:
320,192,168532,1,0,0:0:0:0:
192,192,168878,1,0,0:0:0:0:
320,192,168993,1,0,0:0:0:0:
192,192,169224,1,0,0:0:0:0:
64,192,169455,1,0,0:0:0:0:
192,192,169685,1,0,0:0:0:0:
448,192,169916,1,0,0:0:0:0:
192,192,170147,1,0,0:0:0:0:
64,192,170378,128,0,171762:0:0:0:0:
192,192,170839,128,0,171762:0:0:0:0:
320,192,171070,128,0,171762:0:0:0:0:
448,192,171532,128,0,171762:0:0:0:0:
64,192,171993,1,0,0:0:0:0:
320,192,171993,1,0,0:0:0:0:
192,192,172224,1,0,0:0:0:0:
448,192,172224,1,0,0:0:0:0:
64,192,172685,1,0,0:0:0:0:
192,192,172685,1,0,0:0:0:0:
448,192,172689,1,0,0:0:0:0:
64,192,172916,1,0,0:0:0:0:
320,192,172919,1,0,0:0:0:0:
64,192,173378,1,0,0:0:0:0:
320,192,173378,1,0,0:0:0:0:
448,192,173608,1,0,0:0:0:0:
320,192,173839,1,0,0:0:0:0:
64,192,174070,128,0,174301:0:0:0:0:
320,192,174301,128,0,174531:0:0:0:0:
192,192,174531,128,0,174762:0:0:0:0:
448,192,174762,128,0,174993:0:0:0:0:
64,192,174993,128,0,175224:0:0:0:0:
192,192,175224,128,0,175455:0:0:0:0:
448,192,175455,128,0,175685:0:0:0:0:
320,192,175685,128,0,175916:0:0:0:0:
448,192,175916,128,0,176378:0:0:0:0:
64,192,175919,1,0,0:0:0:0:
320,192,176150,1,0,0:0:0:0:
192,192,176378,128,0,176839:0:0:0:0:
64,192,176612,1,0,0:0:0:0:
320,192,176839,128,0,177301:0:0:0:0:
192,192,177073,1,0,0:0:0:0:
64,192,177301,1,0,0:0:0:0:
448,192,177301,1,0,0:0:0:0:
64,192,177762,128,0,178224:0:0:0:0:
192,192,177993,1,0,0:0:0:0:
448,192,178224,128,0,178454:0:0:0:0:
192,192,178454,128,0,178685:0:0:0:0:
320,192,178685,128,0,179147:0:0:0:0:
64,192,178916,1,0,0:0:0:0:
192,192,179147,128,0,179378:0:0:0:0:
64,192,179378,128,0,179608:0:0:0:0:
192,192,179608,128,0,179954:0:0:0:0:
448,192,179954,1,0,0:0:0:0:
64,192,180070,128,0,180301:0:0:0:0:
192,192,180301,128,0,180531:0:0:0:0:
320,192,180531,128,0,180762:0:0:0:0:
64,192,180762,128,0,180993:0:0:0:0:
448,192,180993,128,0,181224:0:0:0:0:
320,192,181224,128,0,181454:0:0:0:0:
64,192,181454,1,0,0:0:0:0:
192,192,181801,1,0,0:0:0:0:
64,192,181916,128,0,182147:0:0:0:0:
320,192,181916,128,0,182147:0:0:0:0:
448,192,182147,1,0,0:0:0:0:
192,192,182377,1,0,0:0:0:0:
320,192,182608,1,0,0:0:0:0:
320,192,182839,1,0,0:0:0:0:
192,192,183070,1,0,0:0:0:0:
64,192,183301,1,0,0:0:0:0:
448,192,183304,1,0,0:0:0:0:
448,192,183647,1,0,0:0:0:0:
192,192,183762,1,0,0:0:0:0:
320,192,183993,1,0,0:0:0:0:
448,192,184108,1,0,0:0:0:0:
64,192,184224,1,0,0:0:0:0:
320,192,184454,1,0,0:0:0:0:
192,192,184685,1,0,0:0:0:0:
448,192,184916,1,0,0:0:0:0:
64,192,185147,1,0,0:0:0:0:
192,192,185262,1,0,0:0:0:0:
320,192,185377,1,0,0:0:0:0:
448,192,185493,1,0,0:0:0:0:
64,192,185608,1,0,0:0:0:0:
320,192,185608,1,0,0:0:0:0:
64,192,185839,1,0,0:0:0:0:
320,192,185839,1,0,0:0:0:0:
448,192,186300,1,0,0:0:0:0:
320,192,186531,1,0,0:0:0:0:
192,192,186762,1,0,0:0:0:0:
448,192,186993,1,0,0:0:0:0:
320,192,187108,1,0,0:0:0:0:
192,192,187224,1,0,0:0:0:0:
64,192,187339,1,0,0:0:0:0:
192,192,187454,1,0,0:0:0:0:
448,192,187454,1,0,0:0:0:0:
192,192,187685,1,0,0:0:0:0:
448,192,187685,1,0,0:0:0:0:
64,192,188147,1,0,0:0:0:0:
448,192,188377,1,0,0:0:0:0:
320,192,188608,1,0,0:0:0:0:
64,192,188839,1,0,0:0:0:0:
448,192,189070,1,0,0:0:0:0:
320,192,189185,1,0,0:0:0:0:
192,192,189300,1,0,0:0:0:0:
448,192,189531,1,0,0:0:0:0:
192,192,189647,1,0,0:0:0:0:
320,192,189762,1,0,0:0:0:0:
192,192,189993,1,0,0:0:0:0:
448,192,190223,1,0,0:0:0:0:
192,192,190454,1,0,0:0:0:0:
64,192,190685,128,0,191147:0:0:0:0:
448,192,191147,128,0,191608:0:0:0:0:
320,192,191608,128,0,192070:0:0:0:0:
192,192,192070,128,0,192531:0:0:0:0:
320,192,192531,1,0,0:0:0:0:
64,192,192762,1,0,0:0:0:0:
320,192,192993,1,0,0:0:0:0:
192,192,193223,1,0,0:0:0:0:
448,192,193454,1,0,0:0:0:0:
320,192,193685,1,0,0:0:0:0:
448,192,193916,1,0,0:0:0:0:
64,192,194146,1,0,0:0:0:0:
192,192,194377,1,0,0:0:0:0:
448,192,194377,1,0,0:0:0:0:
320,192,194608,1,0,0:0:0:0:
192,192,194839,1,0,0:0:0:0:
320,192,195070,1,0,0:0:0:0:
64,192,195300,1,0,0:0:0:0:
448,192,195531,1,0,0:0:0:0:
192,192,195762,1,0,0:0:0:0:
320,192,195993,1,0,0:0:0:0:
192,192,196223,1,0,0:0:0:0:
448,192,196454,1,0,0:0:0:0:
320,192,196685,1,0,0:0:0:0:
192,192,196916,1,0,0:0:0:0:
320,192,197146,1,0,0:0:0:0:
64,192,197377,1,0,0:0:0:0:
192,192,197608,1,0,0:0:0:0:
448,192,197839,1,0,0:0:0:0:
320,192,198069,128,0,199916:0:0:0:0:
64,192,198304,1,0,0:0:0:0:
192,192,198419,1,0,0:0:0:0:
448,192,198531,1,0,0:0:0:0:
192,192,198762,1,0,0:0:0:0:
64,192,198996,1,0,0:0:0:0:
192,192,199223,1,0,0:0:0:0:
448,192,199343,1,0,0:0:0:0:
64,192,199458,1,0,0:0:0:0:
192,192,199685,1,0,0:0:0:0:
192,192,199916,1,0,0:0:0:0:
64,192,200146,1,0,0:0:0:0:
320,192,200377,1,0,0:0:0:0:
192,192,200608,1,0,0:0:0:0:
448,192,200839,1,0,0:0:0:0:
64,192,201069,1,0,0:0:0:0:
192,192,201300,1,0,0:0:0:0:
320,192,201531,1,0,0:0:0:0:
320,192,201762,128,0,201992:0:0:0:0:
64,192,201762,1,0,0:0:0:0:
448,192,201992,128,0,202223:0:0:0:0:
320,192,202223,128,0,202454:0:0:0:0:
448,192,202454,128,0,202685:0:0:0:0:
64,192,202685,1,0,0:0:0:0:
192,192,202916,1,0,0:0:0:0:
448,192,203146,1,0,0:0:0:0:
320,192,203377,1,0,0:0:0:0:
448,192,203608,1,0,0:0:0:0:
192,192,203608,1,0,0:0:0:0:
320,192,203839,1,0,0:0:0:0:
64,192,204069,1,0,0:0:0:0:
448,192,204069,1,0,0:0:0:0:
192,192,204300,1,0,0:0:0:0:
64,192,204531,1,0,0:0:0:0:
320,192,204531,1,0,0:0:0:0:
64,192,204762,1,0,0:0:0:0:
320,192,204762,1,0,0:0:0:0:
448,192,204992,1,0,0:0:0:0:
192,192,205223,1,0,0:0:0:0:
320,192,205454,1,0,0:0:0:0:
192,192,205685,1,0,0:0:0:0:
320,192,205915,1,0,0:0:0:0:
192,192,206146,1,0,0:0:0:0:
64,192,206377,1,0,0:0:0:0:
448,192,206492,1,0,0:0:0:0:
320,192,206608,1,0,0:0:0:0:
192,192,206723,1,0,0:0:0:0:
64,192,206839,1,0,0:0:0:0:
448,192,206954,1,0,0:0:0:0:
320,192,207069,1,0,0:0:0:0:
192,192,207185,1,0,0:0:0:0:
320,192,207300,1,0,0:0:0:0:
64,192,207300,1,0,0:0:0:0:
192,192,207531,1,0,0:0:0:0:
320,192,207762,1,0,0:0:0:0:
448,192,207992,128,0,208685:0:0:0:0:
192,192,208454,1,0,0:0:0:0:
320,192,208685,1,0,0:0:0:0:
192,192,208915,1,0,0:0:0:0:
448,192,209146,1,0,0:0:0:0:
320,192,209377,1,0,0:0:0:0:
192,192,209608,1,0,0:0:0:0:
64,192,209838,128,0,210531:0:0:0:0:
192,192,210069,1,0,0:0:0:0:
448,192,210531,1,0,0:0:0:0:
64,192,210992,1,0,0:0:0:0:
320,192,211223,1,0,0:0:0:0:
192,192,211454,1,0,0:0:0:0:
320,192,211685,1,0,0:0:0:0:
64,192,211915,1,0,0:0:0:0:
192,192,212146,1,0,0:0:0:0:
320,192,212377,1,0,0:0:0:0:
192,192,212608,1,0,0:0:0:0:
320,192,212838,1,0,0:0:0:0:
64,192,212838,1,0,0:0:0:0:
192,192,213069,1,0,0:0:0:0:
448,192,213300,1,0,0:0:0:0:
64,192,213531,128,0,214685:0:0:0:0:
192,192,214685,128,0,214915:0:0:0:0:
320,192,214915,128,0,215146:0:0:0:0:
192,192,215146,128,0,215377:0:0:0:0:
448,192,215377,128,0,216069:0:0:0:0:
64,192,215608,1,0,0:0:0:0:
192,192,215838,1,0,0:0:0:0:
192,192,216069,128,0,216300:0:0:0:0:
320,192,216300,128,0,216531:0:0:0:0:
192,192,216531,128,0,216761:0:0:0:0:
64,192,216761,128,0,216992:0:0:0:0:
192,192,216992,1,0,0:0:0:0:
448,192,217223,128,0,217915:0:0:0:0:
64,192,217223,1,0,0:0:0:0:
192,192,217454,1,0,0:0:0:0:
64,192,217915,1,0,0:0:0:0:
320,192,217915,1,0,0:0:0:0:
192,192,218377,1,0,0:0:0:0:
64,192,218381,1,0,0:0:0:0:
320,192,218608,1,0,0:0:0:0:
64,192,218838,1,0,0:0:0:0:
192,192,219069,1,0,0:0:0:0:
448,192,219300,1,0,0:0:0:0:
320,192,219531,1,0,0:0:0:0:
448,192,219761,1,0,0:0:0:0:
64,192,219761,1,0,0:0:0:0:
192,192,219992,1,0,0:0:0:0:
192,192,220223,128,0,220684:0:0:0:0:
448,192,220223,1,0,0:0:0:0:
320,192,220915,128,0,223915:0:0:0:0:
64,192,220915,1,0,0:0:0:0:
448,192,221612,128,0,223919:0:0:0:0:
