osu file format v14

[General]
AudioFilename: audio.mp3
AudioLeadIn: 0
PreviewTime: 160809
Countdown: 0
SampleSet: Soft
StackLeniency: 0.7
Mode: 0
LetterboxInBreaks: 0
WidescreenStoryboard: 1

[Editor]
DistanceSpacing: 0.6
BeatDivisor: 4
GridSize: 32
TimelineZoom: 2.1

[Metadata]
Title:Senpai.
TitleUnicode:センパイ。
Artist:sana
ArtistUnicode:鎖那
Creator:Kyuukai
Version:litoluna's Insane
Source:好きになるその瞬間を。~告白実行委員会~
Tags:The Moment You Fall in Love suki ni naru sono shunkan wo kokuhaku jikkou iinkai opening honeyworks meets trysail litoluna yaleufeu umi lasse
BeatmapID:1384674
BeatmapSetID:637706

[Difficulty]
HPDrainRate:7
CircleSize:4
OverallDifficulty:8.5
ApproachRate:9
SliderMultiplier:1.8
SliderTickRate:1

[Events]
//Background and Video events
Video,207,"Senpai.avi"
0,0,"bg.jpg",0,0
//Break Periods
2,101009,110500
//Storyboard Layer 0 (Background)
//Storyboard Layer 1 (Fail)
//Storyboard Layer 2 (Pass)
//Storyboard Layer 3 (Foreground)
//Storyboard Sound Samples

[TimingPoints]
806,370.37037037037,4,2,5,60,1,0
806,-125,4,2,5,60,0,0
13402,370.37037037037,4,2,4,70,1,0
13402,-100,4,2,4,70,0,0
25253,-111.111111111111,4,2,4,60,0,0
28124,-111.111111111111,4,2,4,5,0,0
28216,-111.111111111111,4,2,4,60,0,0
35439,-111.111111111111,4,2,4,65,0,0
37105,-111.111111111111,4,2,4,70,0,0
37383,-111.111111111111,4,2,4,5,0,0
37476,-111.111111111111,4,2,4,70,0,0
39976,-111.111111111111,4,2,4,5,0,0
40068,-111.111111111111,4,2,4,70,0,0
42939,-111.111111111111,4,2,4,5,0,0
43031,-111.111111111111,4,2,4,70,0,0
45901,-111.111111111111,4,2,4,5,0,0
45994,-111.111111111111,4,2,4,70,0,0
48957,-111.111111111111,4,2,4,65,0,0
54883,-111.111111111111,4,2,4,70,0,0
60808,-125,4,2,4,60,0,0
65068,-125,4,2,4,70,0,0
66735,-100,4,2,4,80,0,1
88772,-83.3333333333333,4,2,4,85,0,1
90439,-111.111111111111,4,2,4,70,0,1
94698,-100,4,2,4,80,0,1
99327,-100,4,2,4,70,0,0
111179,-125,4,2,5,60,0,0
120068,-100,4,2,4,65,0,0
121550,-100,4,2,4,70,0,0
122290,-100,4,2,4,75,0,0
123031,-100,4,2,4,80,0,1
143401,-66.6666666666667,4,2,4,80,0,1
143772,-83.3333333333333,4,2,4,80,0,1
145994,-83.3333333333333,4,2,4,85,0,1
146735,-125,4,2,4,60,0,0
155531,-125,4,2,4,5,0,0
155624,-111.111111111111,4,2,4,65,0,0
156920,-90.9090909090909,4,2,4,70,0,0
158401,-90.9090909090909,4,2,4,75,0,0
159513,-90.9090909090909,4,2,4,80,0,0
160994,-90.9090909090909,4,2,4,70,0,0
161550,-83.3333333333333,4,2,4,80,0,1
171735,-83.3333333333333,4,2,4,85,0,1
173957,-83.3333333333333,4,2,4,80,0,1
183587,-83.3333333333333,4,2,4,85,0,1
186179,-83.3333333333333,4,2,4,80,0,1
188216,-83.3333333333333,4,2,4,85,0,1
189142,-83.3333333333333,4,2,4,80,0,1
195439,-83.3333333333333,4,2,4,85,0,1
197105,-111.111111111111,4,2,4,70,0,1
200068,-99.9999999999999,4,2,4,75,0,1
202939,-99.9999999999999,4,2,4,5,0,1
203031,-99.9999999999999,4,2,4,75,0,1
203216,-83.3333333333333,4,2,4,80,0,1
205901,-83.3333333333333,4,2,4,5,0,1
205994,-125,4,2,4,65,0,0
206364,-125,4,2,4,20,0,0
206735,-125,4,2,4,30,0,0
207105,-125,4,2,4,40,0,0
207476,-125,4,2,4,50,0,0
207846,-125,4,2,4,60,0,0
208216,-125,4,2,4,65,0,0
208957,-100,4,2,4,80,0,1
220068,-100,4,2,4,85,0,1
220624,-100,4,2,4,85,0,0

[Colours]
Combo1 : 230,60,100
Combo2 : 130,190,100
Combo3 : 240,170,60
Combo4 : 80,170,220

[HitObjects]
246,63,806,6,0,L|236:145,1,72,2|0,0:0|0:0,0:0:0:0:
271,222,1176,2,0,P|307:235|343:232,1,72
181,201,1546,2,0,P|145:199|111:211,1,72,2|0,0:0|0:0,0:0:0:0:
160,283,1917,1,0,0:0:0:0:
271,222,2102,6,0,L|248:74,1,144,2|0,0:0|0:0,0:0:0:0:
96,38,2657,1,2,0:0:0:0:
96,38,2843,1,0,0:0:0:0:
111,211,3028,1,2,0:0:0:0:
179,118,3213,1,0,0:0:0:0:
31,128,3398,2,0,L|5:202,1,72
151,292,3768,6,0,P|186:265|200:233,2,72,2|0|0,0:0|0:0|0:0,0:0:0:0:
58,287,4324,1,0,0:0:0:0:
111,211,4509,2,0,B|151:204|182:217|182:217|228:202|255:211,1,144,2|0,0:0|0:0,0:0:0:0:
318,344,5065,6,0,P|269:297|275:221,1,144,2|0,0:0|0:0,0:0:0:0:
360,259,5620,1,0,0:0:0:0:
361,94,5805,1,0,0:0:0:0:
449,227,5991,1,2,0:0:0:0:
272,137,6176,1,0,0:0:0:0:
448,139,6361,1,2,0:0:0:0:
272,225,6546,1,0,0:0:0:0:
360,259,6731,6,0,P|367:220|359:186,2,72,2|0|0,0:0|0:0|0:0,0:0:0:0:
286,317,7287,1,0,0:0:0:0:
272,225,7472,1,2,0:0:0:0:
371,349,7657,1,0,0:0:0:0:
190,274,7843,1,0,0:0:0:0:
360,259,8028,6,0,P|358:188|296:129,1,144,2|0,0:0|0:0,0:0:0:0:
117,194,8583,2,0,L|195:188,1,72,2|0,0:0|0:0,0:0:0:0:
31,186,8954,2,0,L|25:257,1,72,2|0,0:0|0:0,0:0:0:0:
77,108,9324,2,0,L|5:102,1,72,2|0,0:0|0:0,0:0:0:0:
164,112,9694,6,0,L|236:106,1,72,2|0,0:0|0:0,0:0:0:0:
386,178,10065,2,0,L|314:172,1,72,2|0,0:0|0:0,0:0:0:0:
258,273,10435,1,2,0:0:0:0:
335,342,10620,2,0,P|359:292|355:243,1,72
224,191,10991,6,0,P|149:180|92:213,1,144,4|0,0:0|0:0,0:0:0:0:
85,323,11546,1,0,1:0:0:0:
147,100,11731,1,0,0:0:0:0:
0,248,11917,1,0,1:0:0:0:
227,180,12102,1,0,0:0:0:0:
27,128,12287,1,0,1:0:0:0:
204,301,12472,1,0,1:0:0:0:
264,119,13402,6,0,P|264:69|254:11,1,90,4|0,0:0|0:0,0:0:0:0:
196,180,13772,1,8,0:0:0:0:
283,204,13957,2,0,B|329:225|371:206|371:206|419:183|459:199,1,180,2|0,0:1|0:0,0:0:0:0:
425,282,14513,1,8,0:0:0:0:
440,70,14698,5,2,0:1:0:0:
440,70,14790,1,0,0:0:0:0:
440,70,14883,2,0,P|389:77|338:95,1,90,2|0,0:0|0:0,0:0:0:0:
221,263,15253,1,8,0:0:0:0:
196,180,15439,1,0,0:0:0:0:
338,181,15624,1,2,0:0:0:0:
184,342,15809,1,0,0:0:0:0:
126,125,15994,1,8,0:0:0:0:
314,263,16179,5,2,0:1:0:0:
314,263,16272,1,0,0:0:0:0:
314,263,16364,2,0,L|223:270,1,90,2|0,0:0|0:0,0:0:0:0:
126,125,16735,1,8,0:0:0:0:
230,157,16920,2,0,B|253:205|235:245|235:245|208:298|226:336,1,180,2|0,0:1|0:0,0:0:0:0:
377,332,17476,1,8,0:0:0:0:
140,311,17661,5,2,0:1:0:0:
140,311,17753,1,0,0:0:0:0:
140,311,17846,2,0,P|140:259|157:210,1,90,2|0,0:0|0:0,0:0:0:0:
373,104,18216,2,0,L|269:96,1,90,8|0,0:0|0:0,0:0:0:0:
203,116,18494,1,0,0:0:0:0:
182,133,18587,1,2,0:0:0:0:
319,17,18772,1,0,0:0:0:0:
323,198,18957,1,8,0:0:0:0:
185,32,19142,5,8,0:0:0:0:
185,32,19235,1,8,0:0:0:0:
185,32,19327,2,0,L|95:38,1,90,4|0,0:0|0:0,0:0:0:0:
52,214,19698,1,8,0:0:0:0:
140,278,19883,2,0,P|160:230|93:117,1,180,2|0,0:1|0:0,0:0:0:0:
51,305,20439,1,8,0:0:0:0:
237,150,20624,5,2,0:1:0:0:
237,150,20716,1,0,0:0:0:0:
237,150,20809,2,0,P|252:199|248:256,1,90,2|0,0:0|0:0,0:0:0:0:
201,344,21179,1,8,0:0:0:0:
179,74,21364,1,8,0:0:0:0:
179,74,21457,1,8,0:0:0:0:
179,74,21550,2,0,L|247:64,1,45,2|8,0:0|0:0,0:0:0:0:
398,164,21735,2,0,L|330:154,1,45,8|0,0:3|0:0,0:0:0:0:
84,223,21920,2,0,L|195:208,1,90,4|0,0:0|0:0,0:0:0:0:
379,51,22290,5,12,0:0:0:0:
347,237,22476,1,2,0:0:0:0:
347,237,22661,1,2,0:0:0:0:
133,51,22846,5,12,0:0:0:0:
165,237,23031,1,2,0:0:0:0:
256,140,23216,1,2,0:0:0:0:
57,203,23401,6,0,L|73:302,1,90,12|2,0:0|0:0,0:0:0:0:
256,332,23772,1,0,0:0:0:0:
455,203,23957,6,0,L|439:302,1,90,12|4,0:0|0:0,0:0:0:0:
256,332,24327,1,2,0:0:0:0:
256,60,24513,5,4,0:0:0:0:
160,328,24698,1,8,0:0:0:0:
160,328,24790,1,8,0:0:0:0:
160,328,24883,1,8,0:0:0:0:
352,328,25068,1,2,0:0:0:0:
185,230,25253,5,6,0:0:0:0:
185,230,25439,2,0,L|103:244,1,80.9999975280763,0|2,0:0|0:0,0:0:0:0:
249,296,25809,1,0,0:0:0:0:
279,206,25994,2,0,P|268:160|249:120,1,80.9999975280763,2|0,0:0|0:0,0:0:0:0:
302,46,26364,2,0,P|343:56|384:60,1,80.9999975280763,2|0,0:0|0:0,0:0:0:0:
172,117,26735,6,0,P|95:146|3:130,2,161.999995056153,2|2|2,0:0|0:0|0:0,0:0:0:0:
206,25,27661,1,0,0:0:0:0:
115,60,27846,2,0,P|96:125|128:194,1,121.499996292114,2|0,0:0|0:0,0:0:0:0:
129,253,28216,6,0,L|118:345,1,80.9999975280763,2|0,0:0|0:0,0:0:0:0:
205,194,28587,2,0,L|216:286,1,80.9999975280763,2|0,0:0|0:0,0:0:0:0:
293,320,28957,1,2,0:0:0:0:
397,207,29142,2,0,P|356:207|319:224,2,80.9999975280763,0|2|0,0:0|0:0|0:0,0:0:0:0:
373,285,29698,6,0,P|293:267|210:275,1,161.999995056153,2|2,0:0|0:0,0:0:0:0:
55,233,30253,1,0,0:0:0:0:
55,233,30346,1,0,0:0:0:0:
55,233,30439,2,0,P|48:166|65:123,1,80.9999975280763,2|0,0:0|0:0,0:0:0:0:
251,58,30809,2,0,P|258:125|241:168,1,80.9999975280763,2|0,0:0|0:0,0:0:0:0:
186,188,31087,1,0,0:0:0:0:
168,197,31179,6,0,B|128:218|87:201|87:201|47:183|12:199,2,161.999995056153,2|2|2,0:0|0:0|0:0,0:0:0:0:
124,119,32105,1,0,0:0:0:0:
170,284,32290,2,0,P|229:259|253:224,1,80.9999975280763,2|0,0:0|0:0,0:0:0:0:
378,240,32661,6,0,P|296:227|249:142,1,161.999995056153,2|2,0:0|0:0,0:0:0:0:
272,62,33216,1,0,0:0:0:0:
395,145,33401,2,0,L|382:253,1,80.9999975280763,2|0,0:0|0:0,0:0:0:0:
241,249,33772,2,0,L|254:357,1,80.9999975280763,2|0,0:0|0:0,0:0:0:0:
303,166,34142,6,0,P|218:147|158:184,1,161.999995056153,2|2,0:0|0:0,0:0:0:0:
328,277,34698,2,0,L|420:266,1,80.9999975280763,0|2,0:0|0:0,0:0:0:0:
238,224,35068,1,0,0:0:0:0:
194,346,35253,1,2,0:0:0:0:
82,220,35439,6,0,P|77:173|90:133,1,80.9999975280763,12|0,0:0|0:0,0:0:0:0:
305,160,35809,1,8,0:0:0:0:
155,184,35994,1,8,0:0:0:0:
250,24,36179,1,2,0:0:0:0:
274,289,36364,5,12,0:0:0:0:
205,103,36550,1,0,0:0:0:0:
205,103,36642,1,8,0:0:0:0:
205,103,36735,1,8,0:3:0:0:
400,60,36920,1,8,0:0:0:0:
400,60,37013,1,8,0:0:0:0:
400,60,37105,6,0,P|415:116|390:172,1,121.499996292114,6|0,0:0|0:0,0:0:0:0:
313,209,37476,2,0,L|206:199,1,80.9999975280763,8|0,0:0|0:0,0:0:0:0:
318,105,37846,1,2,0:0:0:0:
392,258,38031,1,2,0:0:0:0:
178,262,38216,2,0,P|157:225|162:164,1,80.9999975280763,8|0,0:0|0:0,0:0:0:0:
223,90,38587,6,0,P|150:118|61:86,2,161.999995056153,2|8|2,0:0|0:0|0:0,0:0:0:0:
144,8,39513,1,2,0:0:0:0:
45,164,39698,2,0,P|102:187|178:187,1,121.499996292114,8|0,0:0|0:0,0:0:0:0:
241,169,40068,6,0,P|283:159|327:164,1,80.9999975280763,2|0,0:0|0:0,0:0:0:0:
211,290,40439,2,0,P|169:300|125:295,1,80.9999975280763,8|0,0:0|0:0,0:0:0:0:
183,109,40809,1,2,0:0:0:0:
183,109,40994,1,2,0:0:0:0:
285,245,41179,1,8,0:0:0:0:
59,254,41364,1,0,0:0:0:0:
290,164,41550,6,0,L|284:246,1,80.9999975280763,2|2,0:0|0:0,0:0:0:0:
64,334,41920,2,0,L|59:254,1,80.9999975280763,8|0,0:0|0:0,0:0:0:0:
277,329,42290,1,2,0:0:0:0:
277,329,42383,1,0,0:0:0:0:
277,329,42476,1,2,0:0:0:0:
53,162,42661,2,0,B|39:136|39:136|85:152|133:146,1,121.499996292114,8|0,0:0|0:0,0:0:0:0:
206,114,43031,6,0,P|283:92|361:120,2,161.999995056153,2|8|2,0:0|0:0|0:0,0:0:0:0:
141,228,43957,1,2,0:0:0:0:
224,277,44142,2,0,P|235:232|230:194,1,80.9999975280763,8|0,0:0|0:0,0:0:0:0:
144,325,44513,6,0,P|225:301|303:303,1,161.999995056153,2|8,0:0|0:0,0:0:0:0:
396,327,45068,1,0,0:0:0:0:
417,119,45253,1,2,0:0:0:0:
473,244,45439,1,2,0:0:0:0:
296,219,45624,2,0,P|265:168|268:96,1,121.499996292114,8|0,0:0|0:0,0:0:0:0:
307,37,45994,6,0,P|342:17|381:9,1,80.9999975280763,2|0,0:0|0:0,0:0:0:0:
417,119,46364,2,0,P|382:138|343:146,1,80.9999975280763,8|0,0:0|0:0,0:0:0:0:
189,19,46735,1,2,0:0:0:0:
91,131,46920,1,2,0:0:0:0:
240,176,47105,1,8,0:0:0:0:
33,46,47290,6,0,P|-8:112|13:200,1,161.999995056153,4|2,0:0|0:0,0:0:0:0:
164,157,47846,1,4,0:0:0:0:
204,351,48031,1,0,0:0:0:0:
79,247,48216,1,2,0:0:0:0:
289,261,48401,1,8,0:0:0:0:
289,261,48494,1,8,0:0:0:0:
289,261,48587,2,0,L|371:251,1,80.9999975280763,4|8,0:3|0:3,0:0:0:0:
510,210,48957,6,0,P|468:208|430:192,1,80.9999975280763,4|0,0:0|0:0,0:0:0:0:
303,68,49327,1,2,0:0:0:0:
303,68,49513,1,0,0:0:0:0:
252,141,49698,2,0,L|266:237,1,80.9999975280763,2|0,0:0|0:0,0:0:0:0:
341,149,50068,1,2,0:0:0:0:
216,59,50253,6,0,P|178:89|182:203,1,161.999995056153
341,231,50809,2,0,L|421:220,1,80.9999975280763,2|0,0:0|0:0,0:0:0:0:
235,299,51179,6,0,P|194:291|155:288,1,80.9999975280763,2|0,0:0|0:0,0:0:0:0:
64,312,51457,1,0,0:0:0:0:
40,312,51550,2,0,P|100:274|117:184,1,161.999995056153,4|6,0:0|0:0,0:0:0:0:
72,47,52105,5,0,0:0:0:0:
169,88,52290,2,0,L|254:77,1,80.9999975280763,2|0,0:0|0:0,0:0:0:0:
355,184,52661,2,0,L|270:173,1,80.9999975280763,2|0,0:0|0:0,0:0:0:0:
190,236,53031,1,2,0:0:0:0:
313,341,53216,2,0,P|319:298|326:258,1,80.9999975280763,12|2,0:0|0:0,0:0:0:0:
381,99,53587,1,8,0:0:0:0:
440,207,53772,1,8,0:0:0:0:
202,161,53957,5,2,0:0:0:0:
202,161,54050,1,8,0:0:0:0:
202,161,54142,1,4,0:0:0:0:
222,322,54327,1,2,0:0:0:0:
222,322,54420,1,8,0:0:0:0:
222,322,54513,2,0,P|220:349|215:368,1,40.4999987640381,8|0,0:3|0:0,0:0:0:0:
159,254,54698,2,0,P|138:264|114:271,1,40.4999987640381,4|0,0:3|0:0,0:0:0:0:
267,236,54883,6,0,P|307:236|345:250,1,80.9999975280763,4|2,0:0|0:0,0:0:0:0:
437,333,55253,1,2,0:0:0:0:
457,148,55439,1,0,0:0:0:0:
457,148,55531,1,8,0:3:0:0:
457,148,55624,2,0,P|412:162|369:165,1,80.9999975280763,4|4,0:3|0:3,0:0:0:0:
272,90,55994,1,8,0:0:0:0:
146,164,56179,6,0,B|137:205|153:235|153:235|146:253|146:253|163:285|147:323,1,161.999995056153,2|2,0:0|0:0,0:0:0:0:
64,224,56735,2,0,P|61:180|67:138,1,80.9999975280763,8|0,0:0|0:0,0:0:0:0:
117,82,57013,1,8,0:3:0:0:
141,75,57105,1,4,0:3:0:0:
17,29,57290,1,2,0:0:0:0:
149,166,57476,2,0,B|212:186|276:155|276:155|307:167,1,161.999995056153,12|4,0:0|0:0,0:0:0:0:
448,250,58031,5,2,0:0:0:0:
374,299,58216,2,0,P|359:257|369:214,1,80.9999975280763,8|0,0:0|0:0,0:0:0:0:
426,162,58494,1,8,0:3:0:0:
454,158,58587,1,4,0:3:0:0:
270,243,58772,1,2,0:0:0:0:
451,335,58957,1,8,0:0:0:0:
213,384,59142,6,0,P|146:342|130:244,1,161.999995056153,4|2,0:0|0:0,0:0:0:0:
189,48,59698,1,8,0:0:0:0:
264,144,59883,1,0,0:0:0:0:
264,144,59976,1,8,0:0:0:0:
264,144,60068,1,8,0:0:0:0:
100,178,60253,1,8,0:3:0:0:
311,28,60439,1,4,0:3:0:0:
450,102,60624,1,2,0:0:0:0:
450,102,60716,1,2,0:0:0:0:
450,102,60809,6,0,L|438:177,1,72,6|0,0:0|0:0,0:0:0:0:
437,299,61179,2,0,P|475:304|519:294,1,72,2|0,0:0|0:0,0:0:0:0:
369,231,61550,2,0,P|331:226|287:236,1,72,2|0,0:0|0:0,0:0:0:0:
216,290,61920,1,2,0:0:0:0:
148,188,62105,5,0,0:0:0:0:
148,188,62198,1,0,0:0:0:0:
148,188,62290,2,0,P|158:136|159:113,1,72,2|0,0:0|0:0,0:0:0:0:
295,132,62661,2,0,P|285:80|284:57,1,72,2|0,0:0|0:0,0:0:0:0:
146,19,63031,5,2,0:0:0:0:
287,40,63216,1,0,0:0:0:0:
157,100,63401,2,0,P|117:111|79:113,1,72,2|0,0:0|0:0,0:0:0:0:
50,233,63772,6,0,B|136:183|235:200|235:200|254:185|254:185|248:270|308:311,1,360,2|0,0:0|0:0,0:0:0:0:
314,309,65068,6,0,P|274:263|263:176,1,144,4|0,0:0|0:0,0:0:0:0:
284,23,65624,1,2,0:0:0:0:
349,214,65809,1,8,0:0:0:0:
175,317,65994,1,8,0:0:0:0:
320,126,66179,5,8,0:0:0:0:
124,140,66364,1,10,0:0:0:0:
392,308,66550,1,8,0:0:0:0:
145,227,66735,6,0,P|98:236|51:243,1,90,4|0,0:0|0:0,0:0:0:0:
280,263,67105,1,8,0:0:0:0:
199,53,67290,1,2,0:1:0:0:
199,53,67383,1,0,0:0:0:0:
199,53,67476,2,0,P|191:99|173:158,1,90,2|0,0:0|0:0,0:0:0:0:
100,311,67846,1,8,0:0:0:0:
73,70,68031,5,2,0:1:0:0:
257,184,68216,1,2,0:0:0:0:
155,258,68401,1,2,0:1:0:0:
199,53,68587,1,8,0:0:0:0:
36,195,68772,1,2,0:1:0:0:
36,195,68864,1,0,0:0:0:0:
36,195,68957,2,0,P|46:241|49:290,1,90,2|2,0:0|0:1,0:0:0:0:
141,151,69327,1,8,0:0:0:0:
241,267,69513,5,8,0:0:0:0:
241,267,69605,1,0,0:0:0:0:
241,267,69698,2,0,P|288:277|337:276,1,90,2|2,0:0|0:1,0:0:0:0:
180,344,70068,1,8,0:0:0:0:
233,172,70253,1,2,0:1:0:0:
233,172,70346,1,0,0:0:0:0:
233,172,70439,1,2,0:0:0:0:
322,358,70624,5,2,0:1:0:0:
165,224,70809,1,8,0:0:0:0:
351,133,70994,1,2,0:1:0:0:
154,137,71179,6,0,P|150:181|165:224,1,90,2|2,0:0|0:1,0:0:0:0:
341,220,71550,1,8,0:0:0:0:
164,96,71735,2,0,L|69:110,1,90,2|2,0:1|0:0,0:0:0:0:
328,254,72105,2,0,L|423:240,1,90,2|8,0:1|0:0,0:0:0:0:
342,48,72476,5,2,0:1:0:0:
342,48,72568,1,8,0:0:0:0:
342,48,72661,1,6,0:0:0:0:
240,170,72846,2,0,P|246:211|250:261,1,90,2|2,3:0|0:0,0:0:0:0:
95,339,73216,2,0,P|138:322|182:314,1,90,4|2,3:2|0:0,0:0:0:0:
351,320,73587,2,0,P|308:337|264:345,1,90,2|8,3:0|0:0,0:0:0:0:
88,193,73957,5,4,3:2:0:0:
252,28,74142,1,2,0:0:0:0:
177,84,74327,2,0,P|169:132|168:176,1,90,2|8,3:0|0:0,0:0:0:0:
9,117,74698,2,0,P|53:118|101:108,1,90,4|2,3:2|0:0,0:0:0:0:
283,46,75068,5,8,3:2:0:0:
349,229,75253,1,10,0:0:0:0:
157,195,75439,1,8,0:0:0:0:
369,118,75624,5,12,0:0:0:0:
243,267,75809,1,8,0:3:0:0:
177,84,75994,1,2,0:0:0:0:
261,161,76179,6,0,L|245:261,1,90,4|2,0:0|0:0,0:0:0:0:
81,312,76550,2,0,L|181:296,1,90,12|2,0:0|0:0,0:0:0:0:
391,330,76920,6,0,P|347:333|302:319,1,90,4|2,0:0|0:0,0:0:0:0:
161,194,77290,1,8,0:0:0:0:
358,248,77476,1,2,0:0:0:0:
225,372,77661,1,2,0:0:0:0:
225,372,77753,1,8,0:0:0:0:
225,372,77846,1,2,0:0:0:0:
217,120,78031,5,8,0:0:0:0:
217,120,78124,1,8,0:0:0:0:
217,120,78216,2,0,P|224:92|229:58,1,45,2|8,0:0|0:0,0:0:0:0:
351,0,78401,2,0,P|326:11|304:18,1,45,8|0,0:3|0:0,0:0:0:0:
129,70,78587,5,4,0:0:0:0:
361,142,78772,1,2,0:0:0:0:
244,323,78957,2,0,B|225:371|225:371|221:334|221:334|236:289|228:243,1,180,4|2,0:0|0:0,0:0:0:0:
94,297,79513,6,0,P|44:310|-5:310,2,90,2|8|0,0:0|0:0|0:0,0:0:0:0:
221,81,80068,1,2,0:0:0:0:
112,122,80253,1,2,0:0:0:0:
267,188,80439,1,8,0:0:0:0:
139,24,80624,1,0,0:0:0:0:
139,24,80716,1,8,0:0:0:0:
139,24,80809,1,2,0:0:0:0:
68,220,80994,1,2,0:0:0:0:
68,220,81087,1,0,0:0:0:0:
68,220,81179,2,0,L|158:229,1,90,8|2,0:0|0:0,0:0:0:0:
388,186,81550,5,6,0:0:0:0:
184,335,81735,1,2,0:0:0:0:
218,40,81920,2,0,B|227:7|227:7|239:62|239:62|220:101|234:153,1,180,12|2,0:0|0:0,0:0:0:0:
419,269,82476,5,2,0:0:0:0:
466,95,82661,2,0,P|417:97|359:117,1,90,8|0,0:0|0:0,0:0:0:0:
313,165,82939,1,8,0:0:0:0:
307,191,83031,1,2,0:0:0:0:
342,24,83216,1,2,0:0:0:0:
443,183,83401,1,8,0:0:0:0:
239,86,83587,6,0,L|186:90,1,45,2|8,0:0|0:0,0:0:0:0:
33,171,83772,1,4,0:0:0:0:
33,171,83957,6,0,L|86:175,1,45,2|8,0:0|0:0,0:0:0:0:
257,250,84142,1,6,0:0:0:0:
257,250,84327,6,0,L|212:253,1,45,8|8,0:3|0:0,0:0:0:0:
22,333,84513,1,4,0:0:0:0:
111,383,84698,6,0,P|121:337|113:286,1,90,2|0,3:0|0:0,0:0:0:0:
37,82,85068,2,0,P|27:128|35:179,1,90,4|2,3:2|0:0,0:0:0:0:
299,217,85439,5,2,3:0:0:0:
204,122,85624,1,8,0:0:0:0:
115,295,85809,2,0,P|160:298|204:289,1,90,4|2,3:2|0:2,0:2:0:0:
246,38,86179,5,2,3:0:0:0:
157,211,86364,1,8,0:0:0:0:
389,108,86550,2,0,P|344:105|300:114,1,90,4|2,3:2|0:0,0:0:0:0:
203,289,86920,1,2,3:0:0:0:
162,104,87105,1,2,0:0:0:0:
41,218,87290,5,2,3:2:0:0:
41,218,87383,1,2,0:0:0:0:
41,218,87476,2,0,L|132:205,1,90,6|0,0:0|0:0,0:0:0:0:
231,217,87753,1,8,0:0:0:0:
259,236,87846,1,2,0:0:0:0:
55,118,88031,5,8,0:3:0:0:
187,363,88216,1,2,0:0:0:0:
187,363,88309,1,8,0:3:0:0:
187,363,88401,1,4,0:3:0:0:
287,160,88587,1,2,0:0:0:0:
389,268,88772,6,0,L|274:253,1,107.999996704102,12|2,0:0|0:0,0:0:0:0:
55,118,89142,2,0,L|170:103,1,107.999996704102,12|2,0:0|0:0,0:0:0:0:
323,361,89513,5,2,0:0:0:0:
323,361,89605,1,8,0:0:0:0:
323,361,89698,1,2,0:0:0:0:
374,85,89883,1,8,0:3:0:0:
123,210,90068,1,4,0:3:0:0:
269,214,90253,5,2,0:0:0:0:
269,214,90346,1,2,0:0:0:0:
269,214,90439,2,0,P|283:136|266:57,1,161.999995056153,4|0,0:0|0:0,0:0:0:0:
174,25,90994,1,2,0:0:0:0:
106,89,91179,2,0,B|98:133|68:160|68:160|105:150|148:170,1,161.999995056153,2|0,0:1|0:0,0:0:0:0:
95,248,91735,1,2,0:1:0:0:
55,332,91920,6,0,P|21:310|4:274,1,80.9999975280763,2|2,0:0|0:0,0:0:0:0:
148,319,92290,2,0,L|231:309,1,80.9999975280763,2|0,0:1|0:0,0:0:0:0:
348,210,92661,5,2,0:1:0:0:
405,278,92846,1,2,0:1:0:0:
374,363,93031,1,0,0:0:0:0:
287,379,93216,1,2,0:1:0:0:
260,225,93401,6,0,P|267:184|270:142,1,80.9999975280763,4|0,0:0|0:0,0:0:0:0:
384,6,93772,2,0,P|387:46|393:86,1,80.9999975280763,2|0,0:0|0:0,0:0:0:0:
438,182,94142,1,2,0:0:0:0:
265,49,94327,1,8,0:0:0:0:
468,36,94513,1,2,0:0:0:0:
192,173,94698,6,0,B|148:181|99:161|99:161|61:173|61:173|104:188,1,180,4|8,0:0|0:3,0:0:0:0:
351,158,95253,1,2,0:0:0:0:
160,86,95439,1,2,0:0:0:0:
160,86,95531,1,8,0:0:0:0:
160,86,95624,1,8,0:0:0:0:
192,345,95809,1,2,0:0:0:0:
192,345,95901,1,8,0:0:0:0:
192,345,95994,2,0,P|209:305|216:256,1,90,2|0,0:0|0:0,0:0:0:0:
67,69,96364,5,8,0:0:0:0:
439,145,96550,1,8,0:0:0:0:
457,152,96920,5,8,0:0:0:0:
307,329,97290,1,8,0:0:0:0:
228,110,97661,6,0,L|328:98,1,90,4|0,0:0|0:0,0:0:0:0:
154,228,98031,2,0,L|54:216,1,90,10|2,0:0|0:0,0:0:0:0:
307,329,98401,5,2,0:0:0:0:
307,329,98494,1,0,0:0:0:0:
307,329,98587,1,2,0:0:0:0:
307,329,98679,1,8,0:3:0:0:
307,329,98772,2,0,L|317:278,1,45,8|0,0:3|0:0,0:0:0:0:
259,170,98957,2,0,L|298:204,1,45,2|0,0:0|0:0,0:0:0:0:
377,223,99142,2,0,L|419:209,2,45,2|0|4,0:1|0:0|0:0,0:0:0:0:
256,192,99420,12,0,100809,0:0:0:0:
153,134,111179,5,2,0:0:0:0:
217,181,111364,1,0,0:0:0:0:
225,102,111550,2,0,P|200:67|171:54,1,72
72,218,111920,2,0,L|164:209,1,72,2|0,0:0|0:0,0:0:0:0:
357,233,112290,5,0,0:0:0:0:
289,149,112476,2,0,P|271:81|296:9,1,144,2|0,0:0|0:0,0:0:0:0:
401,134,113031,1,2,0:0:0:0:
357,233,113216,2,0,P|287:253|219:229,1,144
104,79,113772,2,0,L|96:152,1,72,2|0,0:0|0:0,0:0:0:0:
65,320,114142,5,2,0:0:0:0:
65,320,114327,1,0,0:0:0:0:
139,251,114513,1,0,0:0:0:0:
204,328,114698,1,0,0:0:0:0:
65,320,114883,2,0,P|41:275|42:234,1,72,2|0,0:0|0:0,0:0:0:0:
96,150,115253,1,0,0:0:0:0:
229,240,115439,6,0,B|267:257|299:246|299:246|333:233|371:245,1,144,2|0,0:0|0:0,0:0:0:0:
337,325,115994,1,2,0:0:0:0:
270,163,116179,2,0,P|340:150|409:171,1,144
229,240,116735,2,0,P|192:229|158:224,1,72,2|0,0:0|0:0,0:0:0:0:
13,262,117105,5,2,0:0:0:0:
13,262,117290,1,0,0:0:0:0:
102,367,117476,2,0,P|114:327|113:291,1,72
70,101,117846,2,0,P|58:141|59:177,1,72,2|0,0:0|0:0,0:0:0:0:
159,224,118216,5,0,0:0:0:0:
246,213,118401,2,0,P|211:150|137:139,1,144,2|0,0:0|0:0,0:0:0:0:
212,293,118957,1,2,0:0:0:0:
299,285,119142,2,0,P|332:224|308:148,1,144
70,101,119698,2,0,L|151:91,1,72,2|0,0:0|0:0,0:0:0:0:
289,71,120068,5,2,0:1:0:0:
139,200,120253,1,0,0:0:0:0:
331,254,120439,1,2,0:1:0:0:
109,191,120624,6,0,P|106:238|110:281,1,90,2|0,0:1|0:0,0:0:0:0:
364,151,120994,1,0,0:0:0:0:
217,297,121179,1,2,0:0:0:0:
416,355,121364,1,0,0:0:0:0:
223,165,121550,5,2,0:0:0:0:
223,165,121735,1,2,0:0:0:0:
299,357,121920,1,2,0:1:0:0:
477,256,122105,1,2,0:0:0:0:
477,256,122198,1,0,0:0:0:0:
477,256,122290,6,0,P|490:213|489:165,1,90,4|8,0:0|0:0,0:0:0:0:
424,87,122568,1,8,0:0:0:0:
408,79,122661,2,0,L|360:86,1,45,8|0,0:0|0:0,0:0:0:0:
178,158,122846,2,0,L|226:165,1,45,8|0,0:0|0:0,0:0:0:0:
399,274,123031,6,0,P|327:266|268:284,1,135,6|0,0:0|0:0,0:0:0:0:
241,301,123401,2,0,L|151:287,1,90,8|0,0:0|0:0,0:0:0:0:
66,307,123679,1,0,0:0:0:0:
40,322,123772,1,2,0:0:0:0:
109,99,123957,5,2,0:1:0:0:
109,99,124050,1,0,0:0:0:0:
109,99,124142,2,0,P|131:138|132:182,1,90,8|0,0:0|0:0,0:0:0:0:
52,161,124420,1,0,0:0:0:0:
34,150,124513,2,0,B|168:133|168:133|211:151,1,180,2|8,0:0|0:0,0:0:0:0:
412,315,125068,2,0,P|331:341|262:283,1,180,2|0,0:1|0:0,0:0:0:0:
312,57,125624,1,8,0:0:0:0:
440,141,125809,5,2,0:1:0:0:
440,141,125901,1,0,0:0:0:0:
440,141,125994,2,0,L|424:236,1,90,4|0,0:0|0:0,0:0:0:0:
132,189,126364,1,8,0:0:0:0:
151,148,126457,1,0,0:0:0:0:
187,123,126550,1,2,0:1:0:0:
232,118,126642,1,0,0:0:0:0:
273,135,126735,2,0,P|292:151|303:170,1,45,2|0,0:0|0:0,0:0:0:0:
217,294,126920,2,0,B|186:288|164:274|164:274|131:287|99:275|99:275|72:287|40:286,1,180,2|0,0:1|0:0,0:0:0:0:
37,132,127476,5,2,0:0:0:0:
217,214,127661,1,2,0:1:0:0:
217,214,127753,1,0,0:0:0:0:
217,214,127846,1,2,0:0:0:0:
217,7,128031,1,2,0:1:0:0:
116,228,128216,6,0,P|121:250|130:271,1,45,2|0,0:0|0:0,0:0:0:0:
280,288,128401,2,0,P|296:272|310:254,1,45,2|0,0:1|0:0,0:0:0:0:
292,128,128587,2,0,B|230:89|173:110|173:110|146:97|146:97|172:88,1,180,8|4,0:0|0:0,0:0:0:0:
445,247,129142,5,2,0:1:0:0:
217,214,129327,1,8,0:0:0:0:
392,97,129513,2,0,P|393:143|376:192,1,90,2|2,0:1|0:0,0:0:0:0:
163,360,129883,2,0,L|156:258,1,90,2|8,0:1|0:0,0:0:0:0:
141,27,130253,5,2,0:1:0:0:
292,128,130439,1,2,0:0:0:0:
98,165,130624,1,2,0:1:0:0:
98,165,130716,1,0,0:0:0:0:
98,165,130809,1,8,0:0:0:0:
290,32,130994,2,0,P|366:68|384:158,1,180,2|0,0:1|0:0,0:0:0:0:
98,165,131550,6,0,L|150:155,1,45,2|0,0:0|0:0,0:0:0:0:
292,128,131735,2,0,L|240:118,1,45,2|0,1:0|0:0,0:0:0:0:
133,25,131920,6,0,P|125:64|113:92,2,60,4|0|0,0:0|0:1|0:1,0:0:0:0:
219,194,132290,2,0,P|227:233|239:261,2,60,8|0|0,0:0|0:1|0:1,0:0:0:0:
97,288,132661,1,2,0:0:0:0:
97,288,132784,2,0,P|61:297|27:299,1,60,0|8,0:1|0:3,0:0:0:0:
213,346,133031,1,8,0:0:0:0:
213,346,133155,2,0,P|249:337|283:335,1,60,0|0,0:1|0:0,0:0:0:0:
462,177,133401,5,2,0:1:0:0:
462,177,133494,1,8,0:0:0:0:
462,177,133587,2,0,L|451:270,1,90,2|8,0:1|0:0,0:0:0:0:
277,98,133957,1,2,0:1:0:0:
277,98,134050,1,8,0:0:0:0:
277,98,134142,2,0,L|371:86,1,90,2|8,0:1|0:3,0:0:0:0:
388,300,134513,6,0,P|366:287|337:277,1,45,8|0,0:0|0:0,0:0:0:0:
233,235,134698,2,0,P|210:231|188:232,1,45,8|0,0:3|0:0,0:0:0:0:
60,268,134883,2,0,P|123:261|190:230,1,135,10|0,0:0|0:0,0:0:0:0:
224,150,135253,2,0,L|213:47,1,90,4|0,0:0|0:0,0:0:0:0:
124,162,135624,5,2,0:0:0:0:
338,192,135809,1,2,0:1:0:0:
202,358,135994,2,0,P|192:304|205:264,1,90,8|2,0:0|0:1,0:0:0:0:
282,315,136272,1,0,0:0:0:0:
297,326,136364,2,0,L|403:318,1,90,2|0,0:0|0:0,0:0:0:0:
222,151,136735,5,8,0:0:0:0:
222,151,136827,1,0,0:0:0:0:
222,151,136920,1,2,0:1:0:0:
50,212,137105,2,0,L|44:167,1,45,2|0,0:0|0:0,0:0:0:0:
123,161,137290,2,0,L|129:117,1,45,2|0,0:1|0:0,0:0:0:0:
138,33,137476,1,8,0:0:0:0:
238,232,137661,6,0,P|215:235|181:220,1,45,2|0,0:1|0:0,0:0:0:0:
282,93,137846,2,0,B|346:56|419:91|419:91|387:85|365:92,1,180,4|8,0:0|0:0,0:0:0:0:
238,232,138401,6,0,P|215:235|181:220,1,45,2|0,0:1|0:0,0:0:0:0:
282,79,138587,2,0,B|346:42|419:77|419:77|387:71|365:78,1,180,2|8,0:0|0:0,0:0:0:0:
238,232,139142,6,0,P|215:235|181:220,1,45,2|0,0:1|0:0,0:0:0:0:
282,61,139327,2,0,P|307:51|330:47,1,45,6|0,0:0|0:0,0:0:0:0:
497,69,139513,2,0,P|476:59|454:54,1,45,2|0,0:1|0:0,0:0:0:0:
258,149,139698,2,0,P|283:139|306:135,1,45,8|0,0:0|0:0,0:0:0:0:
512,161,139883,2,0,P|491:151|469:146,1,45,2|0,0:1|0:0,0:0:0:0:
238,232,140068,5,2,0:0:0:0:
391,8,140253,1,2,0:1:0:0:
349,294,140439,1,2,0:0:0:0:
348,298,140531,1,0,0:0:0:0:
347,303,140624,1,8,0:0:0:0:
346,308,140716,1,8,0:0:0:0:
346,313,140809,6,0,B|298:335|260:316|260:316|215:292|171:308,1,180,4|8,0:0|0:0,0:0:0:0:
39,150,141364,1,2,0:1:0:0:
39,150,141457,1,0,0:0:0:0:
39,149,141550,2,0,P|72:119|113:101,1,90,2|2,0:0|0:1,0:0:0:0:
333,148,141920,1,8,0:0:0:0:
209,221,142105,5,2,0:1:0:0:
209,221,142198,1,0,0:0:0:0:
209,221,142290,2,0,L|201:161,1,45,8|0,0:0|0:0,0:0:0:0:
125,20,142476,2,0,L|117:80,1,45,2|8,0:1|0:0,0:0:0:0:
87,252,142661,5,2,0:0:0:0:
87,252,142753,1,8,0:0:0:0:
87,252,142846,1,8,0:3:0:0:
87,252,142939,1,0,0:0:0:0:
87,252,143031,2,0,L|150:242,1,45,2|0,0:0|0:0,0:0:0:0:
398,159,143216,2,0,L|353:151,1,45,4|0,0:3|0:0,0:0:0:0:
77,66,143401,6,0,P|157:56|104:103,1,202.500007724762,12|0,0:0|0:0,0:0:0:0:
119,64,143772,6,0,L|228:74,1,107.999996704102,12|2,0:0|0:0,0:0:0:0:
338,151,144142,1,2,0:0:0:0:
198,331,144327,5,12,0:0:0:0:
255,145,144513,1,2,0:0:0:0:
441,291,144698,1,2,0:0:0:0:
121,239,144883,5,12,0:0:0:0:
303,79,145068,1,2,0:0:0:0:
303,79,145161,1,0,0:0:0:0:
303,79,145253,1,2,0:0:0:0:
162,335,145439,6,0,P|99:338|46:312,1,107.999996704102,12|2,0:0|0:0,0:0:0:0:
32,140,145809,1,2,0:0:0:0:
320,181,145994,6,0,L|291:298,1,107.999996704102,12|2,0:0|0:0,0:0:0:0:
271,363,146272,1,8,0:0:0:0:
266,384,146364,1,2,0:0:0:0:
214,74,146550,1,2,0:0:0:0:
394,295,146735,6,0,L|320:287,1,72,4|0,0:0|0:0,0:0:0:0:
221,190,147105,2,0,L|295:182,1,72
408,169,147476,1,0,0:0:0:0:
408,169,147661,1,0,0:0:0:0:
340,104,147846,1,0,0:0:0:0:
362,240,148031,6,0,P|432:251|487:201,1,144,2|0,0:0|0:0,0:0:0:0:
424,68,148587,1,0,0:0:0:0:
340,104,148772,2,0,L|193:97,1,144
72,203,149327,2,0,P|96:178|115:141,1,72,2|0,0:1|0:0,0:0:0:0:
112,40,149698,6,0,L|37:52,1,72,2|0,0:0|0:0,0:0:0:0:
196,97,150068,2,0,L|271:85,1,72
350,166,150439,1,0,0:0:0:0:
350,166,150624,1,0,0:0:0:0:
322,278,150809,1,0,0:0:0:0:
207,189,150994,6,0,L|350:166,1,144,2|0,0:0|0:0,0:0:0:0:
434,247,151550,1,0,0:0:0:0:
322,278,151735,2,0,P|252:264|182:276,1,144,2|2,0:0|0:1,0:0:0:0:
23,221,152290,2,0,P|60:220|106:203,1,72,2|0,0:1|0:0,0:0:0:0:
201,82,152661,5,2,0:0:0:0:
201,82,152846,1,2,0:0:0:0:
86,58,153031,2,0,L|90:139,1,72
206,234,153401,2,0,L|202:153,1,72
93,209,153772,1,0,0:0:0:0:
211,314,153957,6,0,P|274:278|283:213,1,144,2|0,0:0|0:0,0:0:0:0:
89,129,154513,1,0,0:0:0:0:
206,234,154698,2,0,L|351:223,1,144,0|2,0:0|0:0,0:0:0:0:
496,94,155253,2,0,P|436:99|387:78,1,108,2|0,0:1|0:0,0:0:0:0:
327,38,155624,6,0,L|241:50,1,80.9999975280763,2|2,0:0|0:0,0:0:0:0:
73,116,155994,2,0,L|159:128,1,80.9999975280763
349,223,156364,1,0,0:0:0:0:
191,324,156550,1,0,0:0:0:0:
163,223,156735,1,0,0:0:0:0:
321,324,156920,6,0,B|352:326|378:317|378:317|431:338|472:323|472:323|428:310,1,198.000006042481,6|2,0:0|0:0,0:0:0:0:
163,223,157476,2,0,P|125:256|72:284,1,99.0000030212403,2|2,0:0|0:0,0:0:0:0:
196,49,157846,1,2,0:0:0:0:
274,252,158031,1,8,0:0:0:0:
49,127,158216,1,2,0:0:0:0:
321,155,158401,5,8,0:0:0:0:
225,344,158587,1,8,0:0:0:0:
225,344,158772,1,8,0:0:0:0:
277,52,158957,5,10,0:0:0:0:
388,327,159142,1,8,0:0:0:0:
388,327,159327,1,8,0:0:0:0:
143,156,159513,5,10,0:0:0:0:
449,134,159698,1,8,0:0:0:0:
77,296,159883,1,8,0:0:0:0:
77,296,160994,5,0,0:0:0:0:
77,296,161179,2,0,P|98:284|122:273,1,49.5000015106202,2|0,0:1|0:0,0:0:0:0:
231,243,161364,2,0,P|255:238|279:242,1,49.5000015106202,2|0,0:1|0:0,0:0:0:0:
435,296,161550,6,0,P|397:247|384:198,1,107.999996704102,6|0,0:0|0:0,0:0:0:0:
444,18,161920,1,8,0:0:0:0:
231,165,162105,1,2,0:1:0:0:
231,165,162198,1,0,0:0:0:0:
231,165,162290,1,2,0:0:0:0:
414,113,162476,1,2,0:1:0:0:
113,28,162661,1,8,0:0:0:0:
190,331,162846,5,2,0:1:0:0:
190,331,162939,1,0,0:0:0:0:
190,331,163031,2,0,P|222:280|222:232,1,107.999996704102,2|2,0:0|0:1,0:0:0:0:
85,149,163401,1,8,0:0:0:0:
114,354,163587,1,2,0:1:0:0:
114,354,163679,1,0,0:0:0:0:
114,354,163772,1,2,0:0:0:0:
338,284,163957,1,2,0:1:0:0:
338,284,164050,1,0,0:0:0:0:
338,284,164142,1,8,0:0:0:0:
148,260,164327,6,0,P|118:257|87:249,1,53.9999983520508,2|0,0:0|0:0,0:0:0:0:
205,188,164513,2,0,P|257:172|311:172,1,107.999996704102,6|2,0:0|0:1,0:0:0:0:
466,247,164883,1,8,0:0:0:0:
409,166,165068,1,2,0:1:0:0:
409,166,165161,1,0,0:0:0:0:
409,166,165253,1,2,0:0:0:0:
277,355,165439,2,0,P|252:297|260:236,1,107.999996704102,2|8,0:1|0:0,0:0:0:0:
356,37,165809,1,2,0:1:0:0:
448,249,165994,5,2,0:0:0:0:
231,72,166179,1,2,0:1:0:0:
338,284,166364,1,8,0:0:0:0:
504,113,166550,2,0,L|496:5,1,107.999996704102,2|2,0:1|0:0,0:0:0:0:
178,165,166920,2,0,L|185:272,1,107.999996704102,2|8,0:1|0:0,0:0:0:0:
345,170,167290,5,8,0:0:0:0:
345,170,167383,1,8,0:0:0:0:
345,170,167476,1,6,0:0:0:0:
231,72,167661,2,0,P|172:59|127:71,1,107.999996704102,2|8,3:0|0:0,0:0:0:0:
287,266,168031,2,0,L|403:252,1,107.999996704102,4|2,3:2|0:0,0:0:0:0:
424,49,168401,1,2,3:0:0:0:
424,49,168587,1,8,0:0:0:0:
231,220,168772,6,0,L|247:326,1,107.999996704102,4|2,3:2|0:0,0:0:0:0:
410,146,169142,2,0,L|394:252,1,107.999996704102,2|8,3:0|0:0,0:0:0:0:
220,123,169513,2,0,P|164:152|143:207,1,107.999996704102,4|2,3:2|0:0,0:0:0:0:
315,261,169883,6,0,P|326:211|303:149,1,107.999996704102,2|8,3:0|0:0,0:0:0:0:
44,153,170253,1,2,3:1:0:0:
44,153,170346,1,0,0:0:0:0:
44,153,170439,5,6,0:0:0:0:
215,326,170624,2,0,L|232:207,1,107.999996704102,8|2,0:0|0:0,0:0:0:0:
129,2,170994,2,0,P|123:57|149:105,1,107.999996704102,4|2,0:0|0:0,0:0:0:0:
408,73,171364,2,0,L|297:86,1,107.999996704102,12|2,0:0|0:0,0:0:0:0:
40,245,171735,6,0,L|151:232,1,107.999996704102,12|2,0:0|0:0,0:0:0:0:
406,309,172105,1,8,0:0:0:0:
406,309,172198,1,0,0:0:0:0:
406,309,172290,1,12,0:0:0:0:
217,358,172476,5,2,0:1:0:0:
217,358,172568,1,8,0:0:0:0:
217,358,172661,2,0,L|211:296,1,53.9999983520508,2|0,0:0|0:0,0:0:0:0:
228,101,172846,1,8,0:0:0:0:
261,59,172939,1,8,0:3:0:0:
312,47,173031,1,2,0:0:0:0:
360,68,173124,1,0,0:0:0:0:
385,115,173216,2,0,P|383:141|372:176,1,53.9999983520508,2|8,0:1|0:0,0:0:0:0:
103,134,173401,2,0,B|149:102|203:123|203:123|264:153|318:121,1,215.999993408203,4|8,0:0|0:0,0:0:0:0:
103,34,173957,6,0,P|50:56|10:97,1,107.999996704102,2|2,0:1|0:0,0:0:0:0:
138,292,174327,1,0,0:0:0:0:
270,211,174513,2,0,P|222:194|165:193,1,107.999996704102,8|0,0:0|0:0,0:0:0:0:
85,227,174790,1,2,0:1:0:0:
64,255,174883,1,2,0:0:0:0:
239,81,175068,1,2,0:1:0:0:
237,306,175253,1,8,0:0:0:0:
122,122,175439,5,2,0:0:0:0:
122,122,175531,1,0,0:0:0:0:
122,122,175624,1,8,0:0:0:0:
341,239,175809,1,2,0:1:0:0:
341,239,175901,1,0,0:0:0:0:
341,239,175994,2,0,L|399:231,1,53.9999983520508,8|0,0:0|0:0,0:0:0:0:
237,306,176179,2,0,L|179:298,1,53.9999983520508,2|0,0:0|0:0,0:0:0:0:
296,161,176364,6,0,L|420:141,1,107.999996704102,4|2,0:0|0:1,0:0:0:0:
219,210,176735,1,8,0:0:0:0:
268,61,176920,1,2,0:1:0:0:
268,61,177013,1,0,0:0:0:0:
268,61,177105,1,2,0:0:0:0:
321,326,177290,1,0,0:0:0:0:
60,254,177476,1,8,0:0:0:0:
219,210,177661,5,2,0:1:0:0:
219,210,177753,1,0,0:0:0:0:
219,210,177846,2,0,L|210:323,1,107.999996704102,2|2,0:0|0:1,0:0:0:0:
134,116,178216,1,8,0:0:0:0:
340,181,178401,1,2,0:1:0:0:
340,181,178494,1,8,0:0:0:0:
340,181,178587,1,2,0:0:0:0:
59,257,178772,5,2,0:0:0:0:
59,257,178864,1,8,0:0:0:0:
59,257,178957,2,0,P|74:229|84:198,1,53.9999983520508,8|8,0:0|0:0,0:0:0:0:
203,22,179142,2,0,P|203:48|208:75,1,53.9999983520508,2|0,0:0|0:0,0:0:0:0:
294,251,179327,5,4,0:0:0:0:
404,129,179513,2,0,P|356:103|303:109,1,107.999996704102,0|8,0:0|0:0,0:0:0:0:
194,212,179883,2,0,L|208:328,1,107.999996704102,4|2,3:2|0:0,0:0:0:0:
414,260,180253,2,0,L|428:144,1,107.999996704102,2|8,3:0|0:0,0:0:0:0:
179,75,180624,6,0,P|130:101|72:101,1,107.999996704102,4|2,3:2|0:0,0:0:0:0:
360,99,180994,2,0,P|409:73|467:73,1,107.999996704102,2|8,3:0|0:0,0:0:0:0:
460,312,181364,2,0,P|407:310|360:285,1,107.999996704102,4|2,3:2|0:0,0:0:0:0:
256,64,181735,1,2,3:0:0:0:
169,266,181920,1,2,0:0:0:0:
360,193,182105,5,8,0:0:0:0:
360,193,182198,1,8,0:0:0:0:
360,193,182290,2,0,L|240:175,1,107.999996704102,6|0,0:0|0:0,0:0:0:0:
162,163,182568,1,8,0:0:0:0:
135,159,182661,1,2,0:0:0:0:
267,318,182846,1,8,0:3:0:0:
360,99,183031,5,2,0:0:0:0:
360,99,183124,1,8,0:3:0:0:
360,99,183216,1,8,0:3:0:0:
152,285,183401,1,4,0:3:0:0:
359,383,183587,6,0,P|370:320|365:277,1,107.999996704102,12|2,0:0|0:0,0:0:0:0:
136,33,183957,2,0,P|125:96|130:139,1,107.999996704102,8|4,0:3|0:0,0:0:0:0:
375,182,184327,5,2,0:1:0:0:
375,182,184420,1,8,0:0:0:0:
375,182,184513,2,0,P|403:173|432:147,1,53.9999983520508,2|8,0:0|0:0,0:0:0:0:
345,9,184698,2,0,P|319:16|297:32,1,53.9999983520508,2|8,0:1|0:0,0:0:0:0:
230,215,184883,1,2,0:0:0:0:
233,241,184976,1,8,0:0:0:0:
237,268,185068,1,8,0:3:0:0:
240,295,185161,1,8,0:3:0:0:
244,322,185253,5,10,0:0:0:0:
360,99,185439,1,2,0:0:0:0:
155,169,185624,2,0,B|111:184|73:169|73:169|30:152|0:174|0:174|55:195,1,215.999993408203,4|2,0:0|0:0,0:0:0:0:
243,94,186179,5,2,0:0:0:0:
157,268,186364,1,8,0:0:0:0:
114,97,186550,1,2,0:1:0:0:
114,97,186642,1,0,0:0:0:0:
114,97,186735,1,2,0:0:0:0:
275,208,186920,1,2,0:0:0:0:
67,267,187105,1,8,0:0:0:0:
306,366,187290,5,2,0:0:0:0:
306,366,187383,1,8,0:0:0:0:
306,366,187476,2,0,P|334:312|332:265,1,107.999996704102,2|2,0:0|0:0,0:0:0:0:
275,208,187753,1,0,0:0:0:0:
255,190,187846,2,0,L|144:201,1,107.999996704102,8|8,0:0|0:0,0:0:0:0:
394,171,188216,5,2,0:0:0:0:
248,299,188401,1,8,0:0:0:0:
193,71,188587,2,0,P|251:22|251:115,1,215.999993408203,4|2,0:0|0:0,0:0:0:0:
120,37,189142,5,2,0:0:0:0:
360,99,189327,1,8,0:0:0:0:
174,266,189513,1,2,0:1:0:0:
174,266,189605,1,8,0:0:0:0:
174,266,189698,2,0,P|162:213|175:159,1,107.999996704102,2|2,0:0|0:0,0:0:0:0:
299,264,190068,1,8,0:0:0:0:
84,335,190253,1,2,0:0:0:0:
84,335,190346,1,8,0:0:0:0:
84,335,190439,1,2,0:0:0:0:
104,99,190624,5,2,0:1:0:0:
104,99,190716,1,8,0:0:0:0:
104,99,190809,2,0,P|124:82|149:73,1,53.9999983520508,2|0,0:0|0:0,0:0:0:0:
263,145,190994,2,0,P|266:170|262:197,1,53.9999983520508,8|8,0:3|0:0,0:0:0:0:
116,248,191179,5,4,0:0:0:0:
104,99,191364,2,0,P|150:72|205:71,1,107.999996704102,0|8,0:0|0:0,0:0:0:0:
335,254,191735,2,0,P|289:281|234:282,1,107.999996704102,4|2,3:2|0:0,0:0:0:0:
176,154,192105,5,2,3:0:0:0:
398,203,192290,1,8,0:0:0:0:
178,342,192476,1,4,3:2:0:0:
178,342,192568,1,0,0:0:0:0:
178,342,192661,6,0,P|159:286|173:233,1,107.999996704102,2|2,0:0|3:0,0:0:0:0:
325,177,193031,1,8,0:0:0:0:
85,80,193216,1,4,3:2:0:0:
85,80,193309,1,0,0:0:0:0:
85,80,193401,6,0,L|96:204,1,107.999996704102,2|2,0:0|3:0,0:0:0:0:
236,282,193772,1,8,0:0:0:0:
322,49,193957,1,8,3:0:0:0:
322,49,194050,1,0,0:0:0:0:
322,49,194142,5,6,0:0:0:0:
174,157,194327,1,8,0:0:0:0:
409,240,194513,1,2,0:0:0:0:
178,342,194698,6,0,P|159:286|173:233,1,107.999996704102,6|2,0:0|0:0,0:0:0:0:
452,134,195068,2,0,L|342:144,1,107.999996704102,8|2,0:0|0:0,0:0:0:0:
61,249,195439,6,0,L|171:239,1,107.999996704102,4|2,0:0|0:0,0:0:0:0:
288,46,195809,1,8,0:3:0:0:
324,271,195994,1,8,0:3:0:0:
145,72,196179,5,8,0:0:0:0:
418,135,196364,1,2,0:0:0:0:
226,355,196550,1,8,0:0:0:0:
288,46,196735,5,8,0:0:0:0:
436,297,196920,1,10,0:0:0:0:
234,145,197105,6,0,P|156:134|80:170,1,161.999995056153,4|0,0:0|0:0,0:0:0:0:
59,271,197661,1,2,0:0:0:0:
147,328,197846,2,0,P|163:285|160:245,1,80.9999975280763,8|0,0:0|0:0,0:0:0:0:
68,90,198216,2,0,P|67:130|82:167,1,80.9999975280763
277,112,198587,2,0,L|196:103,1,80.9999975280763,2|0,0:0|0:0,0:0:0:0:
249,235,198957,2,0,L|329:226,1,80.9999975280763,0|2,0:0|0:0,0:0:0:0:
364,41,199327,5,8,0:0:0:0:
364,41,199513,1,2,0:0:0:0:
466,16,199698,1,2,0:0:0:0:
485,120,199883,1,0,0:0:0:0:
383,145,200068,6,0,P|334:140|297:122,1,90,12|0,0:0|0:0,0:0:0:0:
203,13,200439,1,2,0:0:0:0:
203,13,200624,1,2,0:0:0:0:
164,266,200809,1,10,0:0:0:0:
273,200,200994,1,2,0:0:0:0:
79,176,201179,1,10,0:0:0:0:
261,292,201364,6,0,P|308:286|342:263,1,90,4|2,0:0|0:0,0:0:0:0:
283,45,201735,1,8,0:3:0:0:
176,187,201920,1,6,0:0:0:0:
432,138,202105,1,8,0:0:0:0:
432,138,202198,1,8,0:0:0:0:
432,138,202290,2,0,L|371:129,1,45,2|0,0:0|0:0,0:0:0:0:
155,64,202476,2,0,L|216:55,1,45,2|8,0:0|0:0,0:0:0:0:
472,227,202661,2,0,P|389:249|327:197,1,135,4|0,0:0|0:0,0:0:0:0:
297,159,203031,6,0,P|299:106|282:51,1,90,8|0,0:0|0:0,0:0:0:0:
215,31,203309,1,8,0:3:0:0:
183,27,203401,1,2,0:0:0:0:
157,247,203587,2,0,P|208:255|261:237,1,107.999996704102,4|0,0:0|0:0,0:0:0:0:
107,159,203957,2,0,P|56:151|3:169,1,107.999996704102,4|0,0:0|0:0,0:0:0:0:
335,326,204327,5,6,0:0:0:0:
193,24,204698,1,8,0:0:0:0:
193,24,204790,1,8,0:0:0:0:
193,24,204883,1,8,0:0:0:0:
50,262,205068,2,0,L|158:246,1,107.999996704102,6|0,0:0|0:0,0:0:0:0:
404,129,205439,2,0,P|362:124|430:200,1,269.999991760254,6|0,0:0|0:0,0:0:0:0:
376,179,205994,6,0,B|305:216|219:165|219:165|153:127|65:121|12:229|67:341|169:337|231:274,1,576,0|2,0:0|0:1,0:0:0:0:
154,226,207846,2,0,P|88:252|19:233,1,144,2|0,0:1|0:0,0:0:0:0:
256,52,208587,1,2,0:1:0:0:
358,226,208957,6,0,P|359:271|321:328,1,90,4|0,0:0|0:0,0:0:0:0:
213,355,209327,1,8,0:0:0:0:
282,140,209513,2,0,B|405:126|405:126|458:152,1,180,2|0,0:1|0:0,0:0:0:0:
275,251,210068,1,8,0:0:0:0:
180,39,210253,5,2,0:1:0:0:
180,39,210346,1,0,0:0:0:0:
180,39,210439,1,2,0:0:0:0:
104,270,210624,1,0,0:0:0:0:
26,159,210809,2,0,P|66:137|116:136,1,90,8|0,0:0|0:0,0:0:0:0:
189,167,211087,1,0,0:0:0:0:
207,187,211179,1,2,0:0:0:0:
65,49,211364,1,2,0:1:0:0:
104,270,211550,2,0,P|144:292|194:293,1,90,8|0,0:0|0:0,0:0:0:0:
267,253,211827,1,0,0:0:0:0:
293,222,211920,6,0,L|382:233,1,90,6|0,0:0|0:0,0:0:0:0:
189,167,212290,1,8,0:0:0:0:
345,298,212476,2,0,P|417:301|446:199,1,180,2|0,0:1|0:0,0:0:0:0:
379,39,213031,1,8,0:0:0:0:
251,81,213216,5,2,0:1:0:0:
251,81,213309,1,0,0:0:0:0:
251,81,213401,2,0,P|201:84|153:70,1,90,2|0,0:0|0:0,0:0:0:0:
388,154,213772,1,8,0:0:0:0:
224,283,213957,1,2,0:1:0:0:
224,283,214050,1,8,0:0:0:0:
224,283,214142,1,2,0:0:0:0:
186,154,214327,1,8,0:0:0:0:
382,233,214513,1,2,0:0:0:0:
178,380,214698,5,8,0:0:0:0:
178,380,214790,1,8,0:0:0:0:
178,380,214883,2,0,P|138:351|121:301,1,90,4|0,0:0|0:0,0:0:0:0:
186,154,215253,1,8,0:0:0:0:
376,309,215439,2,0,B|329:333|287:312|287:312|240:287|198:305,1,180,2|0,0:1|0:0,0:0:0:0:
68,213,215994,1,8,0:0:0:0:
173,35,216179,5,2,0:1:0:0:
173,35,216272,1,0,0:0:0:0:
173,35,216364,1,8,0:0:0:0:
256,192,216550,1,2,0:1:0:0:
256,192,216642,1,8,0:0:0:0:
256,192,216735,2,0,P|227:189|203:183,1,45,2|8,0:0|0:0,0:0:0:0:
44,86,216920,2,0,P|65:85|88:79,1,45,8|2,0:3|0:0,0:0:0:0:
270,46,217105,1,6,0:0:0:0:
301,56,217198,1,8,0:3:0:0:
334,56,217290,1,2,0:0:0:0:
366,48,217383,1,2,0:0:0:0:
394,29,217476,2,0,P|440:12|480:12,1,90,4|2,0:0|0:0,0:0:0:0:
512,263,217846,5,12,0:0:0:0:
452,88,218031,1,2,0:0:0:0:
452,88,218216,1,2,0:0:0:0:
253,228,218401,5,12,0:0:0:0:
410,207,218587,1,2,0:0:0:0:
175,114,218772,1,2,0:0:0:0:
213,363,218957,1,12,0:0:0:0:
213,363,219050,1,0,0:0:0:0:
213,363,219142,2,0,L|278:339,1,45,2|0,0:0|0:0,0:0:0:0:
410,207,219327,5,2,0:0:0:0:
121,187,219513,1,12,0:0:0:0:
391,123,219698,1,2,0:0:0:0:
140,271,219883,1,2,0:0:0:0:
298,44,220068,5,8,0:0:0:0:
255,347,220253,1,10,0:0:0:0:
179,70,220439,1,10,0:0:0:0:
364,313,220624,1,12,0:0:0:0:
