osu file format v14

[General]
AudioFilename: audio.mp3
AudioLeadIn: 0
PreviewTime: 160809
Countdown: 0
SampleSet: Soft
StackLeniency: 0.7
Mode: 0
LetterboxInBreaks: 0
WidescreenStoryboard: 1

[Editor]
Bookmarks: 25249,66731,123027,146731,220620
DistanceSpacing: 1
BeatDivisor: 4
GridSize: 32
TimelineZoom: 2.1

[Metadata]
Title:Senpai.
TitleUnicode:センパイ。
Artist:sana
ArtistUnicode:鎖那
Creator:Kyuukai
Version:Umi's Normal
Source:好きになるその瞬間を。~告白実行委員会~
Tags:The Moment You Fall in Love suki ni naru sono shunkan wo kokuhaku jikkou iinkai opening honeyworks meets trysail litoluna yaleufeu umi lasse
BeatmapID:1384676
BeatmapSetID:637706

[Difficulty]
HPDrainRate:4
CircleSize:3
OverallDifficulty:4
ApproachRate:5
SliderMultiplier:1.2
SliderTickRate:1

[Events]
//Background and Video events
Video,207,"Senpai.avi"
0,0,"bg.jpg",0,0
//Break Periods
2,99527,109979
//Storyboard Layer 0 (Background)
//Storyboard Layer 1 (Fail)
//Storyboard Layer 2 (Pass)
//Storyboard Layer 3 (Foreground)
//Storyboard Sound Samples

[TimingPoints]
806,370.37037037037,4,2,5,60,1,0
9972,-100,4,2,22,5,0,0
10065,-100,4,2,5,60,0,0
10343,-100,4,2,22,5,0,0
10435,-100,4,2,5,60,0,0
10991,-100,4,2,5,60,0,0
11361,-100,4,2,5,60,0,0
11546,-100,4,2,5,60,0,0
11731,-100,4,2,5,60,0,0
11917,-100,4,2,5,60,0,0
12102,-100,4,2,5,60,0,0
12287,-100,4,2,5,60,0,0
12472,-100,4,2,5,60,0,0
13402,370.37037037037,4,2,4,70,1,0
21550,-100,4,2,4,70,0,0
21920,-100,4,2,4,70,0,0
25253,-100,4,2,4,60,0,0
28124,-100,4,2,4,5,0,0
28216,-100,4,2,4,60,0,0
35439,-100,4,2,4,65,0,0
37105,-100,4,2,4,70,0,0
37383,-100,4,2,22,5,0,0
37476,-100,4,2,4,70,0,0
39976,-100,4,2,4,5,0,0
40068,-100,4,2,4,70,0,0
40346,-100,4,2,22,5,0,0
40439,-100,4,2,4,70,0,0
42939,-100,4,2,22,5,0,0
43031,-100,4,2,4,70,0,0
45901,-100,4,2,4,5,0,0
45994,-100,4,2,4,70,0,0
48957,-100,4,2,4,65,0,0
54883,-100,4,2,4,70,0,0
60808,-100,4,2,4,60,0,0
65068,-100,4,2,4,70,0,0
65346,-100,4,2,22,5,0,0
65439,-100,4,2,4,70,0,0
66735,-100,4,2,4,80,0,1
75253,-100,4,2,4,80,0,1
75439,-100,4,2,4,80,0,1
75809,-100,4,2,4,80,0,1
76920,-100,4,2,4,80,0,1
78031,-100,4,2,4,80,0,1
78587,-100,4,2,4,80,0,1
88772,-100,4,2,4,85,0,1
90439,-100,4,2,4,70,0,0
94698,-100,4,2,4,80,0,0
96827,-100,4,2,22,5,0,0
96920,-100,4,2,4,80,0,0
97198,-100,4,2,22,5,0,0
97290,-100,4,2,4,80,0,0
97568,-100,4,2,22,5,0,0
97661,-100,4,2,4,80,0,0
97939,-100,4,2,22,5,0,0
98031,-100,4,2,4,80,0,0
98309,-100,4,2,22,5,0,0
98401,-100,4,2,4,80,0,0
99327,-100,4,2,4,70,0,0
111179,-100,4,2,22,40,0,0
113401,-100,4,2,22,30,0,0
116364,-100,4,2,22,30,0,0
119327,-100,4,2,22,30,0,0
120068,-100,4,2,4,65,0,0
121179,-100,4,2,4,65,0,0
121550,-100,4,2,4,70,0,0
121735,-100,4,2,4,70,0,0
121920,-100,4,2,4,70,0,0
122290,-100,4,2,4,75,0,0
122476,-100,4,2,4,75,0,0
123031,-100,4,2,4,80,0,1
132290,-100,4,2,4,70,0,1
132661,-100,4,2,4,60,0,1
133031,-100,4,2,4,50,0,1
133401,-100,4,2,4,80,0,1
145994,-100,4,2,4,85,0,1
146735,-100,4,2,4,60,0,0
155531,-100,4,2,4,5,0,0
155624,-100,4,2,4,65,0,0
156920,-100,4,2,4,70,0,0
157198,-100,4,2,22,5,0,0
157290,-100,4,2,4,70,0,0
158401,-100,4,2,4,75,0,0
158957,-100,4,2,4,75,0,0
159327,-100,4,2,4,75,0,0
159513,-100,4,2,4,80,0,0
159698,-100,4,2,4,80,0,0
160994,-100,4,2,22,30,0,0
161179,-100,4,2,22,40,0,0
161364,-100,4,2,22,30,0,0
161550,-100,4,2,4,80,0,1
170624,-100,4,2,4,80,0,1
171735,-100,4,2,4,85,0,1
172846,-100,4,2,4,85,0,1
173401,-100,4,2,4,85,0,1
173679,-100,4,2,22,5,0,1
173772,-100,4,2,4,85,0,1
173957,-100,4,2,4,80,0,1
178772,-100,4,2,4,80,0,1
179327,-100,4,2,4,80,0,1
183587,-100,4,2,4,85,0,1
184327,-100,4,2,4,85,0,1
185253,-100,4,2,4,85,0,1
186179,-100,4,2,4,80,0,1
188216,-100,4,2,4,85,0,1
189142,-100,4,2,4,80,0,1
195439,-100,4,2,4,85,0,1
195994,-100,4,2,4,85,0,1
196364,-100,4,2,4,85,0,1
196550,-100,4,2,4,85,0,1
196735,-100,4,2,4,85,0,1
196920,-100,4,2,4,85,0,1
197105,-100,4,2,4,70,0,0
200068,-100,4,2,4,75,0,0
202939,-100,4,2,4,5,0,0
203031,-100,4,2,4,75,0,0
203216,-100,4,2,4,80,0,0
203494,-100,4,2,22,5,0,0
203587,-100,4,2,4,80,0,0
203864,-100,4,2,22,5,0,0
203957,-100,4,2,4,80,0,0
204235,-100,4,2,22,5,0,0
204327,-100,4,2,4,80,0,0
204605,-100,4,2,22,5,0,0
204698,-100,4,2,4,80,0,0
204976,-100,4,2,22,5,0,0
205068,-100,4,2,4,80,0,0
205439,-100,4,2,4,80,0,0
205901,-100,4,2,4,5,0,0
205994,-100,4,2,22,30,0,0
206364,-100,4,2,4,20,0,0
206735,-100,4,2,4,30,0,0
207105,-100,4,2,4,40,0,0
207476,-100,4,2,4,50,0,0
207846,-100,4,2,4,60,0,0
208216,-100,4,2,22,40,0,0
208957,-100,4,2,4,80,0,0
220068,-100,4,2,4,85,0,0

[Colours]
Combo1 : 230,60,100
Combo2 : 130,190,100
Combo3 : 240,170,60
Combo4 : 80,170,220

[HitObjects]
64,192,806,6,0,B|142:198|142:198|193:175,1,120,2|0,0:0|0:0,0:0:0:0:
284,121,1546,2,0,P|315:162|332:231,1,120,2|0,0:0|0:0,0:0:0:0:
321,287,2102,2,0,P|253:273|184:308,1,120,2|0,0:0|0:0,0:0:0:0:
159,325,2657,1,2,0:0:0:0:
61,255,3028,1,2,0:0:0:0:
152,177,3398,1,0,0:0:0:0:
70,89,3768,6,0,P|128:59|190:59,1,120,2|0,0:0|0:0,0:0:0:0:
262,146,4509,2,0,P|319:162|378:154,1,120,2|0,0:0|0:0,0:0:0:0:
421,113,5065,2,0,B|449:241,1,120,2|0,0:0|0:0,0:0:0:0:
430,287,5620,1,0,0:0:0:0:
314,314,5991,2,0,L|298:389,2,60,2|0|2,0:0|0:0|0:0,0:0:0:0:
277,199,6731,6,0,P|231:170|167:144,1,120,2|0,0:0|0:0,0:0:0:0:
98,48,7472,2,0,P|156:36|229:25,1,120,2|0,0:0|0:0,0:0:0:0:
275,40,8028,2,0,L|380:108,1,120,2|0,0:0|0:0,0:0:0:0:
421,143,8583,1,2,0:0:0:0:
408,262,8954,1,2,0:0:0:0:
288,270,9324,1,2,0:0:0:0:
183,213,9694,6,0,P|172:170|170:89,1,120,2|2,0:0|0:0,0:0:0:0:
283,56,10435,2,0,P|306:59|351:61,2,60,2|0|0,0:0|0:0|0:0,0:0:0:0:
230,26,10991,1,4,0:0:0:0:
133,96,11361,2,0,L|49:88,2,60,0|0|0,0:0|1:0|0:0,0:0:0:0:
177,137,11917,2,0,L|243:127,2,60,0|0|0,1:0|0:0|1:0,0:0:0:0:
135,179,12472,1,0,1:0:0:0:
405,309,13402,6,0,P|424:231|431:178,1,120,4|8,0:0|0:0,0:0:0:0:
421,132,13957,2,0,L|280:117,1,120,2|0,0:1|0:0,0:0:0:0:
250,87,14513,1,8,0:0:0:0:
151,155,14883,2,0,P|134:221|135:281,1,120,2|8,0:0|0:0,0:0:0:0:
172,320,15439,1,0,0:0:0:0:
232,316,15624,2,0,P|249:250|248:190,1,120,2|8,0:0|0:0,0:0:0:0:
216,84,16364,6,0,L|350:70,1,120,6|8,0:0|0:0,0:0:0:0:
391,46,16920,2,0,P|420:97|443:167,1,120,2|0,0:1|0:0,0:0:0:0:
448,214,17476,1,8,0:0:0:0:
359,295,17846,2,0,P|307:273|241:266,1,120,2|8,0:0|0:0,0:0:0:0:
187,284,18401,1,0,0:0:0:0:
128,271,18587,2,0,P|119:231|135:141,1,120,2|8,0:0|0:0,0:0:0:0:
156,36,19327,6,0,L|89:39,2,60,4|0|8,0:0|0:0|0:0,0:0:0:0:
216,37,19883,2,0,P|273:64|328:92,1,120,2|0,0:1|0:0,0:0:0:0:
376,119,20439,1,8,0:0:0:0:
431,225,20809,2,0,P|384:257|333:318,1,120,2|8,0:0|0:0,0:0:0:0:
292,336,21364,1,8,0:3:0:0:
232,328,21550,2,0,P|203:293|192:271,1,60,8|8,0:3|0:3,0:0:0:0:
176,223,21920,1,4,0:0:0:0:
244,124,22290,6,0,P|308:119|388:108,1,120,12|2,0:0|0:0,0:0:0:0:
416,80,22846,2,0,L|410:213,1,120,12|2,0:0|0:0,0:0:0:0:
433,255,23401,1,12,0:0:0:0:
336,327,23772,2,0,L|257:323,1,60,0|12,0:0|0:0,0:0:0:0:
217,334,24142,1,4,0:0:0:0:
123,258,24513,2,0,P|112:210|110:176,1,60,4|8,0:0|0:0,0:0:0:0:
157,162,24883,2,0,P|169:129|178:96,1,60,8|2,0:0|0:0,0:0:0:0:
145,53,25253,6,0,L|264:48,1,120,6|2,0:0|0:0,0:0:0:0:
321,27,25809,1,0,0:0:0:0:
369,62,25994,2,0,P|378:108|385:181,1,120,2|2,0:0|0:0,0:0:0:0:
314,278,26735,2,0,L|188:269,1,120,2|2,0:0|0:0,0:0:0:0:
141,161,27476,2,0,L|260:169,1,120,2|2,0:0|0:0,0:0:0:0:
361,103,28216,6,0,P|425:114|342:210,1,240,2|2,0:0|0:0,0:0:0:0:
260,169,29327,1,2,0:0:0:0:
168,247,29698,2,0,P|204:308|237:355,1,120,2|2,0:0|0:0,0:0:0:0:
291,358,30253,1,0,0:0:0:0:
342,327,30439,2,0,P|402:317|477:336,1,120,2|2,0:0|0:0,0:0:0:0:
408,219,31179,6,0,L|420:90,1,120,2|2,0:0|0:0,0:0:0:0:
319,32,31920,1,2,0:0:0:0:
238,121,32290,1,2,0:0:0:0:
157,31,32661,2,0,P|116:93|118:158,1,120,2|2,0:0|0:0,0:0:0:0:
126,195,33216,1,0,0:0:0:0:
126,195,33401,2,0,L|245:187,1,120,2|2,0:0|0:0,0:0:0:0:
352,131,34142,6,0,P|357:211|376:255,1,120,2|2,0:0|0:0,0:0:0:0:
399,300,34698,2,0,L|280:292,1,120,0|0,0:0|0:0,0:0:0:0:
186,215,35439,1,12,0:0:0:0:
79,270,35809,2,0,L|85:349,2,60,8|8|2,0:0|0:0|0:0,0:0:0:0:
55,214,36364,1,12,0:0:0:0:
134,123,36735,1,8,0:3:0:0:
251,146,37105,6,0,P|288:174|349:223,1,120,6|8,0:0|0:0,0:0:0:0:
429,305,37846,2,0,L|505:295,2,60,2|2|8,0:0|0:0|0:0,0:0:0:0:
314,340,38587,2,0,P|261:325|184:319,1,120,2|8,0:0|0:0,0:0:0:0:
78,338,39327,1,2,0:0:0:0:
34,226,39698,1,8,0:0:0:0:
136,164,40068,6,0,P|169:156|265:143,1,120,2|8,0:0|0:0,0:0:0:0:
374,144,40809,2,0,L|387:224,1,60,2|2,0:0|0:0,0:0:0:0:
399,260,41179,1,8,0:0:0:0:
294,319,41550,2,0,L|223:320,2,60,2|2|8,0:0|0:0|0:0,0:0:0:0:
240,212,42290,2,0,L|180:212,2,60,2|2|8,0:0|0:0|0:0,0:0:0:0:
332,132,43031,6,0,P|367:194|385:254,1,120,2|8,0:0|0:0,0:0:0:0:
290,320,43772,2,0,P|259:268|240:212,1,120,2|8,0:0|0:0,0:0:0:0:
219,90,44513,2,0,P|166:105|99:138,1,120,2|8,0:0|0:0,0:0:0:0:
71,180,45068,1,0,0:0:0:0:
71,180,45253,2,0,L|89:314,1,120,2|8,0:0|0:0,0:0:0:0:
203,327,45994,6,0,P|260:307|346:313,1,120,2|8,0:0|0:0,0:0:0:0:
373,332,46550,1,0,0:0:0:0:
423,223,46920,1,2,0:0:0:0:
340,136,47290,2,0,P|348:87|388:16,2,120,4|2|0,0:0|0:0|0:0,0:0:0:0:
392,244,48401,2,0,L|450:275,2,60,8|4|8,0:0|0:3|0:3,0:0:0:0:
335,224,48957,6,0,P|269:242|217:285,1,120,4|2,0:0|0:0,0:0:0:0:
138,357,49698,2,0,P|92:320|48:276,1,120,2|2,0:0|0:0,0:0:0:0:
34,218,50253,2,0,P|71:172|105:122,1,120,0|0,0:0|0:0,0:0:0:0:
118,63,50809,1,2,0:0:0:0:
200,149,51179,1,2,0:0:0:0:
293,73,51550,1,4,0:0:0:0:
383,151,51920,6,0,P|398:197|378:284,1,120,6|2,0:0|0:0,0:0:0:0:
353,318,52476,1,0,0:0:0:0:
353,318,52661,2,0,P|295:308|236:318,1,120,2|2,0:0|0:0,0:0:0:0:
177,330,53216,1,12,0:0:0:0:
145,214,53587,2,0,P|104:216|82:213,2,60,8|8|2,0:0|0:0|0:0,0:0:0:0:
204,208,54142,1,4,0:0:0:0:
305,143,54513,1,8,0:3:0:0:
399,216,54883,6,0,P|424:142|409:89,1,120,4|2,0:0|0:0,0:0:0:0:
382,52,55439,1,2,0:1:0:0:
322,60,55624,2,0,L|185:55,1,120,4|8,0:3|0:0,0:0:0:0:
148,28,56179,1,2,0:0:0:0:
103,139,56550,2,0,L|28:152,2,60,2|8|2,0:0|0:0|0:1,0:0:0:0:
158,161,57105,1,4,0:3:0:0:
261,100,57476,1,12,0:0:0:0:
331,197,57846,6,0,P|368:155|378:75,1,120,4|8,0:0|0:0,0:0:0:0:
344,45,58401,1,2,0:1:0:0:
344,45,58587,2,0,L|493:52,1,120,4|8,0:3|0:0,0:0:0:0:
496,100,59142,2,0,P|506:153|509:229,1,120,4|2,0:0|0:0,0:0:0:0:
491,276,59698,1,8,0:0:0:0:
384,221,60068,1,8,0:0:0:0:
277,276,60439,1,4,0:3:0:0:
170,221,60809,6,0,P|191:144|213:85,1,120,6|2,0:0|0:0,0:0:0:0:
317,65,61550,2,0,P|336:121|351:179,1,120,2|2,0:0|0:0,0:0:0:0:
322,296,62290,1,2,0:0:0:0:
207,331,62661,1,2,0:0:0:0:
115,255,63031,1,2,0:0:0:0:
204,175,63401,1,2,0:0:0:0:
256,192,63772,12,4,65068,0:0:0:0:
283,129,66735,6,0,P|339:124|416:132,1,120,4|8,0:0|0:0,0:0:0:0:
458,150,67290,1,0,0:1:0:0:
458,150,67476,2,0,P|452:209|447:269,1,120,2|8,0:2|0:0,0:0:0:0:
340,324,68216,2,0,P|284:296|224:284,1,120,2|8,0:0|0:0,0:0:0:0:
168,284,68772,2,0,P|192:224|248:172,2,120,2|2|8,0:1|0:1|0:0,0:0:0:0:
172,344,69698,6,0,L|48:328,1,120,2|8,0:0|0:0,0:0:0:0:
12,216,70439,2,0,L|144:200,1,120,2|8,0:0|0:0,0:0:0:0:
184,228,70994,1,2,0:1:0:0:
184,228,71179,2,0,P|192:180|224:108,1,120,2|8,0:0|0:0,0:0:0:0:
260,72,71735,1,2,0:1:0:0:
380,88,72105,2,0,P|404:142|415:201,1,120,2|2,0:1|0:1,0:0:0:0:
416,260,72661,5,6,0:0:0:0:
376,308,72846,2,0,L|220:296,2,120,2|4|2,3:1|3:2|3:1,0:0:0:0:
316,204,73957,2,0,L|172:216,2,120,4|2|2,3:2|3:1|3:1,0:0:0:0:
412,132,75068,2,0,P|436:164|440:192,2,60,8|10|8,3:2|0:0|0:0,0:0:0:0:
372,88,75624,5,12,0:0:0:0:
372,88,75809,2,0,L|244:92,1,120,8|4,0:3|0:0,0:0:0:0:
148,28,76550,1,12,0:0:0:0:
60,112,76920,2,0,P|90:161|120:216,1,120,4|8,0:0|0:0,0:0:0:0:
124,340,77661,2,0,P|184:308|264:296,1,120,10|10,0:2|0:3,0:0:0:0:
292,308,78216,1,8,0:3:0:0:
388,236,78587,6,0,P|408:192|428:164,1,60,4|2,0:0|0:0,0:0:0:0:
448,132,78957,2,0,P|394:119|326:85,1,120,4|2,0:0|0:0,0:0:0:0:
240,18,79698,1,8,0:0:0:0:
144,90,80068,2,0,P|129:143|120:232,1,120,2|8,0:0|0:0,0:0:0:0:
145,262,80624,2,0,L|287:234,1,120,2|2,0:2|0:0,0:0:0:0:
309,201,81179,1,8,0:0:0:0:
426,226,81550,6,0,P|440:259|449:302,1,60,6|2,0:0|0:0,0:0:0:0:
457,341,81920,2,0,P|389:333|306:350,1,120,12|2,0:0|0:0,0:0:0:0:
220,364,82661,1,8,0:0:0:0:
150,266,83031,2,0,P|144:198|144:132,1,120,2|8,0:0|0:0,0:0:0:0:
173,93,83587,2,0,P|234:101|299:95,1,120,2|2,0:0|0:0,0:0:0:0:
347,72,84142,1,6,0:0:0:0:
445,140,84513,5,4,0:0:0:0:
445,140,84698,2,0,L|452:260,1,120,2|4,3:1|3:2,0:0:0:0:
368,346,85439,1,2,3:1:0:0:
295,250,85809,2,0,P|235:253|170:265,2,120,4|2|2,3:2|3:1|3:1,0:0:0:0:
411,278,86920,2,0,L|399:336,2,60,2|6|8,3:1|2:2|3:3,0:0:0:0:
451,233,87476,5,6,0:0:0:0:
440,173,87661,2,0,P|385:135|306:122,1,120,8|8,0:0|0:3,0:0:0:0:
214,127,88401,1,4,0:3:0:0:
127,210,88772,2,0,L|135:334,1,120,12|12,0:0|0:0,0:0:0:0:
253,351,89513,2,0,L|245:231,1,120,2|8,0:2|0:3,0:0:0:0:
277,180,90068,1,4,0:3:0:0:
258,61,90439,6,0,P|196:54|133:62,1,120,4|0,0:0|0:0,0:0:0:0:
89,169,91179,2,0,P|148:176|207:169,1,120,2|0,0:1|0:0,0:0:0:0:
317,119,91920,1,2,0:0:0:0:
417,184,92290,1,2,0:1:0:0:
332,268,92661,2,0,L|264:265,1,60,2|2,0:1|0:1,0:0:0:0:
222,299,93031,2,0,L|154:296,1,60,0|2,0:0|0:1,0:0:0:0:
102,302,93401,5,4,0:0:0:0:
41,197,93772,1,2,0:0:0:0:
126,112,94142,2,0,P|163:130|214:203,1,120,2|2,0:0|0:0,0:0:0:0:
242,242,94698,2,0,P|276:208|341:177,1,120,4|8,0:0|0:3,0:0:0:0:
399,166,95253,1,2,0:0:0:0:
484,250,95624,2,0,L|492:319,2,60,8|2|2,0:0|0:0|0:0,0:0:0:0:
369,286,96364,6,0,L|304:278,1,60,12|12,0:0|0:0,0:0:0:0:
228,189,96920,1,12,0:0:0:0:
149,280,97290,1,12,0:0:0:0:
66,195,97661,2,0,L|59:67,2,120,4|6|6,0:0|0:0|0:2,0:0:0:0:
149,280,98772,2,0,B|240:240|246:311|326:284,1,180,8|4,0:3|0:0,0:0:0:0:
154,46,111179,6,0,P|194:42|294:50,1,120,4|0,0:1|0:0,0:0:0:0:
392,26,111920,2,0,P|412:88|420:161,1,120,0|0,0:0|0:0,0:0:0:0:
403,200,112476,1,0,0:0:0:0:
246,286,113031,1,0,0:0:0:0:
165,197,113401,1,8,0:0:0:0:
263,128,113772,1,0,0:0:0:0:
186,36,114142,6,0,P|130:72|96:143,1,120,2|0,0:0|0:0,0:0:0:0:
191,198,114883,2,0,P|224:231|259:297,1,120,0|0,0:0|0:0,0:0:0:0:
256,355,115439,1,0,0:0:0:0:
413,284,115994,1,0,0:0:0:0:
416,164,116364,1,8,0:0:0:0:
322,88,116735,1,0,0:0:0:0:
225,158,117105,6,0,P|214:222|206:278,1,120,2|0,0:0|0:0,0:0:0:0:
112,201,117846,2,0,P|103:141|93:82,1,120,0|0,0:0|0:0,0:0:0:0:
51,39,118401,1,0,0:0:0:0:
231,34,118957,1,0,0:0:0:0:
256,152,119327,1,8,0:0:0:0:
364,100,119698,1,0,0:0:0:0:
481,75,120068,6,0,P|477:131|433:203,1,120,2|2,0:1|0:1,0:0:0:0:
414,237,120624,2,0,L|286:233,1,120,2|0,0:1|0:0,0:0:0:0:
234,229,121179,1,2,0:0:0:0:
148,144,121550,2,0,L|164:68,2,60,2|2|2,0:0|0:0|0:1,0:0:0:0:
72,236,122290,2,0,P|112:248|168:312,1,120,4|8,0:0|0:0,0:0:0:0:
180,361,122846,1,8,0:0:0:0:
180,361,123031,6,0,P|216:329|296:305,1,120,6|8,0:0|0:0,0:0:0:0:
403,313,123772,2,0,P|387:241|331:193,1,120,2|8,0:0|0:0,0:0:0:0:
237,195,124513,2,0,P|267:125|317:93,1,120,2|8,0:0|0:0,0:0:0:0:
353,71,125068,2,0,L|500:80,2,120,2|0|2,0:1|0:0|0:1,0:0:0:0:
303,37,125994,5,4,0:0:0:0:
198,94,126364,2,0,P|192:155|198:216,1,120,8|2,0:0|0:0,0:0:0:0:
218,269,126920,1,2,0:1:0:0:
337,255,127290,2,0,P|342:195|337:135,1,120,0|2,0:0|0:1,0:0:0:0:
309,82,127846,1,2,0:0:0:0:
191,59,128216,2,0,L|104:47,2,60,2|2|8,0:0|0:1|0:0,0:0:0:0:
141,168,128957,6,0,P|131:204|126:237,1,60,4|2,0:0|0:1,0:0:0:0:
193,326,129513,1,2,0:1:0:0:
281,244,129883,1,2,0:1:0:0:
366,327,130253,2,0,P|404:328|476:288,2,120,2|2|2,0:1|0:1|0:1,0:0:0:0:
308,309,131179,1,0,0:0:0:0:
283,191,131550,1,2,0:0:0:0:
166,162,131920,6,0,P|125:211|118:283,1,120,4|2,0:2|0:1,0:0:0:0:
183,363,132661,2,0,P|222:318|233:260,1,120,2|2,0:1|0:1,0:0:0:0:
166,162,133401,2,0,P|223:144|277:118,1,120,2|8,0:1|0:0,0:0:0:0:
324,80,133957,2,0,P|387:100|453:135,1,120,8|0,0:2|0:3,0:0:0:0:
475,168,134513,1,8,0:3:0:0:
423,276,134883,6,0,P|369:309|316:346,2,120,10|4|2,0:0|0:0|0:0,0:0:0:0:
333,195,135994,1,8,0:0:0:0:
220,153,136364,2,0,P|164:144|92:142,1,120,2|8,0:0|0:0,0:0:0:0:
54,253,137105,2,0,P|86:249|118:249,1,60,2|2,0:0|0:1,0:0:0:0:
173,255,137476,2,0,P|214:262|242:271,1,60,8|2,0:0|0:1,0:0:0:0:
272,311,137846,6,0,L|306:179,1,120,4|8,0:0|0:0,0:0:0:0:
417,227,138587,2,0,L|395:98,1,120,2|8,0:0|0:0,0:0:0:0:
307,28,139327,1,6,0:0:0:0:
200,82,139698,1,8,0:0:0:0:
248,191,140068,2,0,L|320:188,2,60,2|2|2,0:0|0:1|0:0,0:0:0:0:
134,152,140809,6,0,P|92:210|86:269,1,120,4|8,0:0|0:0,0:0:0:0:
115,308,141364,1,2,0:1:0:0:
115,308,141550,2,0,P|178:300|267:306,1,120,2|8,0:0|0:0,0:0:0:0:
347,340,142290,2,0,L|337:202,2,120,8|2|8,0:0|0:0|0:3,0:0:0:0:
451,280,143401,1,12,0:0:0:0:
428,161,143772,6,0,P|384:123|292:125,1,120,12|2,0:0|0:0,0:0:0:0:
270,141,144327,2,0,P|211:177|133:170,1,120,12|2,0:0|0:0,0:0:0:0:
109,148,144883,2,0,L|120:291,1,120,12|2,0:0|0:0,0:0:0:0:
150,318,145439,1,12,0:0:0:0:
266,289,145809,2,0,L|260:359,2,60,2|12|8,0:0|0:0|0:0,0:0:0:0:
297,238,146364,1,10,0:0:0:0:
399,175,146735,6,0,P|347:128|288:119,1,120,4|0,0:0|0:0,0:0:0:0:
231,19,147476,2,0,P|166:35|123:66,1,120,0|0,0:0|0:0,0:0:0:0:
119,125,148031,1,0,0:0:0:0:
197,284,148587,1,0,0:0:0:0:
299,346,148957,1,0,0:0:0:0:
401,283,149327,1,0,0:0:0:0:
398,162,149698,6,0,L|258:167,1,120,0|0,0:0|0:0,0:0:0:0:
167,119,150439,2,0,P|177:96|202:68,2,60,0|0|0,0:0|0:0|0:0,0:0:0:0:
157,178,150994,1,0,0:0:0:0:
189,348,151550,1,0,0:0:0:0:
189,348,151735,2,0,P|236:336|325:337,1,120,0|0,0:0|0:0,0:0:0:0:
365,347,152290,1,0,0:0:0:0:
462,277,152661,6,0,L|455:207,1,60,0|0,0:0|0:0,0:0:0:0:
478,161,153031,1,0,0:0:0:0:
378,94,153401,2,0,P|331:125|255:131,1,120,0|0,0:0|0:0,0:0:0:0:
220,96,153957,1,0,0:0:0:0:
53,112,154513,1,0,0:0:0:0:
47,171,154698,2,0,L|63:295,1,120,0|0,0:0|0:0,0:0:0:0:
234,341,155624,5,0,0:0:0:0:
216,228,155994,2,0,P|274:222|334:192,2,120,0|0|0,0:0|0:0|0:0,0:0:0:0:
157,213,156920,2,0,L|173:89,1,120,6|2,0:0|0:0,0:0:0:0:
213,50,157476,1,2,0:0:0:0:
329,76,157846,2,0,P|379:108|425:146,1,120,2|2,0:0|0:0,0:0:0:0:
426,206,158401,6,0,P|379:243|329:276,1,120,8|8,0:0|0:0,0:0:0:0:
269,280,158957,1,10,0:0:0:0:
175,205,159327,2,0,L|184:138,2,60,8|10|8,0:0|0:0|0:0,0:0:0:0:
166,264,159883,1,8,0:0:0:0:
206,133,161550,6,0,P|238:117|334:101,1,120,6|8,0:0|0:0,0:0:0:0:
377,117,162105,1,0,0:1:0:0:
417,161,162290,2,0,P|394:229|370:285,1,120,2|8,0:0|0:0,0:0:0:0:
263,313,163031,2,0,L|136:289,1,120,2|8,0:0|0:0,0:0:0:0:
85,297,163587,2,0,P|113:243|131:184,1,120,2|2,0:1|0:1,0:0:0:0:
122,127,164142,1,8,0:0:0:0:
217,53,164513,6,0,P|274:61|334:105,1,120,6|8,0:0|0:0,0:0:0:0:
353,147,165068,1,0,0:1:0:0:
316,194,165253,2,0,P|249:232|216:284,1,120,2|8,0:0|0:0,0:0:0:0:
305,354,165994,2,0,P|358:327|396:282,1,120,2|8,0:0|0:0,0:0:0:0:
428,231,166550,2,0,L|407:107,1,120,2|2,0:1|0:1,0:0:0:0:
423,54,167105,1,8,0:0:0:0:
305,81,167476,6,0,L|224:70,1,60,6|2,0:0|3:1,0:0:0:0:
147,142,168031,1,4,3:2:0:0:
252,199,168401,1,2,3:1:0:0:
154,269,168772,2,0,L|26:263,2,120,4|2|2,3:2|3:1|3:1,0:0:0:0:
266,311,169883,2,0,P|251:346|237:369,2,60,2|8|2,3:0|0:0|3:1,0:0:0:0:
269,250,170439,5,6,0:0:0:0:
269,250,170624,2,0,P|321:239|418:236,1,120,8|4,0:0|0:0,0:0:0:0:
365,116,171364,1,12,0:0:0:0:
248,147,171735,2,0,P|188:143|129:131,1,120,12|8,0:0|0:0,0:0:0:0:
72,113,172290,1,8,0:0:0:0:
24,223,172661,2,0,P|56:301|78:343,1,120,10|8,0:2|0:3,0:0:0:0:
172,266,173401,6,0,P|219:258|325:257,1,120,4|8,0:0|0:0,0:0:0:0:
383,331,174142,1,2,0:0:0:0:
475,253,174513,1,8,0:0:0:0:
411,149,174883,2,0,L|288:140,1,120,2|8,0:0|0:0,0:0:0:0:
240,108,175439,2,0,P|214:161|216:235,1,120,2|8,0:0|0:2,0:0:0:0:
239,274,175994,1,10,0:0:0:0:
346,327,176364,6,0,P|356:263|328:201,1,120,4|8,0:0|0:0,0:0:0:0:
409,116,177105,2,0,P|348:73|271:68,1,120,2|8,0:0|0:0,0:0:0:0:
244,64,177661,1,2,0:1:0:0:
187,82,177846,2,0,L|174:212,1,120,2|8,0:0|0:0,0:0:0:0:
142,251,178401,2,0,P|196:261|277:303,1,120,8|10,0:2|0:2,0:0:0:0:
292,334,178957,1,8,0:0:0:0:
404,291,179327,6,0,L|433:219,1,60,4|2,0:0|3:1,0:0:0:0:
439,115,179883,2,0,P|387:139|311:130,2,120,4|2|4,3:2|3:1|3:2,0:0:0:0:
362,22,180994,1,2,3:1:0:0:
248,59,181364,2,0,P|214:115|191:165,1,120,2|2,3:1|3:0,0:0:0:0:
183,224,181920,1,6,0:0:0:0:
284,286,182290,6,0,L|351:277,2,60,6|8|10,0:0|0:0|0:0,0:0:0:0:
232,318,182846,1,8,0:3:0:0:
118,279,183216,1,8,0:3:0:0:
152,163,183587,2,0,L|288:158,1,120,12|8,0:0|0:3,0:0:0:0:
324,187,184142,1,4,0:0:0:0:
381,171,184327,2,0,P|398:110|372:50,1,120,10|10,0:3|0:3,0:0:0:0:
323,34,184883,1,10,0:3:0:0:
203,45,185253,6,0,P|188:70|181:101,1,60,10|2,0:0|0:0,0:0:0:0:
188,160,185624,2,0,P|239:178|293:257,1,120,4|2,0:0|0:0,0:0:0:0:
314,341,186364,1,8,0:0:0:0:
433,357,186735,2,0,P|429:303|385:249,1,120,2|8,0:0|0:0,0:0:0:0:
344,212,187290,2,0,P|362:161|440:104,1,120,2|2,0:2|0:0,0:0:0:0:
466,99,187846,1,8,0:0:0:0:
374,22,188216,6,0,L|289:25,1,60,2|8,0:0|0:0,0:0:0:0:
253,23,188587,2,0,P|215:69|181:135,1,120,4|2,0:0|0:0,0:0:0:0:
234,231,189327,2,0,L|299:224,1,60,8|2,0:0|0:1,0:0:0:0:
351,240,189698,2,0,P|331:164|325:103,1,120,2|8,0:0|0:0,0:0:0:0:
342,65,190253,1,2,0:2:0:0:
399,46,190439,2,0,P|452:94|483:157,1,120,2|2,0:2|0:0,0:0:0:0:
496,252,191179,6,0,L|412:236,1,60,4|2,0:0|3:1,0:0:0:0:
328,188,191735,2,0,L|346:316,2,120,4|2|4,3:2|3:1|3:2,0:0:0:0:
260,88,192846,1,2,3:1:0:0:
144,120,193216,2,0,L|126:248,1,120,2|2,3:1|3:1,0:0:0:0:
138,298,193772,1,6,2:2:0:0:
242,238,194142,6,0,P|274:246|301:258,1,60,6|8,0:0|0:0,0:0:0:0:
346,367,194698,1,6,0:0:0:0:
456,320,195068,1,8,0:0:0:0:
412,207,195439,2,0,P|419:137|432:80,1,120,4|8,0:0|0:3,0:0:0:0:
453,32,195994,1,8,0:3:0:0:
333,37,196364,2,0,P|290:58|262:83,1,60,2|8,0:1|0:0,0:0:0:0:
233,102,196735,2,0,P|204:141|193:166,1,60,8|10,0:0|0:0,0:0:0:0:
187,209,197105,6,0,P|251:228|328:265,1,120,4|0,0:0|0:0,0:0:0:0:
399,316,197846,2,0,P|414:256|443:182,1,120,8|0,0:0|0:0,0:0:0:0:
487,93,198587,2,0,P|409:103|336:102,1,120,2|0,0:0|0:0,0:0:0:0:
253,68,199327,2,0,P|261:29|274:2,2,60,8|2|2,0:0|0:0|0:0,0:0:0:0:
245,127,199883,1,0,0:0:0:0:
245,127,200068,6,0,L|114:113,1,120,12|2,0:0|0:0,0:0:0:0:
42,200,200809,1,10,0:0:0:0:
133,277,201179,1,10,0:0:0:0:
133,277,201364,2,0,L|252:264,1,120,4|8,0:0|0:3,0:0:0:0:
305,292,201920,1,6,0:0:0:0:
395,212,202290,2,0,L|409:137,2,60,2|2|4,0:2|0:0|0:0,0:0:0:0:
300,138,203031,6,0,P|257:113|238:106,1,60,8|4,0:0|0:0,0:0:0:0:
131,79,203587,1,4,0:0:0:0:
39,156,203957,1,4,0:0:0:0:
130,233,204327,2,0,P|145:294|147:351,2,120,6|12|6,0:0|0:0|0:0,0:0:0:0:
39,156,205439,1,6,0:0:0:0:
256,192,205994,12,0,207476,0:0:0:0:
84,228,208957,6,0,P|120:215|208:236,1,120,4|8,0:0|0:0,0:0:0:0:
240,272,209513,2,0,P|272:241|325:175,1,120,2|0,0:1|0:0,0:0:0:0:
355,134,210068,1,8,0:0:0:0:
272,47,210439,2,0,L|129:70,1,120,2|8,0:0|0:0,0:0:0:0:
102,96,210994,1,0,0:0:0:0:
90,154,211179,2,0,P|112:224|154:289,1,120,2|8,0:0|0:0,0:0:0:0:
241,320,211920,6,0,P|302:310|386:310,1,120,6|8,0:0|0:0,0:0:0:0:
420,322,212476,2,0,L|354:222,1,120,2|0,0:1|0:0,0:0:0:0:
345,162,213031,1,8,0:0:0:0:
263,73,213401,2,0,P|208:93|170:139,1,120,2|8,0:0|0:0,0:0:0:0:
163,199,213957,1,2,0:1:0:0:
194,250,214142,2,0,P|249:229|287:183,1,120,2|2,0:0|0:0,0:0:0:0:
363,90,214883,6,0,P|411:114|474:151,1,120,4|8,0:0|0:0,0:0:0:0:
479,206,215439,2,0,P|435:245|379:267,1,120,2|0,0:1|0:0,0:0:0:0:
319,270,215994,1,8,0:0:0:0:
221,200,216364,2,0,L|238:75,1,120,8|2,0:0|0:0,0:0:0:0:
286,47,216920,1,8,0:3:0:0:
331,85,217105,2,0,L|399:75,2,60,12|8|4,0:3|0:3|0:0,0:0:0:0:
410,174,217846,6,0,P|438:222|459:286,1,120,12|2,0:0|0:0,0:0:0:0:
446,341,218401,1,12,0:0:0:0:
326,352,218772,1,2,0:0:0:0:
326,352,218957,2,0,P|296:300|277:243,1,120,12|2,0:0|0:0,0:0:0:0:
265,184,219513,2,0,L|131:178,1,120,12|0,0:0|0:0,0:0:0:0:
91,204,220068,2,0,P|84:246|73:273,2,60,8|10|10,0:0|0:0|0:0,0:0:0:0:
73,147,220624,1,12,0:0:0:0:
