osu file format v14

[General]
AudioFilename: audio.mp3
AudioLeadIn: 0
PreviewTime: 160809
Countdown: 0
SampleSet: Soft
StackLeniency: 0.4
Mode: 0
LetterboxInBreaks: 0
WidescreenStoryboard: 1

[Editor]
DistanceSpacing: 0.3
BeatDivisor: 4
GridSize: 8
TimelineZoom: 3.399999

[Metadata]
Title:Senpai.
TitleUnicode:センパイ。
Artist:sana
ArtistUnicode:鎖那
Creator:Kyuukai
Version:Lasse's Insane
Source:好きになるその瞬間を。~告白実行委員会~
Tags:The Moment You Fall in Love suki ni naru sono shunkan wo kokuhaku jikkou iinkai opening honeyworks meets trysail litoluna yaleufeu umi lasse
BeatmapID:1410075
BeatmapSetID:637706

[Difficulty]
HPDrainRate:7
CircleSize:4
OverallDifficulty:7.5
ApproachRate:8.5
SliderMultiplier:1.76
SliderTickRate:1

[Events]
//Background and Video events
Video,207,"Senpai.avi"
0,0,"bg.jpg",0,0
//Break Periods
2,99527,110504
2,146935,155624
//Storyboard Layer 0 (Background)
//Storyboard Layer 1 (Fail)
//Storyboard Layer 2 (Pass)
//Storyboard Layer 3 (Foreground)
//Storyboard Sound Samples

[TimingPoints]
806,370.37037037037,4,2,5,60,1,0
806,-142.857142857143,4,2,5,60,0,0
9972,-142.857142857143,4,2,22,5,0,0
10065,-125,4,2,5,60,0,0
10343,-142.857142857143,4,2,22,5,0,0
10435,-125,4,2,5,60,0,0
10991,-142.857142857143,4,2,5,60,0,0
11176,-142.857142857143,4,2,5,60,0,0
11361,-142.857142857143,4,2,5,60,0,0
11546,-142.857142857143,4,2,5,60,0,0
11731,-142.857142857143,4,2,5,60,0,0
11917,-142.857142857143,4,2,5,60,0,0
12102,-142.857142857143,4,2,5,60,0,0
12287,-142.857142857143,4,2,5,60,0,0
12472,-142.857142857143,4,2,5,60,0,0
13402,370.37037037037,4,2,4,70,1,0
21364,-100,4,2,4,70,0,0
21920,-100,4,2,4,70,0,0
25253,-125,4,2,4,60,0,0
28124,-125,4,2,4,5,0,0
28216,-125,4,2,4,60,0,0
35439,-125,4,2,4,65,0,0
37105,-111.111111111111,4,2,4,70,0,0
37383,-111.111111111111,4,2,22,5,0,0
37476,-111.111111111111,4,2,4,70,0,0
39976,-111.111111111111,4,2,4,5,0,0
40068,-111.111111111111,4,2,4,70,0,0
40346,-111.111111111111,4,2,22,5,0,0
40439,-111.111111111111,4,2,4,70,0,0
42939,-111.111111111111,4,2,22,5,0,0
43031,-111.111111111111,4,2,4,70,0,0
45901,-111.111111111111,4,2,4,5,0,0
45994,-111.111111111111,4,2,4,70,0,0
48957,-142.857142857143,4,2,4,65,0,0
51179,-83.3333333333334,4,2,4,65,0,0
51550,-71.4285714285714,4,2,4,65,0,0
51920,-142.857142857143,4,2,4,65,0,0
54142,-83.3333333333334,4,2,4,65,0,0
54513,-71.4285714285714,4,2,4,65,0,0
54883,-125,4,2,4,70,0,0
57105,-83.3333333333333,4,2,4,70,0,0
57476,-71.4285714285714,4,2,4,70,0,0
57846,-125,4,2,4,70,0,0
60068,-83.3333333333333,4,2,4,70,0,0
60439,-71.4285714285714,4,2,4,70,0,0
60808,-71.4285714285714,4,2,4,60,0,0
60809,-166.666666666667,4,2,4,60,0,0
64513,-100,4,2,4,60,0,0
65068,-50,4,2,4,70,0,0
65346,-50,4,2,22,5,0,0
65439,-50,4,2,4,70,0,0
65624,-100,4,2,4,70,0,0
65994,-100,4,2,4,70,0,0
66364,-100,4,2,4,70,0,0
66735,-83.3333333333333,4,2,4,80,0,1
72105,-62.5,4,2,4,80,0,1
72476,-83.3333333333333,4,2,4,80,0,1
75253,-83.3333333333333,4,2,4,80,0,1
75439,-83.3333333333333,4,2,4,80,0,1
75809,-83.3333333333333,4,2,4,80,0,1
76920,-83.3333333333333,4,2,4,80,0,1
78031,-83.3333333333333,4,2,4,80,0,1
78587,-90.9090909090909,4,2,4,80,0,1
84513,-83.3333333333333,4,2,4,80,0,1
88772,-83.3333333333333,4,2,4,85,0,1
90439,-142.857142857143,4,2,4,70,0,0
93401,-117.647058823529,4,2,4,70,0,0
94698,-117.647058823529,4,2,4,80,0,0
95994,-142.857142857143,4,2,4,80,0,0
96550,-50,4,2,4,80,0,0
96827,-50,4,2,22,5,0,0
96920,-50,4,2,4,80,0,0
97198,-50,4,2,22,5,0,0
97290,-50,4,2,4,80,0,0
97568,-50,4,2,22,5,0,0
97661,-50,4,2,4,80,0,0
97939,-50,4,2,22,5,0,0
98031,-50,4,2,4,80,0,0
98309,-50,4,2,22,5,0,0
98401,-71.4285714285714,4,2,4,80,0,0
99327,-50,4,2,4,70,0,0
111179,-153.846153846154,4,2,22,40,0,0
111272,-153.846153846154,4,2,22,10,0,0
113401,-153.846153846154,4,2,22,30,0,0
114235,-153.846153846154,4,2,22,10,0,0
116364,-153.846153846154,4,2,22,30,0,0
117198,-153.846153846154,4,2,22,10,0,0
119327,-153.846153846154,4,2,22,30,0,0
120068,-111.111111111111,4,2,4,65,0,0
121179,-111.111111111111,4,2,4,65,0,0
121364,-111.111111111111,4,2,4,65,0,0
121550,-111.111111111111,4,2,4,70,0,0
121735,-111.111111111111,4,2,4,70,0,0
121920,-111.111111111111,4,2,4,70,0,0
122105,-111.111111111111,4,2,4,70,0,0
122290,-90.9090909090908,4,2,4,75,0,0
122476,-90.9090909090908,4,2,4,75,0,0
123031,-71.4285714285714,4,2,4,80,0,1
125439,-90.9090909090909,4,2,4,80,0,1
125809,-71.4285714285714,4,2,4,80,0,1
132290,-71.4285714285714,4,2,4,70,0,1
132661,-71.4285714285714,4,2,4,60,0,1
133031,-71.4285714285714,4,2,4,50,0,1
133401,-71.4285714285714,4,2,4,80,0,1
134883,-100,4,2,4,80,0,1
143401,-62.5,4,2,4,80,0,1
143772,-100,4,2,4,80,0,1
145439,-76.9230769230769,4,2,4,80,0,1
145994,-76.9230769230769,4,2,4,85,0,1
146735,-50,4,2,4,60,0,0
155531,-50,4,2,4,5,0,0
155624,-50,4,2,4,65,0,0
156920,-50,4,2,4,70,0,0
157198,-50,4,2,22,5,0,0
157290,-50,4,2,4,70,0,0
157846,-100,4,2,4,70,0,0
158401,-90.9090909090909,4,2,4,75,0,0
158957,-83.3333333333333,4,2,4,75,0,0
159327,-90.9090909090909,4,2,4,75,0,0
159513,-90.9090909090909,4,2,4,80,0,0
159698,-90.9090909090909,4,2,4,80,0,0
160994,-125,4,2,22,30,0,0
161179,-125,4,2,22,40,0,0
161364,-125,4,2,22,30,0,0
161550,-83.3333333333333,4,2,4,80,0,1
166920,-62.5,4,2,4,80,0,1
167290,-83.3333333333333,4,2,4,80,0,1
170624,-83.3333333333333,4,2,4,80,0,1
171735,-83.3333333333333,4,2,4,85,0,1
172846,-83.3333333333333,4,2,4,85,0,1
173401,-200,4,2,4,85,0,0
173679,-200,4,2,22,5,0,0
173772,-62.5,4,2,4,85,0,1
173957,-90.9090909090909,4,2,4,80,0,1
178772,-90.9090909090909,4,2,4,80,0,1
179327,-83.3333333333333,4,2,4,80,0,1
183587,-83.3333333333333,4,2,4,85,0,1
184327,-83.3333333333333,4,2,4,85,0,1
185253,-90.9090909090909,4,2,4,85,0,1
186179,-90.9090909090909,4,2,4,80,0,1
188216,-90.9090909090909,4,2,4,85,0,1
189142,-83.3333333333333,4,2,4,80,0,1
195439,-83.3333333333333,4,2,4,85,0,1
195994,-83.3333333333333,4,2,4,85,0,1
196179,-83.3333333333333,4,2,4,85,0,1
196364,-83.3333333333333,4,2,4,85,0,1
196550,-83.3333333333333,4,2,4,85,0,1
196735,-83.3333333333333,4,2,4,85,0,1
196920,-83.3333333333333,4,2,4,85,0,1
197105,-142.857142857143,4,2,4,70,0,0
200068,-117.647058823529,4,2,4,75,0,0
202661,-125,4,2,4,75,0,0
202939,-117.647058823529,4,2,4,5,0,0
203031,-117.647058823529,4,2,4,75,0,0
203216,-50,4,2,4,80,0,0
203494,-50,4,2,22,5,0,0
203587,-50,4,2,4,80,0,0
203864,-50,4,2,22,5,0,0
203957,-50,4,2,4,80,0,0
204235,-50,4,2,22,5,0,0
204327,-50,4,2,4,80,0,0
204605,-50,4,2,22,5,0,0
204698,-50,4,2,4,80,0,0
204976,-50,4,2,22,5,0,0
205068,-71.4285714285714,4,2,4,80,0,0
205439,-50,4,2,4,80,0,0
205901,-50,4,2,4,5,0,0
205994,-50,4,2,22,30,0,0
206364,-50,4,2,4,20,0,0
206735,-50,4,2,4,30,0,0
207105,-50,4,2,4,40,0,0
207476,-50,4,2,4,50,0,0
207846,-50,4,2,4,60,0,0
208216,-50,4,2,22,40,0,0
208957,-100,4,2,4,80,0,0
220068,-100,4,2,4,85,0,0

[Colours]
Combo1 : 230,60,100
Combo2 : 130,190,100
Combo3 : 240,170,60
Combo4 : 80,170,220

[HitObjects]
182,94,806,6,0,P|147:85|101:83,1,61.5999981201172,2|0,0:0|0:0,0:0:0:0:
195,88,1176,2,0,P|163:70|119:56,1,61.5999981201172,0|0,0:0|0:0,0:0:0:0:
209,85,1546,2,0,P|182:59|143:34,1,61.5999981201172,2|0,0:0|0:0,0:0:0:0:
185,191,1917,5,0,0:0:0:0:
185,191,2102,2,0,P|226:163|311:167,1,123.199996240234,2|0,0:0|0:0,0:0:0:0:
323,274,2657,2,0,P|294:281|264:272,1,61.5999981201172,2|0,0:0|0:0,0:0:0:0:
297,161,3028,2,0,P|300:210|254:282,1,123.199996240234,2|0,0:0|0:0,0:0:0:0:
436,342,3768,6,0,P|471:333|517:331,1,61.5999981201172,2|0,0:0|0:0,0:0:0:0:
423,336,4139,2,0,P|455:318|499:304,1,61.5999981201172,0|0,0:0|0:0,0:0:0:0:
409,333,4509,2,0,P|436:307|475:282,1,61.5999981201172,2|0,0:0|0:0,0:0:0:0:
458,188,4880,5,0,0:0:0:0:
458,188,5065,2,0,B|435:212|402:217|365:205|365:205|372:192|381:189,1,123.199996240234,2|0,0:0|0:0,0:0:0:0:
446,129,5620,2,0,P|459:161|457:188,1,61.5999981201172,0|0,0:0|0:0,0:0:0:0:
396,96,5991,2,0,P|427:109|446:130,1,61.5999981201172,2|0,0:0|0:0,0:0:0:0:
338,108,6361,2,0,P|370:94|397:96,1,61.5999981201172,2|0,0:0|0:0,0:0:0:0:
381,189,6731,6,0,L|384:257,2,61.5999981201172,2|0|0,0:0|0:0|0:0,0:0:0:0:
338,108,7287,2,0,P|294:108|258:81,1,61.5999981201172,0|2,0:0|0:0,0:0:0:0:
214,42,7657,1,0,0:0:0:0:
162,111,7843,1,0,0:0:0:0:
74,51,8028,5,2,0:0:0:0:
74,51,8398,2,0,L|0:39,2,61.5999981201172,0|2|0,0:0|0:0|0:0,0:0:0:0:
162,111,8954,2,0,P|154:138|150:174,1,61.5999981201172,2|0,0:0|0:0,0:0:0:0:
86,246,9324,2,0,P|94:273|98:309,1,61.5999981201172,2|0,0:0|0:0,0:0:0:0:
228,350,9694,6,0,P|272:336|318:333,1,92.3999971801759,2|0,0:0|0:0,0:0:0:0:
339,334,10065,6,0,P|286:328|239:306,1,105.6,2|0,0:0|0:0,0:0:0:0:
224,291,10435,5,2,0:0:0:0:
309,242,10620,1,0,0:0:0:0:
405,264,10805,1,0,0:0:0:0:
505,149,10991,5,4,0:0:0:0:
505,149,11361,5,0,0:0:0:0:
408,169,11546,1,0,1:0:0:0:
324,116,11731,1,0,0:0:0:0:
425,52,11917,5,0,1:0:0:0:
320,0,12102,1,0,0:0:0:0:
211,68,12287,1,0,1:0:0:0:
231,225,12472,1,0,1:0:0:0:
77,219,13402,6,0,P|64:177|76:135,1,88,4|0,0:0|0:0,0:0:0:0:
235,229,13772,1,8,0:0:0:0:
235,229,13957,2,0,P|204:260|163:272,1,88,2|0,0:1|0:0,0:0:0:0:
167,85,14327,1,0,0:0:0:0:
244,137,14513,1,8,0:0:0:0:
235,229,14698,1,2,0:1:0:0:
318,97,14883,6,0,P|275:107|244:138,1,88,2|0,0:0|0:0,0:0:0:0:
162,272,15253,1,8,0:0:0:0:
235,229,15439,1,0,0:0:0:0:
318,216,15624,1,2,0:0:0:0:
400,235,15809,1,0,0:0:0:0:
469,284,15994,1,8,0:0:0:0:
512,355,16179,1,2,0:1:0:0:
400,235,16364,6,0,L|406:131,1,88,6|0,0:0|0:0,0:0:0:0:
395,323,16735,1,8,0:0:0:0:
395,323,16920,2,0,L|401:219,1,88,2|0,0:1|0:0,0:0:0:0:
476,192,17290,1,0,0:0:0:0:
405,146,17476,2,0,L|326:132,2,44,8|8|10,0:0|0:3|0:3,0:0:0:0:
475,191,17846,6,0,P|446:159|405:146,1,88,2|0,0:0|0:0,0:0:0:0:
339,48,18216,1,8,0:0:0:0:
261,89,18401,1,0,0:0:0:0:
172,84,18587,1,2,0:0:0:0:
17,70,18772,5,2,0:3:0:0:
172,84,18957,1,8,0:0:0:0:
98,34,19142,1,8,0:0:0:0:
97,49,19235,1,8,0:0:0:0:
96,64,19327,6,0,L|86:177,1,88,4|0,0:0|0:0,0:0:0:0:
261,89,19698,1,8,0:0:0:0:
254,176,19883,2,0,L|261:88,1,88,2|0,0:1|0:0,0:0:0:0:
333,39,20253,1,0,0:0:0:0:
420,56,20439,1,8,0:0:0:0:
469,129,20624,1,2,0:1:0:0:
462,217,20809,6,0,L|469:129,1,88,2|0,0:0|0:0,0:0:0:0:
420,56,21179,1,8,0:0:0:0:
333,39,21364,6,8,P|311:39|272:25,1,44,8|8,0:3|0:3,0:3:0:0:
245,103,21550,2,8,P|226:90|202:57,1,44,8|8,0:3|0:3,0:3:0:0:
136,106,21735,2,8,P|127:85|126:44,1,44,8|8,0:3|0:3,0:3:0:0:
38,15,21920,5,4,0:0:0:0:
38,15,22290,6,0,L|28:108,1,88,12|2,0:0|0:0,0:0:0:0:
235,190,22661,5,2,0:0:0:0:
245,103,22846,2,0,L|235:196,1,88,12|2,0:0|0:0,0:0:0:0:
442,278,23216,5,2,0:0:0:0:
452,191,23401,2,0,L|442:284,1,88,12|2,0:0|0:0,0:0:0:0:
235,190,23772,5,0,0:0:0:0:
366,121,23957,1,12,0:0:0:0:
375,33,24142,2,0,L|365:126,1,88,4|2,0:0|0:0,0:0:0:0:
329,326,24513,5,4,0:0:0:0:
452,191,24698,1,8,0:0:0:0:
447,234,24790,1,8,0:0:0:0:
442,278,24883,1,8,0:0:0:0:
365,120,25068,1,2,0:0:0:0:
502,69,25253,5,6,0:0:0:0:
502,69,25439,2,0,P|466:66|428:43,1,70.4,0|2,0:0|0:0,0:0:0:0:
307,49,25809,1,0,0:0:0:0:
307,49,25994,2,0,P|371:25|435:50,1,140.8,2|2,0:0|0:0,0:0:0:0:
372,121,26550,1,0,0:0:0:0:
307,49,26735,6,0,P|242:24|178:48,2,140.8,2|2|2,0:0|0:0|0:0,0:0:0:0:
307,49,27846,2,0,L|315:129,1,70.4,2|0,0:0|0:0,0:0:0:0:
273,219,28216,6,0,P|208:243|144:219,2,140.8,2|2|2,0:0|0:0|0:0,0:0:0:0:
314,119,29142,2,0,P|339:108|392:110,2,70.4,0|2|0,0:0|0:0|0:0,0:0:0:0:
273,219,29698,6,0,P|219:175|208:107,1,140.8,2|2,0:0|0:0,0:0:0:0:
108,55,30253,1,0,0:0:0:0:
108,55,30439,2,0,P|120:109|119:144,1,70.4,2|0,0:0|0:0,0:0:0:0:
133,208,30809,2,0,P|103:254|77:278,1,70.4,2|0,0:0|0:0,0:0:0:0:
215,315,31179,6,0,P|181:324|149:340,1,70.4,2|0,0:0|0:0,0:0:0:0:
284,326,31550,2,0,P|249:317|214:315,1,70.4,2|0,0:0|0:0,0:0:0:0:
354,316,31920,2,0,P|319:324|284:326,1,70.4,2|0,0:0|0:0,0:0:0:0:
408,272,32290,2,0,P|382:296|353:317,1,70.4,2|0,0:0|0:0,0:0:0:0:
489,311,32661,6,0,B|499:278|471:247|471:247|430:246|408:272,1,140.8,2|2,0:0|0:0,0:0:0:0:
413,363,33216,1,0,0:0:0:0:
413,363,33401,2,0,B|438:389|478:379|478:379|499:344|489:312,1,140.8,2|2,0:0|0:0,0:0:0:0:
489,312,34142,6,0,P|480:271|488:231,1,70.4,2|0,0:0|0:0,0:0:0:0:
425,170,34513,1,2,0:0:0:0:
425,170,34698,2,0,P|434:129|426:89,1,70.4,0|2,0:0|0:0,0:0:0:0:
336,196,35068,2,0,P|303:181|278:157,1,70.4,0|2,0:0|0:0,0:0:0:0:
483,243,35439,5,12,0:0:0:0:
483,243,35809,1,8,0:0:0:0:
425,170,35994,1,8,0:0:0:0:
350,289,36179,1,2,0:0:0:0:
336,196,36364,1,12,0:0:0:0:
211,261,36550,1,0,0:0:0:0:
228,218,36642,1,8,0:0:0:0:
245,174,36735,1,8,0:3:0:0:
122,152,36920,1,8,0:0:0:0:
140,138,37013,1,8,0:0:0:0:
158,123,37105,6,0,B|172:80|158:30|158:30|143:45|154:71,1,118.799996374512,6|0,0:0|0:0,0:0:0:0:
159,61,37476,2,0,P|200:68|262:52,1,79.1999975830079,8|0,0:0|0:0,0:0:0:0:
356,20,37846,1,2,0:0:0:0:
433,121,38031,1,2,0:0:0:0:
360,225,38216,2,0,P|349:262|350:302,1,79.1999975830079,8|0,0:0|0:0,0:0:0:0:
220,206,38587,6,0,P|243:267|255:370,2,158.399995166016,2|8|2,0:0|0:0|0:0,0:0:0:0:
111,140,39513,1,2,0:0:0:0:
18,226,39698,1,8,0:0:0:0:
18,226,40068,6,0,B|25:212|40:206|40:206|58:249|34:308,1,118.799996374512,2|0,0:0|0:0,0:0:0:0:
34,314,40439,2,0,P|76:304|120:309,1,79.1999975830079,8|0,0:0|0:0,0:0:0:0:
211,353,40809,1,2,0:0:0:0:
305,295,40994,1,2,0:0:0:0:
206,243,41179,1,8,0:0:0:0:
113,307,41364,1,0,0:0:0:0:
206,243,41550,6,0,P|218:208|213:159,2,79.1999975830079,2|2|8,0:0|0:0|0:0,0:0:0:0:
113,307,42105,1,0,0:0:0:0:
211,353,42290,2,0,P|236:347|269:349,1,39.5999987915039,2|0,0:0|0:0,0:0:0:0:
305,295,42476,1,2,0:0:0:0:
206,243,42661,2,2,L|68:220,1,118.799996374512,8|0,0:0|0:0,0:1:0:0:
68,218,43031,6,0,P|136:209|134:121,2,158.399995166016,2|8|2,0:0|0:0|0:0,0:0:0:0:
68,218,43957,1,2,0:0:0:0:
143,131,44142,1,8,0:0:0:0:
143,131,44513,6,0,B|179:148|219:126|219:126|268:125|281:171,1,158.399995166016,2|8,0:0|0:0,0:0:0:0:
305,290,45068,1,0,0:0:0:0:
434,306,45253,1,2,0:0:0:0:
434,306,45439,1,2,0:0:0:0:
483,188,45624,1,8,0:0:0:0:
483,188,45994,6,0,P|473:150|484:110,1,79.1999975830079,2|0,0:0|0:0,0:0:0:0:
359,86,46364,1,8,0:0:0:0:
353,245,46550,2,0,P|330:213|296:195,1,79.1999975830079,0|2,0:0|0:0,0:0:0:0:
164,313,46920,2,0,P|158:274|172:237,1,79.1999975830079,2|8,0:0|0:0,0:0:0:0:
286,355,47290,5,4,0:0:0:0:
286,355,47661,5,2,0:0:0:0:
171,237,47846,1,4,0:0:0:0:
164,313,48031,5,0,0:0:0:0:
279,195,48216,1,2,0:0:0:0:
286,271,48401,5,8,0:0:0:0:
283,233,48494,1,8,0:0:0:0:
279,195,48587,1,4,0:3:0:0:
178,161,48772,1,8,0:3:0:0:
264,39,48957,6,0,P|253:70|250:116,1,61.5999981201172,4|0,0:0|0:0,0:0:0:0:
337,21,49327,2,0,P|306:34|272:65,1,61.5999981201172,2|0,0:0|0:0,0:0:0:0:
401,59,49698,2,0,P|369:46|323:44,1,61.5999981201172,2|0,0:0|0:0,0:0:0:0:
419,131,50068,1,2,0:0:0:0:
419,131,50253,2,0,P|405:100|374:66,1,61.5999981201172,0|0,0:0|0:0,0:0:0:0:
264,39,50624,5,0,0:0:0:0:
337,21,50809,1,2,0:0:0:0:
401,59,50994,1,0,0:0:0:0:
401,164,51179,6,0,B|401:36,1,105.599996777344,2|0,0:0|0:0,0:0:0:0:
401,287,51550,6,0,B|401:163,1,123.199996240234,4|0,0:0|0:0,0:0:0:0:
401,59,51920,5,6,0:0:0:0:
337,21,52105,1,0,0:0:0:0:
264,39,52290,1,2,0:0:0:0:
228,104,52476,1,0,0:0:0:0:
155,122,52661,2,0,P|123:112|93:113,1,61.5999981201172,2|0,0:0|0:0,0:0:0:0:
207,176,53031,1,2,0:0:0:0:
264,39,53216,5,12,0:0:0:0:
264,39,53587,5,8,0:0:0:0:
207,176,53772,1,8,0:0:0:0:
344,233,53957,1,2,0:0:0:0:
344,338,54142,6,0,L|344:210,1,105.599996777344,4|2,0:0|0:0,0:0:0:0:
260,241,54420,1,8,0:0:0:0:
260,241,54513,6,0,L|260:113,1,123.199996240234,8|4,0:3|0:3,0:0:0:0:
171,48,54883,5,4,0:0:0:0:
109,95,55068,1,2,0:0:0:0:
141,165,55253,1,2,0:0:0:0:
95,227,55439,2,0,P|72:205|68:184,1,35.2,2|8,0:1|0:3,0:0:0:0:
141,165,55624,2,0,P|182:159|222:161,1,70.4,4|4,0:3|0:3,0:0:0:0:
260,219,55994,1,8,0:0:0:0:
240,95,56179,6,0,P|222:126|210:159,1,70.4,2|0,0:0|0:0,0:0:0:0:
260,219,56550,1,2,0:0:0:0:
335,201,56735,1,8,0:0:0:0:
394,250,56920,2,0,P|412:246|437:246,1,35.2,2|8,0:1|0:3,0:0:0:0:
394,144,57105,6,0,L|394:272,1,105.599996777344,4|2,0:3|0:0,0:0:0:0:
394,20,57476,6,0,L|394:148,1,123.199996240234,12|0,0:0|0:0,0:0:0:0:
394,249,57846,5,4,0:0:0:0:
335,201,58031,1,2,0:0:0:0:
260,219,58216,1,8,0:0:0:0:
240,293,58401,2,0,P|220:285|198:269,1,35.2,2|8,0:1|0:3,0:0:0:0:
260,219,58587,2,0,P|260:184|277:151,1,70.4,4|2,0:3|0:0,0:0:0:0:
335,201,58957,1,8,0:0:0:0:
136,256,59142,5,4,0:0:0:0:
136,256,59513,5,2,0:0:0:0:
335,201,59698,1,8,0:0:0:0:
228,236,59883,2,0,P|249:249|266:269,1,35.2,2|8,0:1|0:0,0:0:0:0:
228,130,60068,6,0,L|228:258,1,105.599996777344,8|8,0:0|0:3,0:0:0:0:
140,260,60346,1,0,0:0:0:0:
140,260,60439,6,0,L|140:388,1,123.199996240234,4|2,0:3|0:0,0:0:0:0:
37,384,60809,5,6,0:0:0:0:
33,352,60994,1,0,0:0:0:0:
30,320,61179,1,2,0:0:0:0:
26,288,61364,1,0,0:0:0:0:
22,256,61550,2,0,L|22:195,1,52.7999983886719,2|0,0:0|0:0,0:0:0:0:
140,260,61920,5,2,0:0:0:0:
140,228,62105,2,0,L|140:167,1,52.7999983886719,0|2,0:0|0:0,0:0:0:0:
249,274,62476,5,0,0:0:0:0:
253,242,62661,1,2,0:0:0:0:
256,210,62846,1,0,0:0:0:0:
260,178,63031,1,2,0:0:0:0:
264,146,63401,5,2,0:0:0:0:
268,114,63772,5,2,0:0:0:0:
268,114,64513,6,2,P|217:132|196:257,1,176,0|0,0:0|0:0,0:1:0:0:
377,171,65068,6,0,P|258:138|187:240,1,264,4|0,0:0|0:0,0:0:0:0:
175,330,65439,5,0,0:0:0:0:
105,200,65624,1,2,0:0:0:0:
187,239,65809,5,8,0:0:0:0:
42,265,65994,1,8,0:0:0:0:
308,324,66179,5,8,0:0:0:0:
187,239,66364,1,10,0:0:0:0:
42,265,66550,1,8,0:0:0:0:
187,239,66735,6,0,P|209:188|186:128,1,105.599996777344,4|0,0:0|0:0,0:0:0:0:
308,324,67105,2,0,P|296:273|317:226,1,105.599996777344,8|0,0:0|0:1,0:0:0:0:
197,142,67476,6,0,L|80:131,1,105.599996777344,2|0,0:2|0:0,0:0:0:0:
317,226,67846,2,0,L|434:237,1,105.599996777344,8|0,0:0|0:1,0:0:0:0:
185,288,68216,5,2,0:0:0:0:
317,226,68401,1,2,0:1:0:0:
197,142,68587,1,8,0:0:0:0:
329,80,68772,6,0,B|359:85|383:75|395:51|395:51|369:45|349:61,1,105.599996777344,2|2,0:1|0:0,0:0:0:0:
197,142,69142,2,0,B|167:147|143:137|131:113|131:113|157:107|177:123,1,105.599996777344,2|8,0:1|0:0,0:0:0:0:
317,226,69513,5,8,0:0:0:0:
440,173,69698,2,0,L|456:46,1,105.599996777344,2|0,0:0|0:1,0:0:0:0:
440,279,70068,2,0,L|456:406,1,105.599996777344,8|0,0:0|0:1,0:0:0:0:
440,173,70439,5,2,0:0:0:0:
317,226,70624,2,0,P|259:214|196:212,1,105.599996777344,2|8,0:1|0:0,0:0:0:0:
61,338,70994,5,2,0:1:0:0:
139,124,71179,1,2,0:0:0:0:
212,211,71364,1,2,0:1:0:0:
27,143,71550,1,8,0:0:0:0:
178,16,71735,5,2,0:1:0:0:
61,338,72105,2,0,B|51:305|46:265|74:232|74:232|88:249|83:271,2,140.8,2|8|2,0:1|0:0|0:1,0:0:0:0:
88,353,72568,1,8,0:0:0:0:
119,353,72661,5,6,0:0:0:0:
253,292,72846,2,0,P|303:279|358:290,1,105.599996777344,2|2,3:1|0:0,0:0:0:0:
84,258,73216,6,0,P|132:240|172:200,1,105.599996777344,4|2,3:2|0:0,0:0:0:0:
487,209,73587,2,0,P|435:205|386:175,1,105.599996777344,2|8,3:1|0:0,0:0:0:0:
79,155,73957,6,0,P|129:168|169:202,1,105.599996777344,4|2,3:2|0:0,0:0:0:0:
466,110,74327,2,0,P|420:136|390:179,1,105.599996777344,2|8,3:1|0:0,0:0:0:0:
197,38,74698,2,0,P|227:82|235:134,1,105.599996777344,2|2,3:1|0:0,0:0:0:0:
119,353,75068,5,8,3:2:0:0:
106,166,75253,1,10,0:0:0:0:
3,140,75439,1,8,0:0:0:0:
119,353,75624,5,12,0:0:0:0:
106,166,75809,2,0,L|-9:137,1,105.599996777344,8|2,0:3|0:0,0:0:0:0:
406,166,76179,2,0,L|521:137,1,105.599996777344,4|2,0:0|0:0,0:0:0:0:
119,353,76550,6,0,L|89:234,1,105.599996777344,12|2,0:0|0:0,0:0:0:0:
393,353,76920,2,0,L|423:234,1,105.599996777344,4|2,0:0|0:0,0:0:0:0:
196,149,77290,5,8,0:0:0:0:
182,114,77383,1,8,0:0:0:0:
151,93,77476,1,10,0:0:0:0:
316,149,77661,5,10,0:2:0:0:
330,114,77753,1,8,0:2:0:0:
361,93,77846,1,10,0:0:0:0:
256,64,78031,6,8,L|256:11,1,52.7999983886719,10|8,0:3|0:3,0:3:0:0:
151,93,78216,2,8,L|98:81,1,52.7999983886719,8|8,0:3|0:3,0:3:0:0:
361,93,78401,2,8,L|414:81,1,52.7999983886719,8|8,0:3|0:3,0:3:0:0:
256,224,78587,5,4,0:0:0:0:
256,224,78772,1,2,0:0:0:0:
434,223,78957,2,0,B|383:243|342:205|342:205|286:186|256:224,1,193.600005908203,4|2,0:0|0:0,0:0:0:0:
171,332,79513,5,2,0:0:0:0:
159,235,79698,1,8,0:0:0:0:
147,138,79883,1,0,0:0:0:0:
62,247,80068,5,2,0:0:0:0:
159,235,80253,1,2,0:0:0:0:
256,223,80439,1,8,0:0:0:0:
151,142,80624,5,2,0:2:0:0:
151,142,80716,2,0,L|147:75,1,48.4000014770508,8|2,0:0|0:0,0:0:0:0:
171,332,80994,1,2,0:0:0:0:
62,247,81179,2,0,L|56:148,1,96.8000029541017,8|2,0:0|0:0,0:0:0:0:
260,63,81550,5,6,0:0:0:0:
260,63,81735,1,2,0:0:0:0:
82,62,81920,2,0,B|133:82|174:44|174:44|230:25|260:63,1,193.600005908203,12|2,0:0|0:0,0:0:0:0:
313,190,82476,5,2,0:0:0:0:
349,99,82661,1,8,0:0:0:0:
386,8,82846,1,0,0:0:0:0:
440,136,83031,5,2,0:0:0:0:
349,99,83216,1,2,0:0:0:0:
259,62,83401,1,8,0:0:0:0:
320,197,83587,5,2,0:0:0:0:
320,197,83679,1,2,0:0:0:0:
320,197,83772,1,6,0:0:0:0:
447,143,83957,1,2,0:0:0:0:
447,143,84050,1,2,0:0:0:0:
447,143,84142,2,0,L|464:24,1,96.8000029541017,6|8,0:0|0:3,0:0:0:0:
470,30,84420,1,8,0:0:0:0:
480,13,84513,5,4,0:0:0:0:
450,248,84698,2,0,L|446:130,1,105.599996777344,2|0,3:1|0:0,0:0:0:0:
65,196,85068,6,0,P|101:158|145:130,1,105.599996777344,4|2,3:2|0:0,0:0:0:0:
447,142,85439,2,0,P|401:115|351:101,1,105.599996777344,2|8,3:1|0:0,0:0:0:0:
164,233,85809,6,0,P|112:221|65:196,1,105.599996777344,4|2,3:2|0:2,0:0:0:0:
362,203,86179,2,0,P|409:177|447:141,1,105.599996777344,2|8,3:1|0:0,0:0:0:0:
174,338,86550,2,0,L|162:220,1,105.599996777344,2|2,3:1|0:0,0:0:0:0:
348,361,86920,5,2,3:1:0:0:
362,203,87105,1,6,2:2:0:0:
446,141,87290,1,8,3:3:0:0:
348,361,87476,5,6,0:0:0:0:
362,203,87661,1,8,0:0:0:0:
398,166,87753,1,8,0:0:0:0:
446,141,87846,1,10,0:0:0:0:
421,325,88031,6,0,P|381:288|328:280,1,105.599996777344,8|2,0:3|0:0,0:0:0:0:
315,293,88309,1,8,0:3:0:0:
297,304,88401,2,0,L|178:294,1,105.599996777344,4|2,0:3|0:0,0:0:0:0:
444,142,88772,6,0,L|454:37,1,105.599996777344,12|2,0:0|0:0,0:0:0:0:
68,142,89142,2,0,L|58:37,1,105.599996777344,12|2,0:0|0:0,0:0:0:0:
256,192,89513,5,2,0:2:0:0:
256,192,89605,2,0,L|256:131,1,52.7999983886719,8|2,0:0|0:0,0:0:0:0:
444,142,89883,5,8,0:3:0:0:
458,40,90068,1,4,0:3:0:0:
458,40,90253,1,2,0:0:0:0:
444,142,90439,6,0,P|389:107|321:108,1,123.199996240234,4|0,0:0|0:0,0:0:0:0:
255,156,90994,1,2,0:0:0:0:
254,274,91179,2,0,P|239:215|255:156,1,123.199996240234,2|0,0:1|0:0,0:0:0:0:
255,156,91920,6,0,L|170:146,1,61.5999981201172,2|2,0:0|0:0,0:0:0:0:
254,274,92290,2,0,L|169:264,1,61.5999981201172,2|0,0:1|0:0,0:0:0:0:
186,280,92568,1,2,0:0:0:0:
181,294,92661,5,2,0:1:0:0:
112,334,92846,1,2,0:1:0:0:
42,294,93031,1,0,0:0:0:0:
41,214,93216,1,2,0:1:0:0:
180,212,93401,5,4,0:0:0:0:
110,173,93772,1,2,0:0:0:0:
41,214,94142,1,2,0:0:0:0:
42,294,94513,5,2,0:0:0:0:
180,212,94698,2,0,L|191:118,1,74.8000014266968,4|0,0:0|0:0,0:0:0:0:
112,334,95068,5,8,0:3:0:0:
42,294,95253,1,2,0:0:0:0:
41,214,95439,1,2,0:0:0:0:
38,195,95531,1,8,0:0:0:0:
35,176,95624,1,8,0:0:0:0:
110,173,95809,5,2,0:0:0:0:
114,135,95901,1,2,0:0:0:0:
117,98,95994,2,2,P|145:84|176:83,1,61.5999981201172,2|2,0:0|0:0,0:1:0:0:
321,267,96364,5,12,0:0:0:0:
403,138,96550,6,0,B|426:79|387:11|387:11|320:50|311:113,1,264,12|0,0:0|0:0,0:0:0:0:
409,233,96920,6,0,B|472:237|524:179|524:179|466:127|404:138,1,264,12|0,0:0|0:0,0:0:0:0:
321,267,97290,6,0,B|336:328|407:360|407:360|440:290|409:233,1,264,12|0,0:0|0:0,0:0:0:0:
262,194,97661,6,0,B|208:227|200:304|200:304|276:316|323:266,1,264,4|0,0:0|0:0,0:0:0:0:
311,112,98031,6,0,B|261:69|188:89|188:89|205:166|262:194,1,264,6|0,0:0|0:0,0:0:0:0:
311,112,98401,6,0,P|358:71|351:12,1,123.199996240234,6|2,0:2|0:0,0:0:0:0:
417,148,98772,1,8,0:3:0:0:
448,129,98864,1,8,0:3:0:0:
485,128,98957,1,4,0:3:0:0:
40,40,99327,5,4,0:0:0:0:
118,103,111179,6,0,B|81:116|38:99|38:99|-65:113|-49:-43|98:11|38:101|38:101|31:135|5:160|5:160|57:166|108:210|82:298|28:312|28:312|-13:280|0:245,1,686.399968579103,4|8,0:1|0:0,0:0:0:0:
0,245,114142,6,0,B|71:298|151:296|254:257|196:216|336:172|436:180|506:238|506:238|459:287|414:296|368:286,1,686.399968579103,2|8,0:0|0:0,0:0:0:0:
373,287,117105,86,0,B|373:321|348:368|314:369|314:369|289:362|265:339|241:288|250:219|307:163|371:169|410:183|410:183|475:213|506:203|506:203|458:197|433:173|417:128|447:83,1,686.399968579103,2|8,0:0|0:0,0:0:0:0:
446,83,120068,6,0,L|362:72,1,79.1999975830079,2|0,0:1|0:0,0:0:0:0:
302,199,120439,1,2,0:1:0:0:
390,247,120624,2,0,P|404:210|400:171,1,79.1999975830079,2|0,0:1|0:0,0:0:0:0:
256,96,120994,5,0,0:0:0:0:
302,199,121179,1,2,0:0:0:0:
189,187,121364,1,0,0:0:0:0:
260,100,121550,5,2,0:0:0:0:
260,100,121735,1,2,0:0:0:0:
189,187,121920,1,2,0:1:0:0:
302,199,122105,1,2,0:0:0:0:
191,284,122290,6,0,L|189:171,1,96.8000029541017,4|8,0:0|0:0,0:0:0:0:
171,169,122568,1,8,0:0:0:0:
150,155,122661,2,0,P|122:141|83:139,1,48.4000014770508,8|0,0:0|0:0,0:0:0:0:
260,100,122846,2,0,P|288:86|327:84,1,48.4000014770508,8|0,0:0|0:0,0:0:0:0:
149,52,123031,6,2,L|23:34,1,123.199996240234,6|0,0:0|0:0,0:1:0:0:
6,105,123309,2,2,P|14:125|24:185,1,61.5999981201172,2|8,0:1|0:0,0:1:0:0:
9,353,123587,1,2,0:1:0:0:
17,343,123679,1,2,0:1:0:0:
27,335,123772,2,2,L|182:327,1,123.199996240234,2|0,0:0|0:1,0:1:0:0:
218,368,124050,2,2,L|230:298,1,61.5999981201172,2|8,0:1|0:0,0:1:0:0:
387,198,124327,5,2,0:1:0:0:
377,206,124420,1,2,0:1:0:0:
369,213,124513,2,2,B|329:201|329:201|294:207|294:207|250:192,1,123.199996240234,2|0,0:0|0:0,0:1:0:0:
119,63,124883,1,8,0:0:0:0:
6,105,125068,2,2,B|46:95|46:95|73:72|73:72|119:63,1,123.199996240234,2|0,0:1|0:0,0:1:0:0:
118,215,125439,6,2,B|130:182|116:148|116:148|102:160|103:184,1,96.8000029541017,0|8,0:0|0:0,0:1:0:0:
237,314,125809,5,2,0:1:0:0:
237,314,125901,1,2,0:1:0:0:
237,314,125994,2,2,L|253:158,1,123.199996240234,4|0,0:0|0:0,0:1:0:0:
361,68,126364,1,8,0:0:0:0:
411,226,126550,5,2,0:1:0:0:
401,203,126642,1,2,0:1:0:0:
410,180,126735,1,2,0:0:0:0:
472,329,126920,2,0,L|317:311,1,123.199996240234,2|0,0:1|0:0,0:0:0:0:
127,177,127290,6,0,L|282:195,1,123.199996240234,2|2,0:1|0:0,0:0:0:0:
349,314,127661,1,2,0:1:0:0:
270,332,127846,5,2,0:0:0:0:
427,295,128031,1,2,0:1:0:0:
349,314,128216,5,2,0:0:0:0:
506,277,128401,1,2,0:1:0:0:
270,332,128587,6,2,B|255:329|255:329|251:323|251:323|233:326|233:326|199:306|199:306|147:302,1,123.199996240234,8|0,0:0|0:0,0:1:0:0:
3,206,128957,5,4,0:0:0:0:
31,330,129142,1,2,0:1:0:0:
156,302,129327,1,8,0:0:0:0:
128,178,129513,2,0,L|111:52,1,123.199996240234,2|2,0:1|0:0,0:0:0:0:
293,210,129883,2,0,L|310:84,1,123.199996240234,2|8,0:1|0:0,0:0:0:0:
128,178,130253,6,2,P|70:157|9:163,1,123.199996240234,2|2,0:1|0:0,0:1:0:0:
293,210,130624,2,0,P|353:205|411:226,1,123.199996240234,2|8,0:1|0:0,0:0:0:0:
182,360,130994,2,2,L|201:238,2,123.199996240234,2|0|0,0:1|0:0|0:0,0:1:0:0:
419,349,131550,2,2,L|410:225,1,123.199996240234,2|2,0:0|1:0,0:1:0:0:
449,104,131920,6,2,P|474:70|510:50,2,82.133330826823,4|2|2,0:2|0:1|0:1,0:1:0:0:
391,154,132290,5,2,0:1:0:0:
341,160,132414,1,2,0:1:0:0:
295,141,132537,1,2,0:1:0:0:
228,176,132661,5,2,0:1:0:0:
246,200,132784,1,2,0:1:0:0:
250,231,132908,1,2,0:1:0:0:
314,271,133031,5,2,0:1:0:0:
321,253,133155,1,2,0:1:0:0:
336,241,133278,1,2,0:1:0:0:
413,268,133401,6,2,B|494:274|494:274|433:238,1,123.199996240234,2|0,0:1|0:1,0:1:0:0:
246,200,133772,1,8,0:0:0:0:
131,333,133957,1,8,0:2:0:0:
131,333,134050,1,8,0:2:0:0:
131,333,134142,2,2,L|124:203,1,123.199996240234,4|0,0:2|0:3,0:1:0:0:
105,194,134420,1,8,0:3:0:0:
92,172,134513,1,8,0:3:0:0:
88,147,134605,1,8,0:3:0:0:
94,123,134698,1,8,0:3:0:0:
112,106,134790,1,8,0:3:0:0:
135,97,134883,6,0,L|256:90,1,88,10|0,0:0|0:0,0:0:0:0:
227,179,135253,2,0,L|220:58,1,88,4|0,0:0|0:0,0:0:0:0:
343,118,135624,1,2,0:0:0:0:
343,118,135809,1,2,0:1:0:0:
337,205,135994,2,0,L|344:84,1,88,8|2,0:0|0:1,0:0:0:0:
425,273,136364,6,0,P|344:247|296:316,1,176,2|8,0:0|0:0,0:0:0:0:
201,360,136920,1,2,0:1:0:0:
100,327,137105,1,2,0:0:0:0:
51,232,137290,1,2,0:1:0:0:
83,130,137476,2,0,L|92:28,1,88,8|2,0:0|0:1,0:0:0:0:
209,107,137846,6,0,P|275:118|232:35,1,176,4|8,0:0|0:0,0:0:0:0:
175,191,138401,1,2,0:1:0:0:
175,191,138494,1,0,0:0:0:0:
175,191,138587,2,0,P|136:125|210:107,1,176,2|8,0:0|0:0,0:0:0:0:
243,343,139142,5,2,0:1:0:0:
243,343,139235,1,2,0:1:0:0:
243,343,139327,2,2,L|249:289,1,44,6|0,0:0|0:0,0:1:0:0:
338,213,139513,5,2,0:1:0:0:
338,213,139605,1,2,0:1:0:0:
338,213,139698,2,2,L|288:234,1,44,8|0,0:0|0:0,0:1:0:0:
178,196,139883,5,2,0:1:0:0:
178,196,139976,1,2,0:1:0:0:
178,196,140068,2,2,L|213:222,1,44,2|0,0:0|0:0,0:1:0:0:
243,343,140253,2,2,L|249:289,1,44,2|0,0:1|0:0,0:1:0:0:
338,213,140439,2,0,L|288:234,1,44,2|0,0:0|0:0,0:1:0:0:
171,291,140624,5,8,0:0:0:0:
171,291,140716,1,8,0:0:0:0:
171,291,140809,2,0,B|100:319|43:273|43:273|103:259,1,176,4|8,0:0|0:0,0:0:0:0:
178,196,141364,1,2,0:1:0:0:
178,196,141457,1,0,0:0:0:0:
178,195,141550,2,0,L|182:68,1,88,2|2,0:0|0:1,0:0:0:0:
265,197,141920,2,0,L|138:193,1,88,8|2,0:0|0:1,0:0:0:0:
325,144,142290,6,2,L|326:100,1,44,8|0,0:0|0:0,0:1:0:0:
318,257,142476,2,2,L|316:300,2,44,2|8|2,0:1|0:0|0:0,0:1:0:0:
421,205,142846,6,8,L|378:204,1,44,10|8,0:3|0:3,0:3:0:0:
325,144,143031,2,8,L|326:100,1,44,8|8,0:3|0:3,0:3:0:0:
318,257,143216,2,8,L|316:300,1,44,12|8,0:3|0:3,0:3:0:0:
265,197,143401,6,2,L|124:192,1,140.8,12|2,0:0|0:0,0:1:0:0:
68,304,143772,5,12,0:0:0:0:
129,215,143957,1,2,0:0:0:0:
125,100,144142,1,2,0:0:0:0:
45,308,144327,5,12,0:0:0:0:
127,237,144513,1,2,0:0:0:0:
153,125,144698,1,2,0:0:0:0:
21,305,144883,5,12,0:0:0:0:
119,257,145068,1,2,0:0:0:0:
173,156,145253,1,2,0:0:0:0:
206,361,145439,6,2,L|216:220,1,114.399994763184,12|2,0:0|0:0,0:1:0:0:
325,100,145809,1,2,0:0:0:0:
404,292,145994,1,12,0:0:0:0:
458,186,146179,5,8,0:0:0:0:
440,187,146272,1,8,0:0:0:0:
424,180,146364,1,10,0:0:0:0:
301,308,146550,1,2,0:0:0:0:
226,95,146735,5,4,0:0:0:0:
13,71,156920,6,0,P|134:48|190:158,1,264,6|0,0:0|0:0,0:0:0:0:
202,249,157290,5,2,0:0:0:0:
272,119,157476,1,2,0:0:0:0:
190,158,157661,1,2,0:0:0:0:
334,184,157846,6,0,P|357:144|354:81,1,88,2|8,0:0|0:0,0:0:0:0:
190,158,158216,1,2,0:0:0:0:
292,265,158401,6,0,P|343:274|389:256,1,96.8000029541017,8|8,0:0|0:0,0:0:0:0:
272,119,158772,1,8,0:0:0:0:
202,249,158957,6,0,P|207:300|244:341,1,105.599996777344,10|8,0:0|0:0,0:0:0:0:
334,184,159327,1,8,0:0:0:0:
116,208,159513,5,10,0:0:0:0:
359,102,159698,1,8,0:0:0:0:
329,365,159883,1,8,0:0:0:0:
417,35,160994,6,0,L|506:43,2,70.4,0|2|0,0:0|0:2|0:1,0:0:0:0:
178,44,161550,6,0,P|228:55|275:34,1,105.599996777344,6|0,0:0|0:0,0:0:0:0:
362,257,161920,2,0,P|409:235|459:247,1,105.599996777344,8|0,0:0|0:1,0:0:0:0:
191,149,162290,6,0,L|177:38,1,105.599996777344,2|0,0:0|0:1,0:0:0:0:
189,270,162661,2,0,L|175:381,1,105.599996777344,8|0,0:0|0:1,0:0:0:0:
14,215,163031,5,2,0:0:0:0:
190,148,163216,1,2,0:1:0:0:
189,270,163401,1,8,0:0:0:0:
78,122,163587,6,0,B|52:95|65:43|65:43|81:57,1,105.599996777344,2|2,0:1|0:0,0:0:0:0:
305,145,163957,2,0,B|337:125|338:72|338:72|318:81,1,105.599996777344,2|8,0:1|0:0,0:0:0:0:
189,270,164327,5,2,0:0:0:0:
305,144,164513,2,0,P|354:128|407:127,1,105.599996777344,6|0,0:0|0:1,0:0:0:0:
179,138,164883,2,0,P|130:122|77:121,1,105.599996777344,8|0,0:0|0:1,0:0:0:0:
10,279,165253,5,2,0:0:0:0:
203,330,165439,2,0,P|219:280|220:227,1,105.599996777344,2|8,0:1|0:0,0:0:0:0:
92,41,165809,5,2,0:1:0:0:
220,227,165994,1,2,0:0:0:0:
108,237,166179,1,2,0:1:0:0:
268,124,166364,1,8,0:0:0:0:
291,322,166550,5,2,0:1:0:0:
92,41,166920,2,0,B|66:19|40:14|4:17|-8:37|-8:37|8:51|31:48,2,140.8,2|8|8,0:1|0:0|0:0,0:0:0:0:
100,71,167383,1,8,0:0:0:0:
97,102,167476,5,6,0:0:0:0:
179,207,167661,2,0,P|230:215|278:195,1,105.599996777344,2|8,3:1|0:0,0:0:0:0:
76,297,168031,6,0,P|127:294|179:316,1,105.599996777344,4|2,3:2|0:0,0:0:0:0:
397,252,168401,2,0,P|347:264|302:298,1,105.599996777344,2|8,3:1|0:0,0:0:0:0:
29,172,168772,6,0,P|79:183|124:217,1,105.599996777344,4|2,3:2|0:0,0:0:0:0:
408,119,169142,2,0,P|362:143|328:188,1,105.599996777344,2|8,3:1|0:0,0:0:0:0:
175,42,169513,2,0,P|203:86|211:137,1,105.599996777344,2|2,3:1|0:0,0:0:0:0:
34,360,169883,5,2,3:0:0:0:
122,214,170068,1,8,0:0:0:0:
29,172,170253,1,2,3:1:0:0:
34,360,170439,5,6,0:0:0:0:
122,214,170624,2,0,P|77:180|18:174,1,105.599996777344,8|2,0:0|0:0,0:0:0:0:
390,214,170994,2,0,P|435:180|494:174,1,105.599996777344,4|2,0:0|0:0,0:0:0:0:
138,318,171364,6,0,L|119:196,1,105.599996777344,12|2,0:0|0:0,0:0:0:0:
373,318,171735,2,0,L|392:196,1,105.599996777344,12|2,0:0|0:0,0:0:0:0:
196,149,172105,5,8,0:0:0:0:
180,121,172198,1,8,0:0:0:0:
175,89,172290,1,8,0:0:0:0:
316,149,172476,5,10,0:2:0:0:
332,121,172568,1,8,0:2:0:0:
337,89,172661,1,10,0:2:0:0:
256,64,172846,6,8,L|256:11,1,52.7999983886719,10|8,0:3|0:3,0:3:0:0:
175,89,173031,2,8,L|122:77,1,52.7999983886719,8|8,0:3|0:3,0:3:0:0:
337,89,173216,2,8,L|390:77,1,52.7999983886719,8|8,0:3|0:3,0:3:0:0:
256,200,173401,6,2,B|266:215|266:215|271:165,1,66,4|0,0:0|0:0,0:1:0:0:
268,183,173772,6,0,P|334:171|372:226,1,140.8,8|2,0:0|0:1,0:0:0:0:
406,318,174142,1,2,0:0:0:0:
466,242,174327,1,0,0:0:0:0:
372,226,174513,1,8,0:0:0:0:
311,304,174698,1,0,0:0:0:0:
466,242,174883,5,2,0:0:0:0:
372,226,175068,1,2,0:1:0:0:
276,214,175253,1,8,0:0:0:0:
181,200,175439,2,0,L|64:207,1,96.8000029541017,2|8,0:0|0:0,0:0:0:0:
241,125,175809,1,8,0:2:0:0:
245,101,175901,1,8,0:0:0:0:
252,77,175994,1,10,0:0:0:0:
339,35,176179,1,2,0:0:0:0:
423,209,176364,5,4,0:0:0:0:
381,122,176550,1,2,0:1:0:0:
468,80,176735,1,8,0:0:0:0:
510,167,176920,1,2,0:1:0:0:
396,168,177105,5,2,0:0:0:0:
421,95,177290,1,2,0:1:0:0:
494,120,177476,1,8,0:0:0:0:
469,193,177661,1,2,0:1:0:0:
381,122,177846,6,0,L|367:15,1,96.8000029541017,2|2,0:0|0:1,0:0:0:0:
256,128,178216,1,8,0:0:0:0:
143,26,178401,1,8,0:2:0:0:
167,22,178494,1,8,0:0:0:0:
190,26,178587,1,2,0:0:0:0:
131,122,178772,1,10,0:2:0:0:
131,122,178864,1,8,0:2:0:0:
131,122,178957,2,0,L|145:15,1,96.8000029541017,8|2,0:0|0:0,0:0:0:0:
256,233,179327,5,4,0:0:0:0:
256,128,179513,2,0,L|256:248,1,105.599996777344,2|8,3:1|0:0,0:0:0:0:
375,292,179883,6,0,P|393:243|380:192,1,105.599996777344,4|2,3:2|0:0,0:0:0:0:
137,292,180253,2,0,P|118:243|131:192,1,105.599996777344,2|8,3:1|0:0,0:0:0:0:
380,192,180624,6,0,L|497:180,1,105.599996777344,4|2,3:2|0:0,0:0:0:0:
130,193,180994,2,0,L|13:181,1,105.599996777344,2|8,3:1|0:0,0:0:0:0:
256,339,181364,2,0,L|256:233,1,105.599996777344,2|2,3:1|0:0,0:0:0:0:
335,55,181735,5,2,3:0:0:0:
380,192,181920,1,6,0:0:0:0:
465,239,182105,1,8,0:3:0:0:
335,55,182290,5,6,0:0:0:0:
380,192,182476,1,8,0:0:0:0:
421,217,182568,1,8,0:0:0:0:
465,239,182661,1,10,0:0:0:0:
335,55,182846,6,0,L|311:186,1,105.599996777344,8|2,0:3|0:0,0:0:0:0:
306,177,183124,1,8,0:3:0:0:
293,194,183216,2,0,P|244:175|184:176,1,105.599996777344,8|4,0:3|0:3,0:0:0:0:
20,334,183587,6,0,P|31:283|62:241,1,105.599996777344,12|2,0:0|0:0,0:0:0:0:
81,230,183864,1,8,0:3:0:0:
97,217,183957,2,0,L|112:90,1,105.599996777344,8|4,0:3|0:0,0:0:0:0:
228,65,184327,5,10,0:3:0:0:
265,75,184420,1,8,0:3:0:0:
305,71,184513,1,8,0:3:0:0:
340,54,184605,1,8,0:3:0:0:
366,25,184698,6,8,P|389:19|430:25,1,52.7999983886719,10|8,0:3|0:3,0:3:0:0:
483,60,184883,2,8,P|499:76|514:114,1,52.7999983886719,10|8,0:3|0:3,0:3:0:0:
510,178,185068,2,8,P|504:200|478:232,1,52.7999983886719,10|8,0:3|0:3,0:3:0:0:
404,139,185253,5,10,0:0:0:0:
404,139,185439,1,2,0:0:0:0:
368,308,185624,2,0,B|414:293|413:239|413:239|384:189|404:138,1,193.600005908203,4|2,0:0|0:0,0:0:0:0:
320,29,186179,5,2,0:0:0:0:
307,125,186364,1,8,0:0:0:0:
293,222,186550,1,2,0:1:0:0:
404,139,186735,5,2,0:0:0:0:
307,125,186920,1,2,0:0:0:0:
210,112,187105,1,8,0:0:0:0:
297,226,187290,5,2,0:2:0:0:
297,226,187383,2,0,L|293:293,1,48.4000014770508,8|2,0:0|0:0,0:0:0:0:
404,139,187661,1,2,0:0:0:0:
210,112,187846,2,0,L|103:103,1,96.8000029541017,8|8,0:0|0:0,0:0:0:0:
77,272,188216,5,2,0:0:0:0:
77,272,188401,1,8,0:0:0:0:
113,103,188587,2,0,B|67:118|68:172|68:172|97:222|77:273,1,193.600005908203,4|2,0:0|0:0,0:0:0:0:
163,382,189142,5,2,0:0:0:0:
174,284,189327,1,8,0:0:0:0:
186,187,189513,1,2,0:1:0:0:
271,296,189698,5,2,0:0:0:0:
174,284,189883,1,2,0:0:0:0:
77,272,190068,1,8,0:0:0:0:
194,194,190253,5,2,0:2:0:0:
194,194,190346,1,2,0:2:0:0:
194,194,190439,1,2,0:2:0:0:
279,303,190624,1,2,0:2:0:0:
279,303,190716,1,2,0:2:0:0:
279,303,190809,2,0,L|296:184,1,105.599996777344,2|0,0:0|0:0,0:0:0:0:
310,184,191087,1,8,0:0:0:0:
323,170,191179,5,4,0:0:0:0:
279,303,191364,2,0,L|155:291,1,105.599996777344,2|8,3:1|0:0,0:0:0:0:
11,121,191735,6,0,P|89:103|119:64,1,105.599996777344,4|2,3:2|0:0,0:0:0:0:
406,79,192105,2,0,P|325:78|287:46,1,105.599996777344,2|8,3:1|0:0,0:0:0:0:
84,191,192476,6,0,L|109:69,1,105.599996777344,4|2,3:2|0:0,0:0:0:0:
349,162,192846,2,0,L|298:48,1,105.599996777344,2|8,3:1|0:0,0:0:0:0:
227,274,193216,2,0,L|214:154,1,105.599996777344,2|2,3:1|0:0,0:0:0:0:
39,39,193587,5,2,3:1:0:0:
84,191,193772,1,6,2:2:0:0:
29,270,193957,1,8,3:3:0:0:
39,39,194142,5,6,0:0:0:0:
84,191,194327,1,8,0:0:0:0:
63,235,194420,1,8,0:0:0:0:
29,270,194513,1,10,0:0:0:0:
26,134,194698,6,0,P|72:111|124:117,1,105.599996777344,6|2,0:0|0:0,0:0:0:0:
140,131,194976,1,2,0:2:0:0:
154,146,195068,2,0,P|205:152|252:129,1,105.599996777344,8|2,0:0|0:0,0:0:0:0:
418,296,195439,6,0,L|428:191,1,105.599996777344,4|2,0:0|0:0,0:0:0:0:
94,296,195809,2,0,L|84:191,1,105.599996777344,8|8,0:3|0:3,0:0:0:0:
256,352,196179,5,8,0:0:0:0:
256,352,196272,1,8,0:0:0:0:
256,352,196364,1,2,0:1:0:0:
418,296,196550,5,8,0:0:0:0:
432,194,196735,1,8,0:0:0:0:
432,194,196920,1,10,0:0:0:0:
418,296,197105,6,0,P|375:255|304:247,1,123.199996240234,4|0,0:0|0:0,0:0:0:0:
235,171,197661,1,2,0:0:0:0:
140,236,197846,2,0,P|197:219|239:161,1,123.199996240234,8|0,0:0|0:0,0:0:0:0:
236,171,198587,6,0,L|229:104,1,61.5999981201172,2|0,0:0|0:0,0:0:0:0:
332,191,198957,2,0,L|339:124,1,61.5999981201172,0|2,0:0|0:0,0:0:0:0:
341,114,199235,1,2,0:0:0:0:
344,98,199327,5,8,0:0:0:0:
413,58,199513,1,2,0:0:0:0:
483,98,199698,1,2,0:0:0:0:
484,178,199883,1,0,0:0:0:0:
345,180,200068,5,12,0:0:0:0:
415,219,200439,1,2,0:0:0:0:
484,178,200809,1,10,0:0:0:0:
483,98,201179,5,10,0:0:0:0:
345,180,201364,2,0,L|334:274,1,74.8000014266968,4|2,0:0|0:0,0:0:0:0:
413,58,201735,5,8,0:3:0:0:
483,98,201920,1,6,0:0:0:0:
484,178,202105,1,8,0:0:0:0:
487,197,202198,1,8,0:0:0:0:
490,216,202290,1,2,0:2:0:0:
450,287,202476,5,2,0:0:0:0:
412,281,202568,1,2,0:0:0:0:
375,274,202661,2,0,L|292:262,1,70.4,4|0,0:0|0:0,0:0:0:0:
169,287,203031,5,8,0:0:0:0:
101,151,203216,6,0,B|84:89|130:26|130:26|192:72|195:135,1,264,4|0,0:0|0:0,0:0:0:0:
85,244,203587,6,0,B|21:241|-23:178|-23:178|39:132|99:150,1,264,4|0,0:0|0:0,0:0:0:0:
169,287,203957,6,0,B|147:346|73:370|73:370|48:297|85:243,1,264,4|0,0:0|0:0,0:0:0:0:
238,221,204327,6,0,B|288:259|288:336|288:336|211:340|169:286,1,264,6|0,0:0|0:0,0:0:0:0:
194,134,204698,6,0,B|246:98|321:124|321:124|297:198|238:221,1,264,12|0,0:0|0:0,0:0:0:0:
194,134,205068,6,0,P|161:89|169:26,1,123.199996240234,6|0,0:0|0:0,0:0:0:0:
84,243,205439,1,6,0:0:0:0:
36,30,205624,1,2,0:1:0:0:
476,354,205994,5,2,0:2:0:0:
256,192,206087,12,2,208587,0:0:0:0:
112,313,208957,6,0,P|71:296|46:260,1,88,4|0,0:0|0:0,0:0:0:0:
219,196,209327,1,8,0:0:0:0:
219,196,209513,2,0,P|223:239|207:279,1,88,2|0,0:1|0:0,0:0:0:0:
64,158,209883,1,0,0:0:0:0:
64,158,210068,2,0,P|99:132|141:126,1,88,8|2,0:0|0:1,0:0:0:0:
285,248,210439,6,0,P|244:230|219:196,1,88,2|0,0:0|0:0,0:0:0:0:
253,12,210809,2,0,P|257:55|241:95,1,88,8|0,0:0|0:0,0:0:0:0:
142,126,211179,5,2,0:0:0:0:
240,95,211364,1,2,0:1:0:0:
342,102,211550,1,8,0:0:0:0:
433,146,211735,1,0,0:0:0:0:
338,187,211920,6,0,P|331:146|351:84,1,88,6|0,0:0|0:0,0:0:0:0:
429,231,212290,1,8,0:0:0:0:
429,231,212476,2,0,P|439:188|432:145,1,88,2|0,0:1|0:0,0:0:0:0:
334,272,212846,1,0,0:0:0:0:
334,272,213031,2,0,P|327:228|337:186,1,88,8|2,0:0|0:1,0:0:0:0:
432,145,213401,5,2,0:0:0:0:
336,186,213587,1,0,0:0:0:0:
233,174,213772,1,8,0:0:0:0:
149,112,213957,1,2,0:1:0:0:
76,298,214142,5,2,0:0:0:0:
88,195,214327,1,8,0:0:0:0:
149,112,214513,1,2,0:0:0:0:
246,70,214698,1,8,0:0:0:0:
432,145,214883,6,0,L|444:41,1,88,4|0,0:0|0:0,0:0:0:0:
336,186,215253,1,8,0:0:0:0:
325,273,215439,2,0,L|336:186,1,88,2|0,0:1|0:0,0:0:0:0:
233,174,215809,1,0,0:0:0:0:
149,112,215994,1,8,0:0:0:0:
107,16,216179,1,2,0:1:0:0:
19,10,216364,6,0,L|109:16,1,88,8|2,0:0|0:1,0:0:0:0:
141,58,216642,1,8,0:0:0:0:
149,112,216735,1,2,0:0:0:0:
61,176,216920,6,8,P|83:176|122:190,1,44,8|8,0:3|0:3,0:3:0:0:
149,112,217105,2,8,P|168:125|192:158,1,44,12|8,0:3|0:3,0:3:0:0:
258,109,217290,2,8,P|267:130|268:171,1,44,8|8,0:3|0:3,0:3:0:0:
336,194,217476,5,4,0:0:0:0:
327,282,217846,6,0,L|336:194,1,88,12|2,0:0|0:0,0:0:0:0:
104,181,218216,5,2,0:0:0:0:
94,268,218401,2,0,L|104:175,1,88,12|2,0:0|0:0,0:0:0:0:
346,107,218772,5,2,0:0:0:0:
336,194,218957,2,0,L|346:101,1,88,12|2,0:0|0:0,0:0:0:0:
345,84,219235,1,2,0:0:0:0:
343,62,219327,1,2,0:0:0:0:
166,27,219513,5,12,0:0:0:0:
255,45,219698,1,2,0:0:0:0:
343,62,219883,1,0,0:0:0:0:
77,9,220068,5,8,0:0:0:0:
116,184,220253,1,10,0:0:0:0:
356,255,220439,1,10,0:0:0:0:
494,25,220624,1,12,0:0:0:0:
