osu file format v14

[General]
AudioFilename: audio.mp3
AudioLeadIn: 0
PreviewTime: 160809
Countdown: 0
SampleSet: Soft
StackLeniency: 0.7
Mode: 0
LetterboxInBreaks: 0
WidescreenStoryboard: 1

[Editor]
Bookmarks: 111179,220620
DistanceSpacing: 1.2
BeatDivisor: 2
GridSize: 32
TimelineZoom: 1.4

[Metadata]
Title:Senpai.
TitleUnicode:センパイ。
Artist:sana
ArtistUnicode:鎖那
Creator:Kyuukai
Version:Kyuumi's Easy
Source:好きになるその瞬間を。~告白実行委員会~
Tags:The Moment You Fall in Love suki ni naru sono shunkan wo kokuhaku jikkou iinkai opening honeyworks meets trysail litoluna yaleufeu umi lasse
BeatmapID:1384673
BeatmapSetID:637706

[Difficulty]
HPDrainRate:2
CircleSize:2.3
OverallDifficulty:2
ApproachRate:3
SliderMultiplier:0.9
SliderTickRate:1

[Events]
//Background and Video events
Video,207,"Senpai.avi"
0,0,"bg.jpg",0,0
//Break Periods
2,99527,109739
2,146935,155480
//Storyboard Layer 0 (Background)
//Storyboard Layer 1 (Fail)
//Storyboard Layer 2 (Pass)
//Storyboard Layer 3 (Foreground)
//Storyboard Sound Samples

[TimingPoints]
806,370.37037037037,4,2,5,60,1,0
9972,-100,4,2,22,5,0,0
10065,-100,4,2,5,60,0,0
10343,-100,4,2,22,5,0,0
10435,-100,4,2,5,60,0,0
10991,-100,4,2,5,60,0,0
11546,-100,4,2,5,60,0,0
11917,-100,4,2,5,60,0,0
12472,-100,4,2,5,60,0,0
13402,370.37037037037,4,2,4,70,1,0
13772,-100,4,2,4,70,0,0
13957,-100,4,2,4,70,0,0
15253,-100,4,2,4,70,0,0
15439,-100,4,2,4,70,0,0
16735,-100,4,2,4,70,0,0
16920,-100,4,2,4,70,0,0
18216,-100,4,2,4,70,0,0
18401,-100,4,2,4,70,0,0
19698,-100,4,2,4,70,0,0
19883,-100,4,2,4,70,0,0
21364,-100,4,2,4,70,0,0
21920,-100,4,2,4,70,0,0
25253,-100,4,2,4,60,0,0
28124,-100,4,2,4,5,0,0
28216,-100,4,2,4,60,0,0
35439,-100,4,2,4,65,0,0
37105,-100,4,2,4,70,0,0
37383,-100,4,2,22,5,0,0
37476,-100,4,2,4,70,0,0
37661,-100,4,2,4,70,0,0
39976,-100,4,2,4,5,0,0
40068,-100,4,2,4,70,0,0
40346,-100,4,2,22,5,0,0
40439,-100,4,2,4,70,0,0
40624,-100,4,2,4,70,0,0
41920,-100,4,2,4,70,0,0
42105,-100,4,2,4,70,0,0
42939,-100,4,2,22,5,0,0
43031,-100,4,2,4,70,0,0
44883,-100,4,2,4,70,0,0
45068,-100,4,2,4,70,0,0
45901,-100,4,2,4,5,0,0
45994,-100,4,2,4,70,0,0
46364,-100,4,2,4,70,0,0
46550,-100,4,2,4,70,0,0
48957,-100,4,2,4,65,0,0
54883,-100,4,2,4,70,0,0
55994,-100,4,2,4,70,0,0
56179,-100,4,2,4,70,0,0
58957,-100,4,2,4,70,0,0
59142,-100,4,2,4,70,0,0
60808,-100,4,2,4,60,0,0
65068,-100,4,2,4,70,0,0
65346,-100,4,2,22,5,0,0
65439,-100,4,2,4,70,0,0
66735,-100,4,2,4,80,0,1
68587,-100,4,2,4,80,0,1
68772,-100,4,2,4,80,0,1
71550,-100,4,2,4,80,0,1
71735,-100,4,2,4,80,0,1
75253,-100,4,2,4,80,0,1
75624,-100,4,2,4,80,0,1
75809,-100,4,2,4,80,0,1
76920,-100,4,2,4,80,0,1
78031,-100,4,2,4,80,0,1
78587,-100,4,2,4,80,0,1
80439,-100,4,2,4,80,0,1
80624,-100,4,2,4,80,0,1
83401,-100,4,2,4,80,0,1
83587,-100,4,2,4,80,0,1
88772,-100,4,2,4,85,0,1
90439,-100,4,2,4,70,0,0
94698,-100,4,2,4,80,0,0
96827,-100,4,2,22,5,0,0
96920,-100,4,2,4,80,0,0
97198,-100,4,2,22,5,0,0
97290,-100,4,2,4,80,0,0
97568,-100,4,2,22,5,0,0
97661,-100,4,2,4,80,0,0
97939,-100,4,2,22,5,0,0
98031,-100,4,2,4,80,0,0
98309,-100,4,2,22,5,0,0
98401,-100,4,2,4,80,0,0
99327,-100,4,2,4,70,0,0
111179,-100,4,2,22,40,0,0
113401,-100,4,2,22,30,0,0
116364,-100,4,2,22,30,0,0
119327,-100,4,2,22,30,0,0
120068,-100,4,2,4,65,0,0
121179,-100,4,2,4,65,0,0
121550,-100,4,2,4,70,0,0
122290,-100,4,2,4,75,0,0
122661,-100,4,2,4,75,0,0
123031,-100,4,2,4,80,0,1
123401,-100,4,2,4,80,0,1
123587,-100,4,2,4,80,0,1
124883,-100,4,2,4,80,0,1
125068,-100,4,2,4,80,0,1
126364,-100,4,2,4,80,0,1
126550,-100,4,2,4,80,0,1
129327,-100,4,2,4,80,0,1
129513,-100,4,2,4,80,0,1
132290,-100,4,2,4,70,0,1
132476,-100,4,2,4,70,0,1
132661,-100,4,2,4,60,0,1
133031,-100,4,2,4,50,0,1
133401,-100,4,2,4,80,0,1
133772,-100,4,2,4,80,0,1
133957,-100,4,2,4,80,0,1
136735,-100,4,2,4,80,0,1
136920,-100,4,2,4,80,0,1
138216,-100,4,2,4,80,0,1
138401,-100,4,2,4,80,0,1
138957,-100,4,2,4,80,0,1
139142,-100,4,2,4,80,0,1
141179,-100,4,2,4,80,0,1
141364,-100,4,2,4,80,0,1
141920,-100,4,2,4,80,0,1
142105,-100,4,2,4,80,0,1
145994,-100,4,2,4,85,0,1
146735,-100,4,2,4,60,0,0
155531,-100,4,2,4,5,0,0
155624,-100,4,2,4,65,0,0
156920,-100,4,2,4,70,0,0
157198,-100,4,2,22,5,0,0
157290,-100,4,2,4,70,0,0
158401,-100,4,2,4,75,0,0
158957,-100,4,2,4,75,0,0
159327,-100,4,2,4,75,0,0
159513,-100,4,2,4,80,0,0
159698,-100,4,2,4,80,0,0
160994,-100,4,2,22,30,0,0
161179,-100,4,2,22,40,0,0
161364,-100,4,2,22,30,0,0
161550,-100,4,2,4,80,0,1
163401,-100,4,2,4,80,0,1
163587,-100,4,2,4,80,0,1
166364,-100,4,2,4,80,0,1
166550,-100,4,2,4,80,0,1
170624,-100,4,2,4,80,0,1
171735,-100,4,2,4,85,0,1
172846,-100,4,2,4,85,0,1
173401,-100,4,2,4,85,0,1
173679,-100,4,2,22,5,0,1
173772,-100,4,2,4,85,0,1
173957,-100,4,2,4,80,0,1
175253,-100,4,2,4,80,0,1
175439,-100,4,2,4,80,0,1
178216,-100,4,2,4,80,0,1
178401,-100,4,2,4,80,0,1
179327,-100,4,2,4,80,0,1
183587,-100,4,2,4,85,0,1
184327,-100,4,2,4,85,0,1
185253,-100,4,2,4,85,0,1
186179,-100,4,2,4,80,0,1
187105,-100,4,2,4,80,0,1
187290,-100,4,2,4,80,0,1
188216,-100,4,2,4,85,0,1
189142,-100,4,2,4,80,0,1
190068,-100,4,2,4,80,0,1
190253,-100,4,2,4,80,0,1
195439,-100,4,2,4,85,0,1
195994,-100,4,2,4,85,0,1
196364,-100,4,2,4,85,0,1
196735,-100,4,2,4,85,0,1
197105,-100,4,2,4,70,0,0
200068,-100,4,2,4,75,0,0
202939,-100,4,2,4,5,0,0
203031,-100,4,2,4,75,0,0
203216,-100,4,2,4,80,0,0
203494,-100,4,2,22,5,0,0
203587,-100,4,2,4,80,0,0
203864,-100,4,2,22,5,0,0
203957,-100,4,2,4,80,0,0
204235,-100,4,2,22,5,0,0
204327,-100,4,2,4,80,0,0
204605,-100,4,2,22,5,0,0
204698,-100,4,2,4,80,0,0
204976,-100,4,2,22,5,0,0
205068,-100,4,2,4,80,0,0
205439,-100,4,2,4,80,0,0
205901,-100,4,2,4,5,0,0
205994,-100,4,2,22,30,0,0
206364,-100,4,2,4,20,0,0
206735,-100,4,2,4,30,0,0
207105,-100,4,2,4,40,0,0
207476,-100,4,2,4,50,0,0
207846,-100,4,2,4,60,0,0
208216,-100,4,2,22,40,0,0
208957,-100,4,2,4,80,0,0
209327,-100,4,2,4,80,0,0
209513,-100,4,2,4,80,0,0
210809,-100,4,2,4,80,0,0
210994,-100,4,2,4,80,0,0
212290,-100,4,2,4,80,0,0
212476,-100,4,2,4,80,0,0
213772,-100,4,2,4,80,0,0
213957,-100,4,2,4,80,0,0
215253,-100,4,2,4,80,0,0
215439,-100,4,2,4,80,0,0
216735,-100,4,2,4,80,0,0
216920,-100,4,2,4,80,0,0
220068,-100,4,2,4,85,0,0

[Colours]
Combo1 : 230,60,100
Combo2 : 130,190,100
Combo3 : 240,170,60
Combo4 : 80,170,220

[HitObjects]
132,164,806,6,0,P|172:147|236:144,1,90,2|0,0:0|0:0,0:0:0:0:
324,158,1546,2,0,L|343:308,2,135,2|2|2,0:0|0:0|0:0,0:0:0:0:
384,68,3028,1,2,0:0:0:0:
179,137,3768,6,0,L|87:131,1,90,2|0,0:0|0:0,0:0:0:0:
57,234,4509,2,0,L|191:241,2,135,2|2|0,0:0|0:0|0:0,0:0:0:0:
91,336,5991,1,2,0:0:0:0:
298,276,6731,6,0,P|302:232|289:190,1,90,2|0,0:0|0:0,0:0:0:0:
191,141,7472,2,0,P|254:85|333:92,2,135,2|2|2,0:0|0:0|0:0,0:0:0:0:
178,248,8954,1,2,0:0:0:0:
384,303,9694,6,0,L|398:205,2,90,2|2|2,0:0|0:0|0:0,0:0:0:0:
248,212,10991,2,0,P|180:208|113:212,1,135,4|0,0:0|1:0,0:0:0:0:
111,103,11917,2,0,P|178:99|245:102,1,135,0|0,1:0|1:0,0:0:0:0:
404,321,13402,6,0,L|455:190,2,135,4|2|8,0:0|0:1|0:0,0:0:0:0:
318,255,14883,2,0,P|270:237|144:272,1,180,2|2,0:0|0:0,0:0:0:0:
71,342,15994,1,8,0:0:0:0:
18,247,16364,6,0,P|5:164|-2:102,2,135,6|2|8,0:0|0:1|0:0,0:0:0:0:
113,196,17846,2,0,B|171:187|171:187|233:206|233:206|304:194,1,180,2|2,0:0|0:0,0:0:0:0:
350,107,18957,1,8,0:0:0:0:
457,109,19327,6,0,P|438:176|377:212,2,135,4|2|8,0:0|0:1|0:0,0:0:0:0:
407,12,20809,2,0,L|508:5,2,90,2|8|8,0:0|0:0|0:3,0:0:0:0:
299,22,21920,1,4,0:0:0:0:
244,115,22290,6,0,P|231:240|232:283,2,135,12|12|12,0:0|0:0|0:0,0:0:0:0:
398,163,23957,2,0,P|411:288|410:331,1,135,12|4,0:0|0:0,0:0:0:0:
311,340,24883,1,8,0:0:0:0:
243,255,25253,6,0,B|163:244|122:288|122:288|58:258,1,180,6|2,0:0|0:0,0:0:0:0:
21,174,26364,1,2,0:0:0:0:
59,72,26735,2,0,P|106:60|168:64,1,90,2|2,0:0|0:0,0:0:0:0:
243,111,27476,2,0,P|286:122|331:122,1,90,2|2,0:0|0:0,0:0:0:0:
395,34,28216,6,0,P|435:84|407:198,1,180,2|2,0:0|0:0,0:0:0:0:
338,269,29327,1,2,0:0:0:0:
245,212,29698,2,0,B|201:197|158:210|158:210|98:226|49:206,1,180,2|2,0:0|0:0,0:0:0:0:
186,31,31179,6,0,P|219:57|255:96,1,90,2|2,0:0|0:0,0:0:0:0:
359,92,31920,2,0,P|373:140|377:183,1,90,2|2,0:0|0:0,0:0:0:0:
383,287,32661,2,0,P|328:279|205:269,1,180,2|2,0:0|0:0,0:0:0:0:
52,114,34142,6,0,P|115:113|210:108,1,135,2|0,0:0|0:0,0:0:0:0:
272,43,35068,1,0,0:0:0:0:
361,104,35439,2,0,P|368:158|376:246,1,135,12|8,0:0|0:0,0:0:0:0:
350,343,36364,1,12,0:0:0:0:
135,320,37105,6,0,P|141:274|252:214,1,180,6|2,0:0|0:0,0:0:0:0:
339,270,38216,1,8,0:0:0:0:
415,193,38587,2,0,L|396:96,1,90,2|8,0:0|0:0,0:0:0:0:
300,57,39327,2,0,L|282:145,1,90,2|8,0:0|0:0,0:0:0:0:
272,252,40068,6,0,B|192:243|176:171|176:171|122:179,1,180,2|2,0:0|0:0,0:0:0:0:
25,193,41179,1,8,0:0:0:0:
69,94,41550,2,0,L|265:62,1,180,2|2,0:0|0:0,0:0:0:0:
353,49,42661,1,8,0:0:0:0:
429,125,43031,6,0,P|424:188|417:225,1,90,2|8,0:0|0:0,0:0:0:0:
371,311,43772,2,0,P|326:303|272:300,1,90,2|8,0:0|0:0,0:0:0:0:
175,320,44513,2,0,B|208:208|208:208|180:141,1,180,2|2,0:0|0:0,0:0:0:0:
121,60,45624,1,8,0:0:0:0:
227,41,45994,6,0,P|314:63|386:86,1,135,2|0,0:0|0:0,0:0:0:0:
439,146,46920,1,2,0:0:0:0:
465,250,47290,2,0,P|393:243|346:197,1,135,4|4,0:0|0:0,0:0:0:0:
315,99,48216,1,2,0:0:0:0:
117,187,48957,6,0,P|107:233|103:285,1,90,4|2,0:0|0:0,0:0:0:0:
191,337,49698,2,0,L|325:329,2,135,2|0|2,0:0|0:0|0:0,0:0:0:0:
92,291,51179,1,2,0:0:0:0:
160,206,51550,1,4,0:0:0:0:
112,108,51920,6,0,P|151:97|203:106,1,90,6|2,0:0|0:0,0:0:0:0:
268,188,52661,2,0,P|316:127|348:70,2,135,2|12|8,0:0|0:0|0:0,0:0:0:0:
170,233,54142,1,4,0:0:0:0:
220,328,54513,1,8,0:3:0:0:
318,282,54883,6,0,P|362:236|387:201,1,90,4|2,0:0|0:0,0:0:0:0:
362,107,55624,2,0,P|440:124|475:178,2,135,4|2|8,0:3|0:0|0:0,0:0:0:0:
264,156,57105,1,4,0:3:0:0:
188,84,57476,1,12,0:0:0:0:
80,97,57846,6,0,L|71:195,1,90,4|8,0:0|0:0,0:0:0:0:
133,275,58587,2,0,P|98:272|-4:313,2,135,4|4|8,0:3|0:0|0:0,0:0:0:0:
218,340,60068,1,8,0:0:0:0:
296,265,60439,1,4,0:3:0:0:
403,263,60809,6,0,P|425:203|413:61,1,180,6|2,0:0|0:0,0:0:0:0:
213,31,62290,1,2,0:0:0:0:
128,229,63031,1,2,0:0:0:0:
256,192,63772,12,4,65068,0:0:0:0:
66,125,66735,6,0,P|114:101|166:81,1,90,4|8,0:0|0:0,0:0:0:0:
255,86,67476,2,0,P|296:103|336:123,1,90,2|8,0:2|0:0,0:0:0:0:
331,232,68216,2,0,P|395:215|438:164,2,135,2|2|8,0:0|0:1|0:0,0:0:0:0:
231,275,69698,6,0,L|216:363,2,90,2|8|2,0:0|0:0|0:0,0:0:0:0:
202,170,70809,1,8,0:0:0:0:
248,71,71179,2,0,P|341:93|371:131,2,135,2|2|8,0:0|0:1|0:0,0:0:0:0:
154,125,72661,6,0,L|142:265,1,135,6|4,0:0|3:2,0:0:0:0:
245,292,73587,2,0,L|255:188,2,90,2|4|2,3:1|3:2|3:1,0:0:0:0:
347,326,74698,2,0,P|396:264|400:177,1,135,2|10,3:1|0:0,0:0:0:0:
351,116,75624,6,0,P|288:117|199:125,1,135,12|4,0:0|0:0,0:0:0:0:
116,165,76550,2,0,L|70:79,2,90,12|4|8,0:0|0:0|0:0,0:0:0:0:
131,272,77661,2,0,P|179:254|223:178,1,135,10|8,0:2|0:3,0:0:0:0:
284,97,78587,6,0,L|394:104,2,90,4|4|2,0:0|0:0|0:0,0:0:0:0:
190,44,79698,1,8,0:0:0:0:
96,96,80068,2,0,P|106:144|160:280,1,180,2|2,0:0|0:0,0:0:0:0:
253,303,81179,1,8,0:0:0:0:
227,197,81550,6,0,P|211:154|200:111,2,90,6|12|2,0:0|0:0|0:0,0:0:0:0:
279,293,82661,1,8,0:0:0:0:
385,274,83031,2,0,P|418:242|440:108,1,180,2|6,0:0|0:0,0:0:0:0:
359,44,84142,1,6,0:0:0:0:
250,44,84513,6,0,B|204:71|204:71|159:147,1,135,4|4,0:0|3:2,0:0:0:0:
129,244,85439,2,0,P|97:230|56:186,2,90,2|4|2,3:1|3:2|3:1,0:0:0:0:
234,266,86550,2,0,P|276:245|374:225,1,135,2|6,3:1|2:2,0:0:0:0:
426,139,87476,6,0,P|359:126|298:98,1,135,6|8,0:0|0:3,0:0:0:0:
202,49,88401,2,0,L|192:143,2,90,4|12|12,0:3|0:0|0:0,0:0:0:0:
98,81,89513,2,0,L|81:236,1,135,2|4,0:2|0:3,0:0:0:0:
150,300,90439,6,0,P|237:283|314:207,1,180,4|2,0:0|0:1,0:0:0:0:
278,118,91550,1,0,0:0:0:0:
186,174,91920,2,0,B|139:196|87:183|87:183|35:166|9:179,1,180,2|2,0:0|0:1,0:0:0:0:
172,323,93401,6,0,P|214:309|256:292,1,90,4|2,0:0|0:0,0:0:0:0:
309,197,94142,2,0,P|373:217|436:242,2,135,2|4|2,0:0|0:0|0:0,0:0:0:0:
203,179,95624,1,8,0:0:0:0:
356,26,96364,6,0,P|397:80|424:142,1,135,12|12,0:0|0:0,0:0:0:0:
417,250,97290,1,12,0:0:0:0:
311,273,97661,2,0,B|190:250|190:250|117:272,1,180,4|6,0:0|0:2,0:0:0:0:
255,24,99327,1,4,0:0:0:0:
471,83,111179,5,4,0:1:0:0:
259,129,111920,2,0,L|89:119,2,135,0|0|0,0:0|0:0|0:0,0:0:0:0:
346,191,113401,1,8,0:0:0:0:
188,338,114142,5,2,0:0:0:0:
64,160,114883,2,0,L|102:30,2,135,0|0|0,0:0|0:0|0:0,0:0:0:0:
56,267,116364,1,8,0:0:0:0:
279,355,117105,5,2,0:0:0:0:
438,209,117846,2,0,P|479:316|467:348,2,135,0|0|0,0:0|0:0|0:0,0:0:0:0:
331,195,119327,1,8,0:0:0:0:
117,164,120068,6,0,P|136:99|105:22,2,135,2|2|2,0:1|0:1|0:0,0:0:0:0:
49,248,121550,2,0,P|134:271|219:207,1,180,2|4,0:0|0:0,0:0:0:0:
255,128,122661,1,8,0:0:0:0:
328,207,123031,6,0,B|401:243|401:243|519:227,1,180,6|2,0:0|0:0,0:0:0:0:
469,125,124142,1,8,0:0:0:0:
362,103,124513,2,0,P|293:96|231:114,2,135,2|2|8,0:0|0:1|0:0,0:0:0:0:
394,205,125994,6,0,P|306:226|217:223,1,180,4|2,0:0|0:0,0:0:0:0:
126,164,127105,1,0,0:0:0:0:
33,219,127476,2,0,P|31:265|41:313,1,90,2|2,0:0|0:0,0:0:0:0:
127,369,128216,2,0,P|173:371|221:361,1,90,2|8,0:0|0:0,0:0:0:0:
270,268,128957,6,0,L|404:254,1,135,4|2,0:0|0:1,0:0:0:0:
485,182,129883,2,0,P|508:220|512:264,2,90,2|2|2,0:1|0:1|0:1,0:0:0:0:
393,123,130994,2,0,L|259:137,1,135,2|2,0:1|0:0,0:0:0:0:
176,66,131920,6,0,P|150:133|206:231,1,180,4|2,0:2|0:1,0:0:0:0:
291,276,133031,1,2,0:1:0:0:
366,198,133401,2,0,L|510:213,2,135,2|8|8,0:1|0:2|0:3,0:0:0:0:
330,95,134883,6,0,P|285:87|240:83,1,90,10|4,0:0|0:0,0:0:0:0:
144,31,135624,2,0,P|132:73|137:118,1,90,2|8,0:0|0:0,0:0:0:0:
60,194,136364,2,0,P|123:226|221:189,1,180,2|2,0:0|0:0,0:0:0:0:
240,83,137476,1,8,0:0:0:0:
322,152,137846,6,0,B|355:129|408:150|408:150|462:170|513:136,2,180,4|2|6,0:0|0:0|0:0,0:0:0:0:
220,189,139698,2,0,P|171:192|117:185,1,90,8|2,0:0|0:0,0:0:0:0:
37,131,140439,1,2,0:0:0:0:
111,52,140809,6,0,P|189:38|292:55,2,180,4|2|8,0:0|0:0|0:0,0:0:0:0:
37,131,142661,2,0,P|28:172|34:227,1,90,2|8,0:0|0:3,0:0:0:0:
86,312,143401,1,12,0:0:0:0:
183,266,143772,6,0,P|250:277|346:237,1,135,12|12,0:0|0:0,0:0:0:0:
459,187,144883,2,0,L|444:343,2,135,12|12|12,0:0|0:0|0:0,0:0:0:0:
416,87,146364,1,10,0:0:0:0:
354,175,146735,5,4,0:0:0:0:
467,46,156920,6,0,L|452:194,1,135,6|2,0:0|0:0,0:0:0:0:
348,207,157846,2,0,B|320:199|285:209|285:209|246:220|207:204,2,135,2|8|10,0:0|0:0|0:0,0:0:0:0:
407,297,159327,2,0,P|450:245|452:176,1,135,8|8,0:0|0:0,0:0:0:0:
348,41,161550,6,0,L|241:40,1,90,6|8,0:0|0:0,0:0:0:0:
203,133,162290,2,0,L|113:133,1,90,2|8,0:0|0:0,0:0:0:0:
15,180,163031,2,0,P|12:98|51:47,2,135,2|2|8,0:0|0:1|0:0,0:0:0:0:
103,242,164513,6,0,P|153:234|212:245,1,90,6|8,0:0|0:0,0:0:0:0:
274,308,165253,2,0,P|318:315|362:311,1,90,2|8,0:0|0:0,0:0:0:0:
452,250,165994,2,0,P|471:322|444:385,2,135,2|2|8,0:0|0:1|0:0,0:0:0:0:
381,167,167476,6,0,L|216:165,1,135,6|4,0:0|3:2,0:0:0:0:
161,232,168401,2,0,L|180:333,2,90,2|4|2,3:1|3:2|3:1,0:0:0:0:
63,184,169513,2,0,L|78:27,1,135,2|8,3:1|0:0,0:0:0:0:
182,34,170439,6,0,P|248:47|315:36,1,135,6|4,0:0|0:0,0:0:0:0:
407,89,171364,2,0,P|421:38|415:-1,2,90,12|12|8,0:0|0:0|0:0,0:0:0:0:
339,173,172476,2,0,P|274:161|207:172,1,135,10|8,0:2|0:3,0:0:0:0:
118,232,173401,6,0,L|125:325,1,90,4|8,0:0|0:0,0:0:0:0:
226,359,174142,2,0,P|275:367|341:350,1,90,2|8,0:0|0:0,0:0:0:0:
390,284,174883,2,0,P|425:339|501:359,2,135,2|2|10,0:0|0:0|0:0,0:0:0:0:
322,199,176364,6,0,L|215:186,2,90,4|8|2,0:0|0:0|0:0,0:0:0:0:
429,181,177476,1,8,0:0:0:0:
412,74,177846,2,0,L|224:86,1,180,2|2,0:0|0:0,0:0:0:0:
137,137,178957,1,8,0:0:0:0:
40,186,179327,6,0,L|62:319,1,135,4|4,0:0|3:2,0:0:0:0:
170,321,180253,2,0,L|155:233,2,90,2|4|2,3:1|3:2|3:1,0:0:0:0:
266,369,181364,2,0,P|335:372|435:364,1,135,2|6,3:1|0:0,0:0:0:0:
476,291,182290,6,0,P|463:221|483:137,1,135,6|8,0:0|0:3,0:0:0:0:
404,76,183216,1,8,0:3:0:0:
311,132,183587,2,0,P|243:117|160:123,2,135,12|4|10,0:0|0:0|0:3,0:0:0:0:
260,285,185253,6,0,P|197:284|152:268,2,90,10|4|2,0:0|0:0|0:0,0:0:0:0:
354,232,186364,1,8,0:0:0:0:
311,132,186735,2,0,P|243:117|160:123,2,135,2|2|8,0:0|0:2|0:0,0:0:0:0:
354,232,188216,6,0,P|401:237|467:227,1,90,2|4,0:0|0:0,0:0:0:0:
508,146,188957,2,0,L|499:40,1,90,2|8,0:0|0:0,0:0:0:0:
396,24,189698,2,0,P|289:43|201:31,1,180,2|2,0:0|0:2,0:0:0:0:
111,18,190809,1,2,0:0:0:0:
50,107,191179,6,0,P|75:162|86:247,1,135,4|4,0:0|3:2,0:0:0:0:
133,332,192105,2,0,P|80:340|42:334,2,90,2|4|2,3:1|3:2|3:1,0:0:0:0:
194,243,193216,2,0,P|254:237|344:250,1,135,2|6,3:1|2:2,0:0:0:0:
414,310,194142,6,0,P|434:246|415:183,1,135,6|6,0:0|0:0,0:0:0:0:
342,102,195068,1,8,0:0:0:0:
250,160,195439,2,0,P|178:152|85:169,1,135,4|8,0:0|0:3,0:0:0:0:
45,240,196364,2,0,L|58:338,1,90,2|8,0:1|0:0,0:0:0:0:
157,369,197105,6,0,P|225:352|358:362,1,180,4|8,0:0|0:0,0:0:0:0:
391,263,198216,1,0,0:0:0:0:
327,175,198587,2,0,P|259:192|126:182,1,180,2|8,0:0|0:0,0:0:0:0:
6,26,200068,6,0,P|56:20|114:22,1,90,12|2,0:0|0:0,0:0:0:0:
176,92,200809,2,0,P|189:151|161:235,2,135,10|4|6,0:0|0:0|0:0,0:0:0:0:
254,18,202290,2,0,P|298:17|343:23,1,90,2|4,0:2|0:0,0:0:0:0:
433,84,203031,6,0,P|420:143|448:227,1,135,8|4,0:0|0:0,0:0:0:0:
500,302,203957,1,4,0:0:0:0:
392,312,204327,2,0,P|337:313|281:293,2,90,6|12|6,0:0|0:0|0:0,0:0:0:0:
439,213,205439,1,6,0:0:0:0:
256,192,205994,12,0,207476,0:0:0:0:
48,211,208957,6,0,L|25:370,2,135,4|2|8,0:0|0:1|0:0,0:0:0:0:
136,148,210439,2,0,P|227:144|330:165,1,180,2|2,0:0|0:0,0:0:0:0:
398,228,211550,1,8,0:0:0:0:
485,164,211920,6,0,P|504:226|470:308,2,135,6|2|8,0:0|0:1|0:0,0:0:0:0:
411,85,213401,2,0,P|322:69|232:73,1,180,2|2,0:0|0:0,0:0:0:0:
149,142,214513,1,2,0:0:0:0:
200,235,214883,6,0,P|134:245|74:216,2,135,4|2|8,0:0|0:1|0:0,0:0:0:0:
261,147,216364,2,0,P|306:220|278:310,1,180,8|12,0:0|0:3,0:0:0:0:
180,343,217476,1,4,0:0:0:0:
83,294,217846,6,0,L|70:140,2,135,12|12|12,0:0|0:0|0:0,0:0:0:0:
225,216,219513,2,0,L|238:62,2,135,12|8|12,0:0|0:0|0:0,0:0:0:0:
