osu file format v14

[General]
AudioFilename: audio.mp3
AudioLeadIn: 0
PreviewTime: 160809
Countdown: 0
SampleSet: Soft
StackLeniency: 0.7
Mode: 0
LetterboxInBreaks: 0
WidescreenStoryboard: 1

[Editor]
Bookmarks: 25249,66731,90439,99327,123027,146731,197105,205994,208957,220620
DistanceSpacing: 1.1
BeatDivisor: 4
GridSize: 32
TimelineZoom: 1.3

[Metadata]
Title:Senpai.
TitleUnicode:センパイ。
Artist:sana
ArtistUnicode:鎖那
Creator:Kyuukai
Version:Advanced
Source:好きになるその瞬間を。~告白実行委員会~
Tags:The Moment You Fall in Love suki ni naru sono shunkan wo kokuhaku jikkou iinkai opening honeyworks meets trysail litoluna yaleufeu umi lasse
BeatmapID:1384672
BeatmapSetID:637706

[Difficulty]
HPDrainRate:4.5
CircleSize:3.5
OverallDifficulty:5
ApproachRate:6.5
SliderMultiplier:1.3
SliderTickRate:1

[Events]
//Background and Video events
Video,207,"Senpai.avi"
0,0,"bg.jpg",0,0
//Break Periods
2,99527,110204
//Storyboard Layer 0 (Background)
//Storyboard Layer 1 (Fail)
//Storyboard Layer 2 (Pass)
//Storyboard Layer 3 (Foreground)
//Storyboard Sound Samples

[TimingPoints]
806,370.37037037037,4,2,5,60,1,0
9972,-100,4,2,22,5,0,0
10065,-100,4,2,5,60,0,0
10343,-100,4,2,22,5,0,0
10435,-100,4,2,5,60,0,0
10991,-100,4,2,5,60,0,0
11546,-100,4,2,5,60,0,0
11917,-100,4,2,5,60,0,0
12472,-100,4,2,5,60,0,0
13402,370.37037037037,4,2,4,70,1,0
13772,-100,4,2,4,70,0,0
13957,-100,4,2,4,70,0,0
15253,-100,4,2,4,70,0,0
15439,-100,4,2,4,70,0,0
16735,-100,4,2,4,70,0,0
16920,-100,4,2,4,70,0,0
18216,-100,4,2,4,70,0,0
18401,-100,4,2,4,70,0,0
19698,-100,4,2,4,70,0,0
19883,-100,4,2,4,70,0,0
21364,-100,4,2,4,70,0,0
21920,-100,4,2,4,70,0,0
25253,-100,4,2,4,60,0,0
28124,-100,4,2,4,5,0,0
28216,-100,4,2,4,60,0,0
35439,-100,4,2,4,65,0,0
37105,-100,4,2,4,70,0,0
37383,-100,4,2,22,5,0,0
37476,-100,4,2,4,70,0,0
37661,-100,4,2,4,70,0,0
39976,-100,4,2,4,5,0,0
40068,-100,4,2,4,70,0,0
40346,-100,4,2,22,5,0,0
40439,-100,4,2,4,70,0,0
40624,-100,4,2,4,70,0,0
41920,-100,4,2,4,70,0,0
42105,-100,4,2,4,70,0,0
42939,-100,4,2,22,5,0,0
43031,-100,4,2,4,70,0,0
44883,-100,4,2,4,70,0,0
45068,-100,4,2,4,70,0,0
45901,-100,4,2,4,5,0,0
45994,-100,4,2,4,70,0,0
46364,-100,4,2,4,70,0,0
46550,-100,4,2,4,70,0,0
48957,-100,4,2,4,65,0,0
54883,-100,4,2,4,70,0,0
55994,-100,4,2,4,70,0,0
56179,-100,4,2,4,70,0,0
58957,-100,4,2,4,70,0,0
59142,-100,4,2,4,70,0,0
60808,-100,4,2,4,60,0,0
65068,-100,4,2,4,70,0,0
65346,-100,4,2,22,5,0,0
65439,-100,4,2,4,70,0,0
66735,-100,4,2,4,80,0,1
68587,-100,4,2,4,80,0,1
68772,-100,4,2,4,80,0,1
71550,-100,4,2,4,80,0,1
71735,-100,4,2,4,80,0,1
75253,-100,4,2,4,80,0,1
75624,-100,4,2,4,80,0,1
75809,-100,4,2,4,80,0,1
76920,-100,4,2,4,80,0,1
78031,-100,4,2,4,80,0,1
78587,-100,4,2,4,80,0,1
80439,-100,4,2,4,80,0,1
80624,-100,4,2,4,80,0,1
83401,-100,4,2,4,80,0,1
83587,-100,4,2,4,80,0,1
88772,-100,4,2,4,85,0,1
90439,-100,4,2,4,70,0,0
94698,-100,4,2,4,80,0,0
96827,-100,4,2,22,5,0,0
96920,-100,4,2,4,80,0,0
97198,-100,4,2,22,5,0,0
97290,-100,4,2,4,80,0,0
97568,-100,4,2,22,5,0,0
97661,-100,4,2,4,80,0,0
97939,-100,4,2,22,5,0,0
98031,-100,4,2,4,80,0,0
98309,-100,4,2,22,5,0,0
98401,-100,4,2,4,80,0,0
99327,-100,4,2,4,70,0,0
111179,-100,4,2,22,40,0,0
113401,-100,4,2,22,30,0,0
116364,-100,4,2,22,30,0,0
119327,-100,4,2,22,30,0,0
120068,-100,4,2,4,65,0,0
121179,-100,4,2,4,65,0,0
121550,-100,4,2,4,70,0,0
122290,-100,4,2,4,75,0,0
122661,-100,4,2,4,75,0,0
123031,-100,4,2,4,80,0,1
123401,-100,4,2,4,80,0,1
123587,-100,4,2,4,80,0,1
124883,-100,4,2,4,80,0,1
125068,-100,4,2,4,80,0,1
126364,-100,4,2,4,80,0,1
126550,-100,4,2,4,80,0,1
129327,-100,4,2,4,80,0,1
129513,-100,4,2,4,80,0,1
132290,-100,4,2,4,70,0,1
132476,-100,4,2,4,70,0,1
132661,-100,4,2,4,60,0,1
133031,-100,4,2,4,50,0,1
133401,-100,4,2,4,80,0,1
133772,-100,4,2,4,80,0,1
133957,-100,4,2,4,80,0,1
136735,-100,4,2,4,80,0,1
136920,-100,4,2,4,80,0,1
138216,-100,4,2,4,80,0,1
138401,-100,4,2,4,80,0,1
138957,-100,4,2,4,80,0,1
139142,-100,4,2,4,80,0,1
141179,-100,4,2,4,80,0,1
141364,-100,4,2,4,80,0,1
141920,-100,4,2,4,80,0,1
142105,-100,4,2,4,80,0,1
145994,-100,4,2,4,85,0,1
146735,-100,4,2,4,60,0,0
155439,-100,4,2,4,5,0,0
155624,-100,4,2,4,65,0,0
156920,-100,4,2,4,70,0,0
157198,-100,4,2,22,5,0,0
157290,-100,4,2,4,70,0,0
158401,-100,4,2,4,75,0,0
158957,-100,4,2,4,75,0,0
159327,-100,4,2,4,75,0,0
159513,-100,4,2,4,80,0,0
159698,-100,4,2,4,80,0,0
160994,-100,4,2,22,30,0,0
161179,-100,4,2,22,40,0,0
161364,-100,4,2,22,30,0,0
161550,-100,4,2,4,80,0,1
163401,-100,4,2,4,80,0,1
163587,-100,4,2,4,80,0,1
166364,-100,4,2,4,80,0,1
166550,-100,4,2,4,80,0,1
170624,-100,4,2,4,80,0,1
171735,-100,4,2,4,85,0,1
172846,-100,4,2,4,85,0,1
173401,-100,4,2,4,85,0,1
173679,-100,4,2,22,5,0,1
173772,-100,4,2,4,85,0,1
173957,-100,4,2,4,80,0,1
175253,-100,4,2,4,80,0,1
175439,-100,4,2,4,80,0,1
178216,-100,4,2,4,80,0,1
178401,-100,4,2,4,80,0,1
179327,-100,4,2,4,80,0,1
183587,-100,4,2,4,85,0,1
184327,-100,4,2,4,85,0,1
185253,-100,4,2,4,85,0,1
186179,-100,4,2,4,80,0,1
187105,-100,4,2,4,80,0,1
187290,-100,4,2,4,80,0,1
188216,-100,4,2,4,85,0,1
189142,-100,4,2,4,80,0,1
190068,-100,4,2,4,80,0,1
190253,-100,4,2,4,80,0,1
195439,-100,4,2,4,85,0,1
195994,-100,4,2,4,85,0,1
196364,-100,4,2,4,85,0,1
196735,-100,4,2,4,85,0,1
197105,-100,4,2,4,70,0,0
200068,-100,4,2,4,75,0,0
202939,-100,4,2,4,5,0,0
203031,-100,4,2,4,75,0,0
203216,-100,4,2,4,80,0,0
203494,-100,4,2,22,5,0,0
203587,-100,4,2,4,80,0,0
203864,-100,4,2,22,5,0,0
203957,-100,4,2,4,80,0,0
204235,-100,4,2,22,5,0,0
204327,-100,4,2,4,80,0,0
204605,-100,4,2,22,5,0,0
204698,-100,4,2,4,80,0,0
204976,-100,4,2,22,5,0,0
205068,-100,4,2,4,80,0,0
205439,-100,4,2,4,80,0,0
205901,-100,4,2,4,5,0,0
205994,-100,4,2,22,30,0,0
206364,-100,4,2,4,20,0,0
206735,-100,4,2,4,30,0,0
207105,-100,4,2,4,40,0,0
207476,-100,4,2,4,50,0,0
207846,-100,4,2,4,60,0,0
208216,-100,4,2,22,40,0,0
208957,-100,4,2,4,80,0,0
209327,-100,4,2,4,80,0,0
209513,-100,4,2,4,80,0,0
210809,-100,4,2,4,80,0,0
210994,-100,4,2,4,80,0,0
212290,-100,4,2,4,80,0,0
212476,-100,4,2,4,80,0,0
213772,-100,4,2,4,80,0,0
213957,-100,4,2,4,80,0,0
215253,-100,4,2,4,80,0,0
215439,-100,4,2,4,80,0,0
216735,-100,4,2,4,80,0,0
216920,-100,4,2,4,80,0,0
220068,-100,4,2,4,85,0,0

[Colours]
Combo1 : 230,60,100
Combo2 : 130,190,100
Combo3 : 240,170,60
Combo4 : 80,170,220

[HitObjects]
309,82,806,6,0,L|237:68,2,65,2|0|0,0:0|0:0|0:0,0:0:0:0:
391,98,1361,1,0,0:0:0:0:
464,57,1546,2,0,P|472:116|426:174,1,130,2|0,0:0|0:0,0:0:0:0:
348,170,2102,2,0,L|220:144,1,130,2|0,0:0|0:0,0:0:0:0:
159,85,2657,2,0,P|139:120|136:155,2,65,2|0|2,0:0|0:0|0:0,0:0:0:0:
159,299,3768,6,0,P|139:263|136:228,2,65,2|0|0,0:0|0:0|0:0,0:0:0:0:
225,351,4324,1,0,0:0:0:0:
296,304,4509,2,0,P|358:289|421:304,1,130,2|0,0:0|0:0,0:0:0:0:
459,380,5065,2,0,P|505:315|486:249,1,130,2|0,0:0|0:0,0:0:0:0:
430,219,5620,1,0,0:0:0:0:
346,209,5805,2,0,P|306:214|268:228,2,65,0|2|0,0:0|0:0|0:0,0:0:0:0:
131,73,6731,6,0,L|44:83,2,65,2|0|0,0:0|0:0|0:0,0:0:0:0:
210,44,7287,2,0,L|203:177,1,130,0|0,0:0|0:0,0:0:0:0:
197,258,7843,1,0,0:0:0:0:
136,317,8028,2,0,P|197:342|260:313,1,130,2|0,0:0|0:0,0:0:0:0:
328,277,8583,2,0,P|361:271|412:289,2,65,2|0|2,0:0|0:0|0:0,0:0:0:0:
36,106,9694,6,0,L|43:257,1,130,2|2,0:0|0:0,0:0:0:0:
160,114,10435,2,0,L|157:49,2,65,2|0|0,0:0|0:0|0:0,0:0:0:0:
212,179,10991,2,0,P|275:193|336:171,1,130,4|0,0:0|0:0,0:0:0:0:
385,102,11546,2,0,P|417:144|424:182,1,65,0|0,1:0|0:0,0:0:0:0:
421,239,11917,2,0,P|421:270|407:313,1,65,0|0,1:0|0:0,0:0:0:0:
339,345,12287,1,0,1:0:0:0:
280,284,12472,1,0,1:0:0:0:
262,265,13402,6,0,L|121:290,1,130,4|8,0:0|0:0,0:0:0:0:
122,204,13957,2,0,L|263:179,1,130,2|0,0:1|0:0,0:0:0:0:
318,129,14513,1,8,0:0:0:0:
328,213,14698,1,2,0:1:0:0:
262,265,14883,2,0,L|179:280,2,65,2|0|8,0:0|0:0|0:0,0:0:0:0:
340,296,15439,1,0,0:0:0:0:
340,296,15624,2,0,P|373:303|418:289,1,65,2|0,0:0|0:0,0:0:0:0:
485,275,15994,2,0,P|489:237|479:199,1,65,8|2,0:0|0:1,0:0:0:0:
416,160,16364,6,0,P|339:148|272:169,1,130,6|8,0:0|0:0,0:0:0:0:
223,214,16920,2,0,P|146:226|79:205,1,130,2|0,0:1|0:0,0:0:0:0:
28,162,17476,2,0,L|31:83,1,65,8|10,0:0|0:3,0:0:0:0:
74,25,17846,2,0,P|38:15|1:19,2,65,2|0|8,0:0|0:0|0:0,0:0:0:0:
114,99,18401,1,0,0:0:0:0:
180,46,18587,1,2,0:0:0:0:
257,78,18772,1,0,0:0:0:0:
257,78,18957,2,0,L|329:87,1,65,8|8,0:0|0:0,0:0:0:0:
402,109,19327,6,0,P|408:183|378:235,1,130,4|8,0:0|0:0,0:0:0:0:
323,290,19883,2,0,L|173:307,1,130,2|0,0:1|0:0,0:0:0:0:
106,311,20439,2,0,P|99:279|102:247,1,65,8|2,0:0|0:1,0:0:0:0:
140,171,20809,2,0,P|106:165|69:170,2,65,2|0|8,0:0|0:0|0:0,0:0:0:0:
220,145,21364,2,0,L|267:77,1,65,8|8,0:3|0:3,0:0:0:0:
341,93,21735,2,0,L|377:146,1,65,8|4,0:3|0:0,0:0:0:0:
278,282,22290,6,0,P|218:302|145:271,1,130,12|2,0:0|0:0,0:0:0:0:
157,196,22846,2,0,P|217:176|290:207,1,130,12|2,0:0|0:0,0:0:0:0:
345,245,23401,2,0,P|406:265|467:245,1,130,12|0,0:0|0:0,0:0:0:0:
488,162,23957,2,0,L|482:84,1,65,12|4,0:0|0:0,0:0:0:0:
411,53,24327,1,2,0:0:0:0:
344,106,24513,2,0,L|266:110,1,65,4|8,0:0|0:0,0:0:0:0:
228,177,24883,2,0,L|163:172,1,65,8|2,0:0|0:0,0:0:0:0:
102,114,25253,5,6,0:0:0:0:
102,114,25439,2,0,P|79:187|106:235,1,130,0|0,0:0|0:0,0:0:0:0:
172,277,25994,2,0,L|301:266,1,130,2|2,0:0|0:0,0:0:0:0:
386,259,26550,1,0,0:0:0:0:
421,335,26735,2,0,P|470:242|458:212,3,130,2|2|2|2,0:0|0:0|0:0|0:0,0:0:0:0:
303,191,28216,6,0,L|173:180,1,130,2|2,0:0|0:0,0:0:0:0:
20,252,28957,2,0,L|22:316,1,65,2|0,0:0|0:0,0:0:0:0:
104,297,29327,2,0,L|106:232,1,65,2|0,0:0|0:0,0:0:0:0:
173,180,29698,2,0,L|179:41,1,130,2|2,0:0|0:0,0:0:0:0:
261,32,30253,1,0,0:0:0:0:
261,32,30439,2,0,P|324:47|399:27,1,130,2|2,0:0|0:0,0:0:0:0:
487,168,31179,6,0,L|481:297,1,130,2|2,0:0|0:0,0:0:0:0:
322,356,31920,2,0,L|244:359,1,65,2|0,0:0|0:0,0:0:0:0:
235,276,32290,2,0,L|299:273,1,65,2|0,0:0|0:0,0:0:0:0:
279,191,32661,2,0,L|149:197,1,130,2|2,0:0|0:0,0:0:0:0:
86,143,33216,1,0,0:0:0:0:
86,143,33401,2,0,P|65:203|93:260,1,130,2|2,0:0|0:0,0:0:0:0:
257,221,34142,6,0,L|386:227,1,130,2|2,0:0|0:0,0:0:0:0:
444,164,34698,2,0,L|450:76,1,65,0|2,0:0|0:0,0:0:0:0:
365,116,35068,2,0,L|371:28,1,65,0|2,0:0|0:0,0:0:0:0:
290,20,35439,6,0,L|285:84,1,65,12|0,0:0|0:0,0:0:0:0:
206,53,35809,2,0,L|201:117,1,65,8|8,0:0|0:0,0:0:0:0:
121,88,36179,2,0,L|116:152,1,65,2|12,0:0|0:0,0:0:0:0:
145,232,36550,2,0,P|101:235|77:227,1,65,0|8,0:0|0:3,0:0:0:0:
37,157,36920,1,8,0:0:0:0:
0,233,37105,6,0,L|13:372,1,130,6|8,0:0|0:0,0:0:0:0:
96,374,37661,1,0,0:0:0:0:
164,324,37846,2,0,P|130:297|101:290,2,65,2|2|8,0:0|0:0|0:0,0:0:0:0:
232,373,38401,1,0,0:0:0:0:
290,312,38587,2,0,P|328:291|420:313,1,130,2|8,0:0|0:0,0:0:0:0:
489,155,39327,2,0,P|451:176|359:154,1,130,2|8,0:0|0:0,0:0:0:0:
252,37,40068,6,0,L|105:45,1,130,2|8,0:0|0:0,0:0:0:0:
77,116,40624,1,0,0:0:0:0:
32,188,40809,2,0,L|33:269,1,65,2|2,0:0|0:0,0:0:0:0:
117,257,41179,2,0,L|116:192,1,65,8|0,0:0|0:0,0:0:0:0:
161,120,41550,2,0,P|222:136|298:113,1,130,2|8,0:0|0:0,0:0:0:0:
360,81,42105,1,0,0:0:0:0:
360,81,42290,2,0,P|376:142|353:218,1,130,2|8,0:0|0:0,0:0:0:0:
314,276,42846,1,0,0:0:0:0:
241,233,43031,6,0,L|151:236,1,65,2|0,0:0|0:0,0:0:0:0:
129,305,43401,2,0,L|39:302,1,65,8|0,0:0|0:0,0:0:0:0:
16,232,43772,2,0,L|19:142,1,65,2|2,0:0|0:0,0:0:0:0:
86,120,44142,2,0,L|83:30,1,65,8|0,0:0|0:0,0:0:0:0:
159,16,44513,2,0,L|291:19,1,130,2|8,0:0|0:0,0:0:0:0:
373,20,45068,1,0,0:0:0:0:
373,20,45253,2,0,P|362:97|378:172,1,130,2|8,0:0|0:0,0:0:0:0:
418,217,45809,1,0,0:0:0:0:
352,269,45994,6,0,L|220:266,1,130,2|8,0:0|0:0,0:0:0:0:
147,226,46550,2,0,P|139:271|145:299,1,65,0|2,0:0|0:0,0:0:0:0:
217,329,46920,2,0,P|225:284|219:256,1,65,2|8,0:0|0:0,0:0:0:0:
214,181,47290,2,0,P|178:152|156:146,1,65,4|0,0:0|0:0,0:0:0:0:
195,69,47661,2,0,P|149:61|127:67,1,65,2|4,0:0|0:0,0:0:0:0:
55,28,48031,2,0,P|47:73|53:95,1,65,0|2,0:0|0:0,0:0:0:0:
79,171,48401,2,0,L|69:264,2,65,8|4|8,0:0|0:3|0:3,0:0:0:0:
160,146,48957,6,0,P|190:158|213:180,1,65,4|0,0:0|0:0,0:0:0:0:
262,249,49327,1,2,0:0:0:0:
262,249,49513,1,0,0:0:0:0:
311,180,49698,2,0,P|337:155|428:141,1,130,2|2,0:0|0:0,0:0:0:0:
458,218,50253,2,0,P|406:255|342:257,1,130,0|0,0:0|0:0,0:0:0:0:
262,249,50809,2,0,P|218:244|182:258,1,65,2|0,0:0|0:0,0:0:0:0:
231,326,51179,1,2,0:0:0:0:
71,268,51550,1,4,0:0:0:0:
72,99,51920,6,0,P|41:83|4:81,2,65,6|0|2,0:0|0:0|0:0,0:0:0:0:
136,153,52476,1,0,0:0:0:0:
201,99,52661,2,0,P|240:75|326:81,1,130,2|2,0:0|0:0,0:0:0:0:
391,126,53216,2,0,P|419:183|411:246,1,130,12|8,0:0|0:0,0:0:0:0:
350,306,53772,2,0,P|330:275|328:231,1,65,8|2,0:0|0:0,0:0:0:0:
263,190,54142,6,0,L|184:190,1,65,4|2,0:0|0:0,0:0:0:0:
176,272,54513,2,0,L|111:272,1,65,8|4,0:3|0:3,0:0:0:0:
36,311,54883,6,0,P|25:273|31:241,2,65,4|2|2,0:0|0:0|0:0,0:0:0:0:
107,356,55439,1,2,0:1:0:0:
111,272,55624,2,0,L|115:135,1,130,4|8,0:3|0:0,0:0:0:0:
172,80,56179,2,0,P|237:68|307:84,1,130,2|2,0:0|0:0,0:0:0:0:
360,138,56735,2,0,L|358:202,1,65,8|2,0:0|0:1,0:0:0:0:
357,287,57105,1,4,0:3:0:0:
230,174,57476,1,12,0:0:0:0:
62,189,57846,6,0,P|60:221|71:252,2,65,4|2|8,0:0|0:0|0:0,0:0:0:0:
92,110,58401,1,2,0:1:0:0:
172,80,58587,2,0,P|237:68|307:84,1,130,4|8,0:3|0:0,0:0:0:0:
319,162,59142,2,0,P|382:174|445:161,1,130,4|2,0:0|0:0,0:0:0:0:
501,225,59698,2,0,L|498:304,1,65,8|2,0:0|0:1,0:0:0:0:
438,349,60068,6,0,P|395:353|348:340,1,65,8|8,0:0|0:3,0:0:0:0:
324,280,60439,2,0,P|280:276|233:289,1,65,4|2,0:3|0:0,0:0:0:0:
178,258,60809,6,0,P|178:299|196:337,2,65,6|0|2,0:0|0:0|0:0,0:0:0:0:
238,198,61364,1,0,0:0:0:0:
238,198,61550,2,0,P|244:132|214:58,1,130,2|2,0:0|0:0,0:0:0:0:
154,24,62105,2,0,L|9:51,1,130,0|0,0:0|0:0,0:0:0:0:
66,122,62661,2,0,L|129:110,2,65,2|0|2,0:0|0:0|0:0,0:0:0:0:
30,286,63401,2,0,L|46:351,1,65,2|0,0:0|0:0,0:0:0:0:
127,374,63772,1,2,0:0:0:0:
22,209,65068,6,0,L|57:355,1,130,4|0,0:0|0:0,0:0:0:0:
127,374,65624,2,0,L|191:374,1,65,2|8,0:0|0:0,0:0:0:0:
260,325,65994,1,8,0:0:0:0:
337,291,66179,2,0,P|343:325|333:367,2,65,8|10|8,0:0|0:0|0:0,0:0:0:0:
269,239,66735,6,0,L|273:166,1,65,4|0,0:0|0:0,0:0:0:0:
278,89,67105,1,8,0:0:0:0:
346,137,67290,2,0,L|424:137,2,65,0|2|0,0:1|0:2|0:0,0:0:0:0:
272,174,67846,1,8,0:0:0:0:
201,127,68031,1,0,0:1:0:0:
201,127,68216,2,0,L|136:127,1,65,2|2,0:0|0:1,0:0:0:0:
71,71,68587,1,8,0:0:0:0:
8,128,68772,2,0,L|12:286,1,130,2|2,0:1|0:1,0:0:0:0:
60,326,69327,1,8,0:0:0:0:
138,293,69513,1,8,0:0:0:0:
138,293,69698,6,0,L|203:293,1,65,2|0,0:0|0:1,0:0:0:0:
283,268,70068,2,0,P|286:297|277:333,2,65,8|0|2,0:0|0:1|0:0,0:0:0:0:
221,209,70624,2,0,L|229:114,1,65,2|8,0:1|0:0,0:0:0:0:
231,59,70994,1,2,0:1:0:0:
301,105,71179,2,0,L|391:100,2,65,2|2|8,0:0|0:1|0:0,0:0:0:0:
226,144,71735,2,0,L|161:147,1,65,2|0,0:1|0:0,0:0:0:0:
102,208,72105,2,0,L|105:272,1,65,2|8,0:1|0:0,0:0:0:0:
177,317,72476,1,2,0:1:0:0:
250,358,72661,6,0,L|314:354,1,65,6|2,0:0|3:1,0:0:0:0:
391,319,73031,1,2,0:0:0:0:
462,273,73216,2,0,L|472:182,1,65,4|2,3:2|0:0,0:0:0:0:
393,170,73587,2,0,L|385:234,1,65,2|8,3:1|0:0,0:0:0:0:
303,254,73957,2,0,L|310:189,1,65,4|2,3:2|0:0,0:0:0:0:
235,144,74327,2,0,L|228:209,1,65,2|8,3:1|0:0,0:0:0:0:
145,187,74698,2,0,L|157:57,1,130,2|8,3:1|3:2,0:0:0:0:
233,22,75253,1,10,0:0:0:0:
318,31,75439,1,8,0:0:0:0:
385,81,75624,6,0,P|389:115|384:149,1,65,12|8,0:0|0:3,0:0:0:0:
228,209,76179,2,0,P|260:204|292:208,1,65,4|2,0:0|0:0,0:0:0:0:
293,293,76550,2,0,P|260:297|228:293,1,65,12|2,0:0|0:0,0:0:0:0:
154,252,76920,2,0,P|121:247|89:251,1,65,4|2,0:0|0:0,0:0:0:0:
12,285,77290,2,0,P|7:252|11:220,1,65,8|10,0:0|0:0,0:0:0:0:
78,168,77661,2,0,P|82:135|78:103,1,65,10|10,0:2|0:0,0:0:0:0:
108,24,78031,2,0,P|70:20|26:36,2,65,10|8|8,0:3|0:3|0:3,0:0:0:0:
164,87,78587,6,0,L|252:87,1,65,4|2,0:0|0:0,0:0:0:0:
208,168,78957,2,0,L|78:168,1,130,4|2,0:0|0:0,0:0:0:0:
10,218,79513,2,0,P|-4:175|-3:142,2,65,2|8|0,0:0|0:0|0:0,0:0:0:0:
69,278,80068,2,0,P|29:299|-3:303,2,65,2|2|8,0:0|0:0|0:0,0:0:0:0:
92,196,80624,2,0,L|180:196,1,65,2|2,0:2|0:0,0:0:0:0:
209,130,80994,2,0,L|339:130,1,130,2|2,0:0|0:0,0:0:0:0:
416,95,81550,6,0,P|422:131|415:168,1,65,6|2,0:0|0:0,0:0:0:0:
476,219,81920,2,0,P|417:242|358:219,1,130,12|2,0:0|0:0,0:0:0:0:
278,246,82476,2,0,L|284:324,2,65,2|8|0,0:0|0:0|0:0,0:0:0:0:
199,215,83031,2,0,L|121:209,2,65,2|2|8,0:0|0:0|0:0,0:0:0:0:
268,166,83587,2,0,L|263:101,1,65,2|6,0:0|0:0,0:0:0:0:
324,43,83957,2,0,L|461:54,1,130,2|8,0:0|0:3,0:0:0:0:
501,123,84513,6,0,L|496:187,1,65,4|2,0:0|3:1,0:0:0:0:
356,283,85068,2,0,L|361:219,1,65,4|2,3:2|0:0,0:0:0:0:
283,183,85439,2,0,L|278:247,1,65,2|8,3:1|0:0,0:0:0:0:
221,310,85809,2,0,P|177:304|127:318,1,65,4|2,3:2|0:2,0:0:0:0:
81,344,86179,2,0,P|75:300|89:250,1,65,2|8,3:1|0:0,0:0:0:0:
140,223,86550,2,0,P|147:191|144:158,1,65,2|2,3:1|0:0,0:0:0:0:
121,77,86920,2,0,P|93:92|67:125,2,65,2|6|8,3:1|2:2|3:3,0:0:0:0:
203,97,87476,6,0,L|292:92,1,65,6|8,0:0|0:0,0:0:0:0:
416,173,88031,2,0,L|421:262,1,65,8|2,0:3|0:0,0:0:0:0:
341,269,88401,2,0,L|337:204,1,65,4|2,0:3|0:0,0:0:0:0:
256,179,88772,2,0,L|104:187,2,130,12|12|2,0:0|0:0|0:2,0:0:0:0:
318,121,89698,2,0,L|314:56,1,65,2|8,0:0|0:3,0:0:0:0:
233,32,90068,2,0,L|236:96,1,65,4|2,0:3|0:0,0:0:0:0:
256,179,90439,6,0,L|104:187,1,130,4|0,0:0|0:0,0:0:0:0:
129,354,91179,2,0,P|196:365|283:337,1,130,2|0,0:1|0:0,0:0:0:0:
256,179,91920,2,0,L|408:187,1,130,2|2,0:0|0:1,0:0:0:0:
382,354,92661,2,0,P|315:365|228:337,1,130,2|0,0:1|0:0,0:0:0:0:
112,257,93401,6,0,L|113:112,1,130,4|2,0:0|0:0,0:0:0:0:
234,8,94142,2,0,L|233:95,1,65,2|0,0:0|0:0,0:0:0:0:
315,95,94513,1,2,0:0:0:0:
396,73,94698,2,0,P|412:135|393:202,1,130,4|8,0:0|0:3,0:0:0:0:
349,268,95253,1,2,0:0:0:0:
273,229,95439,2,0,L|116:243,1,130,2|2,0:0|0:0,0:0:0:0:
66,205,95994,2,0,P|60:248|65:270,1,65,2|2,0:0|0:0,0:0:0:0:
130,321,96364,5,12,0:0:0:0:
130,321,96550,1,12,0:0:0:0:
176,158,96920,1,12,0:0:0:0:
216,321,97290,1,12,0:0:0:0:
255,156,97661,1,4,0:0:0:0:
302,318,98031,1,6,0:0:0:0:
335,152,98401,2,0,L|347:82,1,65,6|2,0:2|0:0,0:0:0:0:
430,84,98772,2,0,L|396:275,1,195,8|4,0:3|0:0,0:0:0:0:
471,309,111179,6,0,L|478:235,2,65,4|0|0,0:1|0:0|0:0,0:0:0:0:
406,363,111735,1,0,0:0:0:0:
352,297,111920,2,0,L|359:223,1,65,0|0,0:0|0:0,0:0:0:0:
429,78,112476,2,0,P|376:53|302:80,1,130,0|0,0:0|0:0,0:0:0:0:
291,154,113031,1,0,0:0:0:0:
291,154,113216,2,0,P|238:179|164:152,1,130,0|0,0:0|0:0,0:0:0:0:
103,109,113772,1,0,0:0:0:0:
98,277,114142,6,0,P|62:289|14:278,2,65,2|0|0,0:0|0:0|0:0,0:0:0:0:
140,206,114698,1,0,0:0:0:0:
185,134,114883,2,0,L|313:115,1,130
365,47,115439,2,0,P|396:95|382:165,1,130,0|0,0:0|0:0,0:0:0:0:
306,199,115994,1,0,0:0:0:0:
313,114,116179,1,0,0:0:0:0:
252,328,116735,2,0,P|284:353|326:355,1,65
387,328,117105,6,0,P|422:326|469:338,2,65,2|0|0,0:0|0:0|0:0,0:0:0:0:
319,276,117661,1,0,0:0:0:0:
252,223,117846,2,0,P|184:219|109:226,1,130,0|0,0:0|0:0,0:0:0:0:
55,275,118401,1,0,0:0:0:0:
22,108,118772,1,0,0:0:0:0:
22,108,118957,1,0,0:0:0:0:
22,108,119142,1,0,0:0:0:0:
288,96,120068,6,0,P|324:98|379:95,2,65,2|0|2,0:1|0:0|0:1,0:0:0:0:
243,23,120624,2,0,P|203:93|230:160,1,130,2|0,0:1|0:0,0:0:0:0:
287,176,121179,2,0,P|323:178|378:175,1,65,2|0,0:0|0:0,0:0:0:0:
431,202,121550,2,0,P|435:170|427:139,2,65,2|2|2,0:0|0:0|0:1,0:0:0:0:
410,284,122105,1,2,0:0:0:0:
328,263,122290,2,0,P|249:258|175:291,1,130,4|8,0:0|0:0,0:0:0:0:
129,318,122846,1,8,0:0:0:0:
58,271,123031,6,0,L|47:115,1,130,6|8,0:0|0:0,0:0:0:0:
78,61,123587,2,0,P|118:56|163:58,1,65,0|2,0:0|0:0,0:0:0:0:
203,114,123957,2,0,P|243:119|288:117,1,65,2|8,0:1|0:0,0:0:0:0:
335,69,124327,1,0,0:0:0:0:
404,117,124513,2,0,P|391:183|406:248,1,130,2|8,0:0|0:0,0:0:0:0:
365,318,125068,2,0,P|326:313|282:317,1,65,2|0,0:1|0:0,0:0:0:0:
222,347,125439,2,0,P|216:306|228:266,1,65,0|8,0:0|0:0,0:0:0:0:
286,230,125809,1,2,0:1:0:0:
207,198,125994,6,0,P|127:188|49:203,1,130,4|8,0:0|0:0,0:0:0:0:
23,259,126550,1,2,0:1:0:0:
105,273,126735,2,0,P|109:305|104:337,2,65,2|2|0,0:0|0:1|0:0,0:0:0:0:
78,194,127290,1,0,0:0:0:0:
23,129,127476,2,0,P|19:97|24:65,2,65,2|2|2,0:0|0:1|0:0,0:0:0:0:
78,194,128031,1,2,0:1:0:0:
132,129,128216,2,0,L|211:121,1,65,2|2,0:0|0:1,0:0:0:0:
271,81,128587,2,0,L|335:87,1,65,8|0,0:0|0:0,0:0:0:0:
393,26,128957,6,0,P|419:98|386:154,1,130,4|8,0:0|0:0,0:0:0:0:
318,171,129513,2,0,L|326:253,1,65,2|2,0:1|0:0,0:0:0:0:
397,278,129883,2,0,L|390:342,1,65,2|8,0:1|0:0,0:0:0:0:
310,370,130253,2,0,L|217:370,1,65,2|2,0:1|0:0,0:0:0:0:
192,303,130624,2,0,L|127:303,1,65,2|8,0:1|0:0,0:0:0:0:
72,367,130994,2,0,P|43:297|82:232,1,130,2|0,0:1|0:0,0:0:0:0:
141,220,131550,2,0,P|146:176|137:136,1,65,2|2,0:0|1:0,0:0:0:0:
93,87,131920,6,0,P|127:75|177:77,1,65,4|0,0:2|0:0,0:0:0:0:
221,126,132290,2,0,L|310:123,2,65,2|0|2,0:1|0:0|0:1,0:0:0:0:
143,155,132846,1,0,0:0:0:0:
105,230,133031,2,0,L|115:314,1,65,2|0,0:1|0:0,0:0:0:0:
186,342,133401,2,0,P|251:324|332:337,1,130,2|8,0:1|0:0,0:0:0:0:
391,362,133957,2,0,P|421:299|430:217,1,130,8|0,0:2|0:3,0:0:0:0:
381,170,134513,2,0,P|381:120|391:83,1,65,8|8,0:3|0:3,0:0:0:0:
439,41,134883,5,10,0:0:0:0:
439,41,135068,1,0,0:0:0:0:
357,20,135253,2,0,P|321:17|272:20,1,65,4|0,0:0|0:0,0:0:0:0:
228,73,135624,2,0,P|192:76|143:73,1,65,2|2,0:0|0:1,0:0:0:0:
89,33,135994,2,0,P|80:88|86:110,1,65,8|2,0:0|0:1,0:0:0:0:
140,156,136364,2,0,L|135:298,1,130,2|8,0:0|0:0,0:0:0:0:
192,349,136920,1,2,0:1:0:0:
252,289,137105,2,0,L|256:196,2,65,2|2|8,0:0|0:1|0:0,0:0:0:0:
305,354,137661,1,2,0:1:0:0:
352,284,137846,6,0,P|406:278|486:324,1,130,4|8,0:0|0:0,0:0:0:0:
510,234,138401,1,2,0:1:0:0:
499,149,138587,2,0,P|445:155|365:109,1,130,2|8,0:0|0:0,0:0:0:0:
323,59,139142,1,2,0:1:0:0:
252,105,139327,2,0,P|208:110|163:104,1,65,6|2,0:0|0:1,0:0:0:0:
119,57,139698,2,0,P|75:52|30:58,1,65,8|2,0:0|0:1,0:0:0:0:
4,121,140068,1,2,0:0:0:0:
50,191,140253,1,2,0:1:0:0:
9,265,140439,2,0,L|12:347,1,65,2|8,0:0|0:0,0:0:0:0:
90,360,140809,6,0,P|155:342|244:363,1,130,4|8,0:0|0:0,0:0:0:0:
296,374,141364,1,2,0:1:0:0:
350,309,141550,2,0,P|332:244|353:155,1,130,2|8,0:0|0:0,0:0:0:0:
392,116,142105,1,2,0:1:0:0:
465,157,142290,2,0,P|473:192|468:235,2,65,8|2|2,0:0|0:1|0:0,0:0:0:0:
392,116,142846,1,10,0:3:0:0:
319,73,143031,2,0,L|237:68,1,65,8|12,0:3|0:3,0:0:0:0:
182,24,143401,2,0,L|117:27,1,65,12|2,0:0|0:0,0:0:0:0:
50,80,143772,6,0,P|64:150|51:229,1,130,12|2,0:0|0:0,0:0:0:0:
105,276,144327,2,0,P|175:262|254:275,1,130,12|2,0:0|0:0,0:0:0:0:
284,335,144883,2,0,P|354:349|433:336,1,130,12|2,0:0|0:0,0:0:0:0:
474,284,145439,2,0,P|492:322|495:356,2,65,12|2|2,0:0|0:0|0:0,0:0:0:0:
393,260,145994,1,12,0:0:0:0:
336,197,146179,1,8,0:0:0:0:
251,190,146364,2,0,P|243:158|251:114,1,65,10|2,0:0|0:0,0:0:0:0:
289,53,146735,5,4,0:0:0:0:
289,53,148031,5,0,0:0:0:0:
64,256,149698,5,0,0:0:0:0:
448,256,150994,5,0,0:0:0:0:
180,153,151735,5,0,0:0:0:0:
448,32,152661,5,0,0:0:0:0:
448,32,152846,1,0,0:0:0:0:
288,320,153957,5,0,0:0:0:0:
96,64,155068,6,0,L|64:192,1,130,0|0,0:0|0:0,0:0:0:0:
100,267,155624,1,0,0:0:0:0:
100,267,155809,1,0,0:0:0:0:
100,267,156920,6,0,P|152:258|236:287,1,130,6|2,0:0|0:0,0:0:0:0:
286,338,157476,1,2,0:0:0:0:
365,364,157661,1,2,0:0:0:0:
440,326,157846,2,0,L|451:245,1,65,2|8,0:0|0:0,0:0:0:0:
460,178,158216,1,2,0:0:0:0:
411,109,158401,2,0,P|377:102|326:107,1,65,8|8,0:0|0:0,0:0:0:0:
276,149,158772,1,8,0:0:0:0:
276,149,158957,2,0,P|242:156|191:151,1,65,10|8,0:0|0:0,0:0:0:0:
133,121,159327,1,8,0:0:0:0:
62,74,159513,2,0,P|51:115|52:162,1,65,10|8,0:0|0:0,0:0:0:0:
105,200,159883,5,8,0:0:0:0:
105,200,160994,2,0,P|65:221|37:223,2,65,0|2|0,0:0|0:2|0:1,0:0:0:0:
133,121,161550,6,0,P|173:100|201:98,1,65,6|0,0:0|0:0,0:0:0:0:
276,107,161920,1,8,0:0:0:0:
352,143,162105,2,0,P|360:112|351:67,2,65,0|2|0,0:1|0:0|0:1,0:0:0:0:
282,191,162661,1,8,0:0:0:0:
326,262,162846,1,0,0:1:0:0:
243,277,163031,2,0,L|156:293,1,65,2|2,0:0|0:1,0:0:0:0:
96,304,163401,1,8,0:0:0:0:
45,235,163587,2,0,P|57:140|33:92,1,130,2|2,0:1|0:1,0:0:0:0:
0,38,164142,1,8,0:0:0:0:
84,37,164327,1,2,0:0:0:0:
84,37,164513,6,0,L|177:38,1,65,6|0,0:0|0:1,0:0:0:0:
224,74,164883,2,0,P|231:24|224:-2,2,65,8|0|2,0:0|0:1|0:0,0:0:0:0:
154,122,165439,2,0,P|149:159|160:202,1,65,2|8,0:1|0:0,0:0:0:0:
200,256,165809,1,2,0:1:0:0:
274,217,165994,2,0,P|311:212|354:223,2,65,2|2|8,0:0|0:1|0:0,0:0:0:0:
200,256,166550,2,0,P|194:291|211:344,1,65,2|0,0:1|0:0,0:0:0:0:
129,367,166920,2,0,P|92:362|49:373,1,65,2|8,0:1|0:0,0:0:0:0:
11,301,167290,1,8,0:0:0:0:
70,240,167476,6,0,P|83:167|70:108,1,130,6|8,0:0|0:0,0:0:0:0:
28,41,168031,2,0,L|100:35,1,65,4|2,3:2|0:0,0:0:0:0:
153,94,168401,2,0,L|217:99,1,65,2|8,3:1|0:0,0:0:0:0:
299,75,168772,2,0,L|305:147,1,65,4|2,3:2|0:0,0:0:0:0:
246,200,169142,2,0,L|240:264,1,65,2|8,3:1|0:0,0:0:0:0:
178,322,169513,2,0,P|239:349|302:322,1,130,2|2,3:1|3:0,0:0:0:0:
353,266,170068,1,8,0:0:0:0:
431,297,170253,1,2,3:1:0:0:
478,226,170439,6,0,L|475:144,1,65,6|8,0:0|0:0,0:0:0:0:
344,54,170994,2,0,L|346:118,1,65,4|2,0:0|0:0,0:0:0:0:
269,153,171364,2,0,L|266:88,1,65,12|2,0:0|0:0,0:0:0:0:
201,33,171735,2,0,L|130:37,1,65,12|2,0:0|0:0,0:0:0:0:
125,120,172105,2,0,L|196:124,1,65,8|8,0:0|0:0,0:0:0:0:
269,153,172476,2,0,L|271:217,1,65,10|10,0:2|0:2,0:0:0:0:
309,293,172846,2,0,L|438:301,1,130,10|8,0:3|0:3,0:0:0:0:
489,234,173401,6,0,P|464:166|471:92,1,130,4|8,0:0|0:0,0:0:0:0:
409,46,173957,1,2,0:1:0:0:
409,46,174142,2,0,L|322:42,1,65,2|0,0:0|0:0,0:0:0:0:
284,103,174513,2,0,L|219:105,1,65,8|0,0:0|0:0,0:0:0:0:
155,161,174883,2,0,P|137:121|137:91,2,65,2|2|8,0:0|0:1|0:0,0:0:0:0:
235,188,175439,2,0,P|249:238|236:321,1,130,2|8,0:0|0:2,0:0:0:0:
302,370,175994,1,10,0:0:0:0:
360,309,176179,1,2,0:0:0:0:
360,309,176364,6,0,L|453:315,2,65,4|2|8,0:0|0:1|0:0,0:0:0:0:
295,253,176920,1,2,0:1:0:0:
238,314,177105,2,0,L|145:320,2,65,2|2|8,0:0|0:1|0:0,0:0:0:0:
295,253,177661,1,2,0:1:0:0:
352,191,177846,2,0,L|356:115,1,65,2|2,0:0|0:1,0:0:0:0:
416,67,178216,1,8,0:0:0:0:
341,27,178401,2,0,L|256:29,1,65,8|2,0:2|0:0,0:0:0:0:
225,96,178772,2,0,L|160:94,1,65,10|8,0:2|0:0,0:0:0:0:
94,41,179142,1,2,0:0:0:0:
15,10,179327,6,0,P|11:41|23:92,1,65,4|2,0:0|3:1,0:0:0:0:
122,202,179883,2,0,P|168:199|213:204,1,65,4|2,3:2|0:0,0:0:0:0:
249,256,180253,2,0,P|295:259|340:254,1,65,2|8,3:1|0:0,0:0:0:0:
384,304,180624,2,0,P|396:252|391:226,1,65,4|2,3:2|0:0,0:0:0:0:
344,173,180994,2,0,P|332:121|337:95,1,65,2|8,3:1|0:0,0:0:0:0:
267,60,181364,2,0,P|323:31|385:47,1,130,2|2,3:1|3:0,0:0:0:0:
470,39,181920,1,6,0:0:0:0:
435,115,182105,1,8,0:3:0:0:
455,196,182290,6,0,L|476:280,1,65,6|8,0:0|0:0,0:0:0:0:
304,291,182846,2,0,P|268:284|225:289,1,65,8|2,0:3|0:0,0:0:0:0:
184,349,183216,2,0,P|148:356|105:351,1,65,8|4,0:3|0:3,0:0:0:0:
42,319,183587,2,0,L|29:185,1,130,12|8,0:0|0:3,0:0:0:0:
22,105,184142,1,4,0:0:0:0:
98,140,184327,2,0,P|156:123|247:148,1,130,10|10,0:3|0:3,0:0:0:0:
281,196,184883,2,0,P|285:232|274:281,1,65,10|10,0:3|0:3,0:0:0:0:
235,331,185253,6,0,P|275:343|318:338,1,65,10|2,0:0|0:0,0:0:0:0:
369,296,185624,2,0,P|378:211|372:165,1,130,4|2,0:0|0:0,0:0:0:0:
306,115,186179,2,0,L|311:41,2,65,2|8|2,0:0|0:0|0:1,0:0:0:0:
223,134,186735,2,0,L|149:129,2,65,2|2|8,0:0|0:0|0:0,0:0:0:0:
281,196,187290,2,0,P|285:228|281:260,1,65,2|2,0:2|0:0,0:0:0:0:
224,324,187661,2,0,P|125:316|77:339,1,130,2|8,0:0|0:0,0:0:0:0:
43,259,188216,6,0,P|39:227|43:195,1,65,2|8,0:0|0:0,0:0:0:0:
0,122,188587,2,0,P|67:114|122:159,1,130,4|2,0:0|0:0,0:0:0:0:
170,212,189142,2,0,L|162:290,2,65,2|8|2,0:0|0:0|0:1,0:0:0:0:
225,147,189698,2,0,P|277:111|340:120,1,130,2|8,0:0|0:0,0:0:0:0:
409,169,190253,1,2,0:2:0:0:
475,116,190439,1,2,0:2:0:0:
508,193,190624,2,0,L|496:333,1,130,2|0,0:2|0:0,0:0:0:0:
424,365,191179,6,0,P|387:359|346:365,1,65,4|2,0:0|3:1,0:0:0:0:
193,330,191735,2,0,L|197:251,1,65,4|2,3:2|0:0,0:0:0:0:
135,206,192105,2,0,L|138:141,1,65,2|8,3:1|0:0,0:0:0:0:
104,63,192476,2,0,P|159:59|193:73,1,65,4|2,3:2|0:0,0:0:0:0:
220,127,192846,2,0,P|275:131|309:117,1,65,2|8,3:1|0:0,0:0:0:0:
343,68,193216,2,0,P|364:106|365:152,1,65,2|2,3:1|0:0,0:0:0:0:
328,202,193587,2,0,L|332:277,2,65,2|6|8,3:1|2:2|3:3,0:0:0:0:
283,128,194142,6,0,P|228:124|194:138,1,65,6|8,0:0|0:0,0:0:0:0:
86,231,194698,2,0,P|89:268|87:313,1,65,6|2,0:0|0:0,0:0:0:0:
148,354,195068,2,0,P|185:351|230:353,1,65,8|2,0:0|0:0,0:0:0:0:
273,291,195439,2,0,P|318:280|416:298,1,130,4|8,0:0|0:3,0:0:0:0:
464,345,195994,1,8,0:3:0:0:
464,345,196179,2,0,P|484:293|481:269,1,65,8|2,0:0|0:1,0:0:0:0:
443,210,196550,1,8,0:0:0:0:
482,135,196735,1,8,0:0:0:0:
445,58,196920,1,10,0:0:0:0:
377,109,197105,6,0,L|217:105,1,130,4|0,0:0|0:0,0:0:0:0:
118,216,197846,2,0,L|247:219,1,130,8|0,0:0|0:0,0:0:0:0:
377,109,198587,2,0,L|373:238,1,130,2|0,0:0|0:0,0:0:0:0:
244,349,199327,2,0,L|247:219,1,130,8|2,0:0|0:0,0:0:0:0:
92,151,200068,6,0,P|78:208|94:293,1,130,12|2,0:0|0:0,0:0:0:0:
238,354,200809,2,0,L|244:281,2,65,10|0|10,0:0|0:0|0:0,0:0:0:0:
321,341,201364,2,0,L|332:211,1,130,4|8,0:0|0:3,0:0:0:0:
288,138,201920,2,0,P|327:128|363:134,2,65,6|8|2,0:0|0:0|0:2,0:0:0:0:
246,212,202476,2,0,L|161:207,1,65,2|4,0:0|0:0,0:0:0:0:
96,201,202846,1,0,0:0:0:0:
145,132,203031,6,0,L|143:58,1,65,8|4,0:0|0:0,0:0:0:0:
307,25,203587,2,0,L|308:89,1,65,4|0,0:0|0:0,0:0:0:0:
386,57,203957,2,0,L|387:121,1,65,4|0,0:0|0:0,0:0:0:0:
465,89,204327,2,0,L|468:231,1,130,6|12,0:0|0:0,0:0:0:0:
469,303,204883,1,0,0:0:0:0:
395,262,205068,2,0,P|362:258|330:261,1,65,6|0,0:0|0:0,0:0:0:0:
273,324,205439,2,0,P|177:297|75:333,1,195,6|2,0:0|0:2,0:0:0:0:
256,192,206179,12,0,207476,0:0:0:0:
389,49,208957,6,0,P|374:100|377:187,1,130,4|8,0:0|0:0,0:0:0:0:
314,235,209513,2,0,P|263:220|175:223,1,130,2|0,0:1|0:0,0:0:0:0:
111,260,210068,1,8,0:0:0:0:
80,338,210253,1,2,0:1:0:0:
26,272,210439,2,0,L|11:203,2,65,2|0|8,0:0|0:0|0:0,0:0:0:0:
80,338,210994,1,0,0:0:0:0:
157,372,211179,2,0,L|238:372,1,65,2|2,0:0|0:1,0:0:0:0:
213,288,211550,2,0,L|294:288,1,65,8|0,0:0|0:0,0:0:0:0:
330,353,211920,6,0,P|360:295|333:222,1,130,6|8,0:0|0:0,0:0:0:0:
265,203,212476,2,0,P|235:145|262:72,1,130,2|0,0:1|0:0,0:0:0:0:
304,20,213031,1,8,0:0:0:0:
382,51,213216,1,2,0:1:0:0:
459,84,213401,2,0,L|465:10,2,65,2|0|8,0:0|0:0|0:0,0:0:0:0:
391,135,213957,2,0,L|396:199,1,65,2|2,0:1|0:0,0:0:0:0:
466,246,214327,2,0,L|460:310,1,65,8|2,0:0|0:0,0:0:0:0:
390,357,214698,1,8,0:0:0:0:
390,357,214883,6,0,P|325:329|245:328,1,130,4|8,0:0|0:0,0:0:0:0:
274,240,215439,2,0,P|209:245|150:272,1,130,2|0,0:1|0:0,0:0:0:0:
74,313,215994,2,0,P|67:282|68:250,1,65,8|2,0:0|0:1,0:0:0:0:
91,168,216364,2,0,L|14:160,2,65,8|2|2,0:0|0:1|0:0,0:0:0:0:
156,114,216920,1,8,0:3:0:0:
156,114,217105,2,0,L|220:106,1,65,12|8,0:3|0:3,0:0:0:0:
289,57,217476,2,0,L|353:64,1,65,4|0,0:0|0:0,0:0:0:0:
415,6,217846,6,0,P|437:68|394:136,1,130,12|2,0:0|0:0,0:0:0:0:
329,146,218401,2,0,P|307:207|350:275,1,130,12|2,0:0|0:0,0:0:0:0:
283,330,218957,2,0,P|221:308|153:351,1,130,12|2,0:0|0:0,0:0:0:0:
89,298,219513,2,0,L|83:209,1,65,12|2,0:0|0:0,0:0:0:0:
79,148,219883,1,0,0:0:0:0:
120,74,220068,2,0,P|58:66|35:72,2,65,8|10|10,0:0|0:0|0:0,0:0:0:0:
194,114,220624,1,12,0:0:0:0:
