osu file format v14

[General]
AudioFilename: audio.mp3
AudioLeadIn: 0
PreviewTime: 160809
Countdown: 0
SampleSet: Soft
StackLeniency: 0.7
Mode: 0
LetterboxInBreaks: 0
WidescreenStoryboard: 1

[Editor]
Bookmarks: 25249,66731,123027,146731,220620
DistanceSpacing: 1.2
BeatDivisor: 4
GridSize: 32
TimelineZoom: 1.4

[Metadata]
Title:Senpai.
TitleUnicode:センパイ。
Artist:sana
ArtistUnicode:鎖那
Creator:Kyuukai
Version:Hard
Source:好きになるその瞬間を。~告白実行委員会~
Tags:The Moment You Fall in Love suki ni naru sono shunkan wo kokuhaku jikkou iinkai opening honeyworks meets trysail litoluna yaleufeu umi lasse
BeatmapID:1352785
BeatmapSetID:637706

[Difficulty]
HPDrainRate:5
CircleSize:4
OverallDifficulty:6
ApproachRate:7.5
SliderMultiplier:1.4
SliderTickRate:1

[Events]
//Background and Video events
Video,207,"Senpai.avi"
0,0,"bg.jpg",0,0
//Break Periods
2,99527,110354
//Storyboard Layer 0 (Background)
//Storyboard Layer 1 (Fail)
//Storyboard Layer 2 (Pass)
//Storyboard Layer 3 (Foreground)
//Storyboard Sound Samples

[TimingPoints]
806,370.37037037037,4,2,5,60,1,0
9972,-100,4,2,22,5,0,0
10065,-100,4,2,5,60,0,0
10343,-100,4,2,22,5,0,0
10435,-100,4,2,5,60,0,0
10991,-100,4,2,5,60,0,0
11176,-100,4,2,5,60,0,0
11361,-100,4,2,5,60,0,0
11546,-100,4,2,5,60,0,0
11731,-100,4,2,5,60,0,0
11917,-100,4,2,5,60,0,0
12102,-100,4,2,5,60,0,0
12287,-100,4,2,5,60,0,0
12472,-100,4,2,5,60,0,0
13402,370.37037037037,4,2,4,70,1,0
21364,-100,4,2,4,70,0,0
21550,-100,4,2,4,70,0,0
21920,-100,4,2,4,70,0,0
25253,-100,4,2,4,60,0,0
28124,-100,4,2,4,5,0,0
28216,-100,4,2,4,60,0,0
35439,-100,4,2,4,65,0,0
37105,-100,4,2,4,70,0,0
37383,-100,4,2,22,5,0,0
37476,-100,4,2,4,70,0,0
39976,-100,4,2,4,5,0,0
40068,-100,4,2,4,70,0,0
40346,-100,4,2,22,5,0,0
40439,-100,4,2,4,70,0,0
42939,-100,4,2,22,5,0,0
43031,-100,4,2,4,70,0,0
45901,-100,4,2,4,5,0,0
45994,-100,4,2,4,70,0,0
48957,-100,4,2,4,65,0,0
54883,-100,4,2,4,70,0,0
60808,-100,4,2,4,60,0,0
64976,-100,4,2,4,60,0,0
65068,-100,4,2,4,70,0,0
65346,-100,4,2,22,5,0,0
65439,-100,4,2,4,70,0,0
65624,-100,4,2,4,70,0,0
65994,-100,4,2,4,70,0,0
66364,-100,4,2,4,70,0,0
66735,-100,4,2,4,80,0,1
75253,-100,4,2,4,80,0,1
75439,-100,4,2,4,80,0,1
75809,-100,4,2,4,80,0,1
76920,-100,4,2,4,80,0,1
78031,-100,4,2,4,80,0,1
78587,-100,4,2,4,80,0,1
88772,-100,4,2,4,85,0,1
90439,-100,4,2,4,70,0,0
94698,-100,4,2,4,80,0,0
96827,-100,4,2,22,5,0,0
96920,-100,4,2,4,80,0,0
97198,-100,4,2,22,5,0,0
97290,-100,4,2,4,80,0,0
97568,-100,4,2,22,5,0,0
97661,-100,4,2,4,80,0,0
97939,-100,4,2,22,5,0,0
98031,-100,4,2,4,80,0,0
98309,-100,4,2,22,5,0,0
98401,-100,4,2,4,80,0,0
99327,-100,4,2,4,70,0,0
111179,-100,4,2,22,40,0,0
119327,-100,4,2,22,30,0,0
120068,-100,4,2,4,65,0,0
121179,-100,4,2,4,65,0,0
121364,-100,4,2,4,65,0,0
121550,-100,4,2,4,70,0,0
121735,-100,4,2,4,70,0,0
121920,-100,4,2,4,70,0,0
122105,-100,4,2,4,70,0,0
122290,-100,4,2,4,75,0,0
122476,-100,4,2,4,75,0,0
123031,-100,4,2,4,80,0,1
132290,-100,4,2,4,70,0,1
132661,-100,4,2,4,60,0,1
133031,-100,4,2,4,50,0,1
133401,-100,4,2,4,80,0,1
145994,-100,4,2,4,85,0,1
146735,-100,4,2,4,60,0,0
155439,-100,4,2,4,5,0,0
155624,-100,4,2,4,65,0,0
156920,-100,4,2,4,70,0,0
157198,-100,4,2,22,5,0,0
157290,-100,4,2,4,70,0,0
158401,-100,4,2,4,75,0,0
158957,-100,4,2,4,75,0,0
159327,-100,4,2,4,75,0,0
159513,-100,4,2,4,80,0,0
159698,-100,4,2,4,80,0,0
160994,-100,4,2,22,30,0,0
161179,-100,4,2,22,40,0,0
161364,-100,4,2,22,30,0,0
161550,-100,4,2,4,80,0,1
170624,-100,4,2,4,80,0,1
171735,-100,4,2,4,85,0,1
172846,-100,4,2,4,85,0,1
173401,-100,4,2,4,85,0,1
173679,-100,4,2,22,5,0,1
173772,-100,4,2,4,85,0,1
173957,-100,4,2,4,80,0,1
178772,-100,4,2,4,80,0,1
179327,-100,4,2,4,80,0,1
183587,-100,4,2,4,85,0,1
184327,-100,4,2,4,85,0,1
185253,-100,4,2,4,85,0,1
186179,-100,4,2,4,80,0,1
188216,-100,4,2,4,85,0,1
189142,-100,4,2,4,80,0,1
195439,-100,4,2,4,85,0,1
195994,-100,4,2,4,85,0,1
196179,-100,4,2,4,85,0,1
196364,-100,4,2,4,85,0,1
196550,-100,4,2,4,85,0,1
196735,-100,4,2,4,85,0,1
196920,-100,4,2,4,85,0,1
197105,-100,4,2,4,70,0,0
200068,-100,4,2,4,75,0,0
202939,-100,4,2,4,5,0,0
203031,-100,4,2,4,75,0,0
203216,-100,4,2,4,80,0,0
203494,-100,4,2,22,5,0,0
203587,-100,4,2,4,80,0,0
203864,-100,4,2,22,5,0,0
203957,-100,4,2,4,80,0,0
204235,-100,4,2,22,5,0,0
204327,-100,4,2,4,80,0,0
204605,-100,4,2,22,5,0,0
204698,-100,4,2,4,80,0,0
204976,-100,4,2,22,5,0,0
205068,-100,4,2,4,80,0,0
205439,-100,4,2,4,80,0,0
205901,-100,4,2,4,5,0,0
205994,-100,4,2,22,30,0,0
206364,-100,4,2,4,20,0,0
206735,-100,4,2,4,30,0,0
207105,-100,4,2,4,40,0,0
207476,-100,4,2,4,50,0,0
207846,-100,4,2,4,60,0,0
208216,-100,4,2,22,40,0,0
208957,-100,4,2,4,80,0,0
220068,-100,4,2,4,85,0,0

[Colours]
Combo1 : 230,60,100
Combo2 : 130,190,100
Combo3 : 240,170,60
Combo4 : 80,170,220

[HitObjects]
142,105,806,6,0,L|63:102,2,70,2|0|0,0:0|0:0|0:0,0:0:0:0:
207,52,1361,1,0,0:0:0:0:
277,97,1546,2,0,P|302:160|281:226,1,140,2|0,0:0|0:0,0:0:0:0:
197,214,2102,2,0,P|216:280|277:311,1,140,2|0,0:0|0:0,0:0:0:0:
351,273,2657,2,0,P|360:313|345:365,1,70,2|0,0:0|0:0,0:0:0:0:
355,341,3028,1,2,0:0:0:0:
380,154,3768,6,0,P|416:150|465:163,2,70,2|0|0,0:0|0:0|0:0,0:0:0:0:
302,187,4324,1,0,0:0:0:0:
224,219,4509,2,0,L|84:212,1,140,2|0,0:0|0:0,0:0:0:0:
33,145,5065,2,0,P|-1:215|30:277,1,140,2|0,0:0|0:0,0:0:0:0:
93,310,5620,2,0,L|162:306,1,70,0|0,0:0|0:0,0:0:0:0:
247,302,5991,1,2,0:0:0:0:
307,243,6176,1,0,0:0:0:0:
107,132,6731,6,0,P|94:170|104:224,2,70,2|0|0,0:0|0:0|0:0,0:0:0:0:
165,70,7287,2,0,B|233:85|233:85|316:69,1,140,0|0,0:0|0:0,0:0:0:0:
379,39,7843,1,0,0:0:0:0:
442,91,8028,2,0,P|450:161|440:230,1,140,2|0,0:0|0:0,0:0:0:0:
367,271,8583,2,0,P|410:309|443:317,1,70,2|0,0:0|0:0,0:0:0:0:
421,313,8954,1,2,0:0:0:0:
177,137,9694,6,0,P|95:115|30:151,1,140,2|2,0:0|0:0,0:0:0:0:
108,291,10435,2,0,L|106:370,2,70,2|0|0,0:0|0:0|0:0,0:0:0:0:
178,244,10991,6,0,P|260:266|325:230,1,140,4|0,0:0|0:0,0:0:0:0:
370,189,11546,1,0,1:0:0:0:
351,107,11731,1,0,0:0:0:0:
278,64,11917,2,0,P|244:56|210:63,2,70,0|0|0,1:0|0:0|1:0,0:0:0:0:
351,23,12472,1,0,1:0:0:0:
370,202,13402,6,0,L|230:204,1,140,4|8,0:0|0:0,0:0:0:0:
280,272,13957,2,0,P|309:226|280:137,1,140,2|0,0:1|0:0,0:0:0:0:
230,86,14513,1,8,0:0:0:0:
171,145,14698,1,2,0:1:0:0:
111,85,14883,2,0,P|77:94|36:92,2,70,2|0|8,0:0|0:0|0:0,0:0:0:0:
171,26,15439,1,0,0:0:0:0:
230,86,15624,2,0,P|263:94|298:94,1,70,2|0,0:0|0:0,0:0:0:0:
369,138,15994,2,0,P|377:104|377:69,1,70,8|2,0:0|0:1,0:0:0:0:
457,148,16364,6,0,P|440:205|465:292,1,140,6|8,0:0|0:0,0:0:0:0:
410,350,16920,2,0,P|353:367|266:342,1,140,2|0,0:1|0:0,0:0:0:0:
220,285,17476,1,8,0:0:0:0:
154,337,17661,1,10,0:3:0:0:
81,294,17846,2,0,P|71:324|81:383,2,70,2|0|8,0:0|0:0|0:0,0:0:0:0:
147,243,18401,1,0,0:0:0:0:
220,285,18587,2,0,P|261:291|316:271,1,70,2|0,0:0|0:0,0:0:0:0:
326,210,18957,2,0,P|285:204|230:224,1,70,8|8,0:0|0:0,0:0:0:0:
375,278,19327,6,0,P|410:216|364:136,1,140,4|8,0:0|0:0,0:0:0:0:
340,86,19883,2,0,P|305:145|326:210,1,140,2|0,0:1|0:0,0:0:0:0:
375,278,20439,1,8,0:0:0:0:
429,214,20624,1,2,0:1:0:0:
480,279,20809,2,0,P|481:321|468:361,2,70,2|0|8,0:0|0:0|0:0,0:0:0:0:
429,214,21364,1,8,0:3:0:0:
375,278,21550,2,0,L|292:289,1,70,8|8,0:3|0:3,0:0:0:0:
222,297,21920,1,4,0:0:0:0:
247,128,22290,6,0,P|203:145|86:125,1,140,12|2,0:0|0:0,0:0:0:0:
106,53,22846,2,0,P|150:36|267:56,1,140,12|2,0:0|0:0,0:0:0:0:
315,81,23401,2,0,P|332:125|312:242,1,140,12|0,0:0|0:0,0:0:0:0:
282,288,23957,1,12,0:0:0:0:
237,359,24142,2,0,P|194:362|152:352,1,70,4|2,0:0|0:0,0:0:0:0:
118,288,24513,5,4,0:0:0:0:
159,214,24698,1,8,0:0:0:0:
242,215,24883,1,8,0:0:0:0:
282,288,25068,1,2,0:0:0:0:
356,327,25253,6,0,P|416:340|497:327,1,140,6|2,0:0|0:0,0:0:0:0:
490,244,25809,1,0,0:0:0:0:
490,244,25994,2,0,P|421:230|353:242,1,140,2|2,0:0|0:0,0:0:0:0:
282,288,26550,1,0,0:0:0:0:
282,288,26735,2,0,P|238:294|204:287,1,70,2|0,0:0|0:0,0:0:0:0:
155,228,27105,2,0,P|120:223|86:229,1,70,2|0,0:0|0:0,0:0:0:0:
10,267,27476,2,0,P|3:232|8:198,1,70,2|0,0:0|0:0,0:0:0:0:
70,140,27846,2,0,P|74:105|68:71,1,70,2|0,0:0|0:0,0:0:0:0:
144,37,28216,6,0,P|213:51|281:38,1,140,2|2,0:0|0:0,0:0:0:0:
364,89,28772,1,0,0:0:0:0:
364,89,28957,2,0,P|374:37|370:9,1,70,2|0,0:0|0:0,0:0:0:0:
287,131,29327,2,0,P|276:182|280:210,1,70,2|0,0:0|0:0,0:0:0:0:
345,251,29698,2,0,B|413:236|413:236|481:253,1,140,2|2,0:0|0:0,0:0:0:0:
481,337,30253,1,0,0:0:0:0:
481,337,30346,1,0,0:0:0:0:
481,337,30439,2,0,B|413:352|413:352|320:328,1,140,2|2,0:0|0:0,0:0:0:0:
271,293,30994,1,0,0:0:0:0:
271,293,31179,6,0,P|229:289|192:296,1,70,2|0,0:0|0:0,0:0:0:0:
167,370,31550,2,0,P|209:374|246:367,1,70,2|0,0:0|0:0,0:0:0:0:
271,293,31920,2,0,P|275:251|268:214,1,70,2|0,0:0|0:0,0:0:0:0:
193,191,32290,2,0,P|189:233|196:270,1,70,2|0,0:0|0:0,0:0:0:0:
270,223,32661,2,0,P|335:212|430:231,1,140,2|2,0:0|0:0,0:0:0:0:
408,306,33216,1,0,0:0:0:0:
408,306,33401,2,0,P|339:317|270:307,1,140,2|2,0:0|0:0,0:0:0:0:
502,191,34142,6,0,L|504:121,1,70,2|0,0:0|0:0,0:0:0:0:
426,88,34513,1,2,0:0:0:0:
426,88,34698,2,0,L|428:157,1,70,0|2,0:0|0:0,0:0:0:0:
354,197,35068,2,0,L|257:200,1,70,0|2,0:0|0:0,0:0:0:0:
269,116,35439,6,0,L|338:118,1,70,12|0,0:0|0:0,0:0:0:0:
364,38,35809,2,0,L|294:40,1,70,8|8,0:0|0:0,0:0:0:0:
211,56,36179,2,0,L|141:54,1,70,2|12,0:0|0:0,0:0:0:0:
61,27,36550,2,0,L|31:-2,2,35,0|8|8,0:0|0:0|0:3,0:0:0:0:
32,111,36920,1,8,0:0:0:0:
32,111,37013,1,8,0:0:0:0:
32,111,37105,6,0,B|16:177|16:177|41:263,1,140,6|8,0:0|0:0,0:0:0:0:
89,311,37661,1,0,0:0:0:0:
150,253,37846,2,0,L|219:249,1,70,2|2,0:0|0:0,0:0:0:0:
280,307,38216,2,0,L|349:310,1,70,8|0,0:0|0:0,0:0:0:0:
404,374,38587,2,0,P|434:311|399:243,1,140,2|8,0:0|0:0,0:0:0:0:
493,105,39327,2,0,P|463:168|498:236,1,140,2|8,0:0|0:0,0:0:0:0:
322,205,40068,6,0,P|253:195|185:206,1,140,2|8,0:0|0:0,0:0:0:0:
118,153,40624,1,0,0:0:0:0:
53,207,40809,2,0,L|57:289,1,70,2|2,0:0|0:0,0:0:0:0:
129,318,41179,2,0,P|166:324|211:312,1,70,8|0,0:0|0:0,0:0:0:0:
269,274,41550,2,0,P|338:264|406:275,1,140,2|8,0:0|0:0,0:0:0:0:
469,184,42105,1,0,0:0:0:0:
469,184,42290,2,0,P|400:194|332:183,1,140,2|8,0:0|0:0,0:0:0:0:
165,213,43031,6,0,P|130:220|96:213,1,70,2|0,0:0|0:0,0:0:0:0:
46,146,43401,2,0,P|41:96|57:57,1,70,8|0,0:0|0:0,0:0:0:0:
121,39,43772,2,0,P|171:34|210:50,1,70,2|2,0:0|0:0,0:0:0:0:
258,84,44142,2,0,P|293:91|327:84,1,70,8|0,0:0|0:0,0:0:0:0:
386,145,44513,2,0,P|411:82|382:21,1,140,2|8,0:0|0:0,0:0:0:0:
327,84,45068,1,0,0:0:0:0:
326,84,45253,2,0,P|297:145|322:208,1,140,2|8,0:0|0:0,0:0:0:0:
490,207,45994,6,0,P|514:144|484:82,1,140,2|8,0:0|0:0,0:0:0:0:
430,147,46550,2,0,P|367:172|306:144,1,140,0|2,0:0|0:0,0:0:0:0:
371,91,47105,1,8,0:0:0:0:
371,91,47290,2,0,P|309:62|246:87,1,140,4|2,0:0|0:0,0:0:0:0:
174,131,47846,1,4,0:0:0:0:
97,96,48031,2,0,P|55:93|15:118,1,70,0|2,0:0|0:0,0:0:0:0:
10,185,48401,1,8,0:0:0:0:
10,185,48494,1,8,0:0:0:0:
10,185,48587,2,0,P|2:218|19:269,1,70,4|8,0:3|0:3,0:0:0:0:
86,287,48957,6,0,P|151:273|232:291,1,140,4|2,0:0|0:0,0:0:0:0:
295,327,49513,1,0,0:0:0:0:
295,327,49698,2,0,P|363:341|431:327,1,140,2|2,0:0|0:0,0:0:0:0:
431,243,50253,2,0,P|362:228|294:242,1,140,0|0,0:0|0:0,0:0:0:0:
222,286,50809,1,2,0:0:0:0:
222,286,50994,1,0,0:0:0:0:
159,229,51179,2,0,P|152:181|166:144,1,70,2|0,0:0|0:0,0:0:0:0:
235,128,51550,2,0,P|242:80|228:43,1,70,4|0,0:0|0:0,0:0:0:0:
315,31,51920,6,0,P|363:38|400:24,2,70,6|0|2,0:0|0:0|0:0,0:0:0:0:
236,59,52476,1,0,0:0:0:0:
158,92,52661,2,0,P|92:72|27:95,1,140,2|2,0:0|0:0,0:0:0:0:
28,179,53216,2,0,P|88:199|163:171,1,140,12|8,0:0|0:0,0:0:0:0:
231,133,53772,1,8,0:0:0:0:
274,204,53957,1,2,0:0:0:0:
384,141,54142,2,0,P|350:132|316:130,1,70,4|2,0:0|0:0,0:0:0:0:
273,132,54420,1,8,0:0:0:0:
231,133,54513,2,0,P|197:142|162:143,1,70,8|4,0:3|0:3,0:0:0:0:
111,210,54883,6,0,L|127:312,2,70,4|2|2,0:0|0:0|0:0,0:0:0:0:
41,161,55439,1,2,0:1:0:0:
41,161,55624,2,0,B|28:92|28:92|39:21,1,140,4|8,0:3|0:0,0:0:0:0:
116,53,56179,2,0,B|185:66|185:66|253:55,1,140,2|2,0:0|0:0,0:0:0:0:
331,22,56735,2,0,P|337:57|323:108,1,70,8|2,0:0|0:1,0:0:0:0:
295,166,57105,2,0,P|289:201|303:252,1,70,4|2,0:3|0:0,0:0:0:0:
370,271,57476,2,0,P|376:236|362:185,1,70,12|0,0:0|0:0,0:0:0:0:
407,127,57846,6,0,P|436:134|486:126,2,70,4|2|8,0:0|0:0|0:0,0:0:0:0:
331,90,58401,1,2,0:1:0:0:
331,90,58587,2,0,P|259:76|165:101,1,140,4|8,0:3|0:0,0:0:0:0:
123,133,59142,2,0,B|142:197|142:197|126:268,1,140,4|2,0:0|0:0,0:0:0:0:
81,340,59698,1,8,0:0:0:0:
26,276,59883,1,2,0:1:0:0:
26,276,60068,2,0,L|7:190,1,70,8|8,0:0|0:3,0:0:0:0:
39,128,60439,2,0,L|58:42,1,70,4|2,0:3|0:0,0:0:0:0:
136,44,60809,6,0,P|171:38|228:52,2,70,6|0|2,0:0|0:0|0:0,0:0:0:0:
172,119,61364,1,0,0:0:0:0:
172,119,61550,2,0,P|239:137|330:108,1,140,2|2,0:0|0:0,0:0:0:0:
370,176,62105,2,0,P|355:243|373:310,1,140,0|0,0:0|0:0,0:0:0:0:
450,350,62661,2,0,P|457:316|452:282,1,70,2|0,0:0|0:0,0:0:0:0:
373,310,63031,2,0,P|338:317|304:311,1,70,2|0,0:0|0:0,0:0:0:0:
240,257,63401,1,2,0:0:0:0:
79,206,63772,6,0,P|74:243|85:281,2,70,2|0|0,0:0|0:0|0:0,0:0:0:0:
128,138,64327,1,0,0:0:0:0:
206,108,64513,1,0,0:0:0:0:
206,108,64698,2,0,P|258:103|321:109,1,105,0|0,0:0|0:0,0:0:0:0:
349,121,65068,6,0,P|329:188|342:256,1,140,4|0,0:0|0:0,0:0:0:0:
414,299,65624,2,0,P|426:266|423:231,1,70,2|8,0:0|0:0,0:0:0:0:
349,121,65994,1,8,0:0:0:0:
326,201,66179,1,8,0:0:0:0:
413,159,66364,1,10,0:0:0:0:
320,105,66550,1,8,0:0:0:0:
231,234,66735,6,0,L|241:311,2,70,4|0|8,0:0|0:0|0:0,0:0:0:0:
221,151,67290,1,0,0:1:0:0:
300,182,67476,2,0,P|334:189|383:177,2,70,2|0|8,0:2|0:0|0:0,0:0:0:0:
336,106,68031,1,0,0:1:0:0:
336,106,68216,2,0,P|370:98|404:104,1,70,2|2,0:0|0:1,0:0:0:0:
452,173,68587,1,8,0:0:0:0:
452,173,68772,2,0,P|469:249|428:331,1,140,2|2,0:1|0:1,0:0:0:0:
379,353,69327,1,8,0:0:0:0:
309,315,69513,5,8,0:0:0:0:
309,315,69698,2,0,P|263:314|208:318,1,70,2|0,0:0|0:1,0:0:0:0:
166,357,70068,2,0,P|120:358|65:354,2,70,8|0|2,0:0|0:1|0:0,0:0:0:0:
238,315,70624,2,0,P|256:247|242:179,1,140,2|2,0:1|0:1,0:0:0:0:
165,146,71179,2,0,P|159:183|169:226,2,70,2|2|8,0:0|0:1|0:0,0:0:0:0:
195,67,71735,1,2,0:1:0:0:
270,102,71920,1,0,0:0:0:0:
339,54,72105,2,0,P|378:51|428:66,1,70,2|8,0:1|0:0,0:0:0:0:
469,115,72476,1,2,0:1:0:0:
469,115,72568,1,8,0:0:0:0:
469,115,72661,6,0,P|479:176|463:204,1,70,6|2,0:0|3:1,0:0:0:0:
499,262,73031,1,2,0:0:0:0:
499,262,73216,2,0,P|418:251|340:267,1,140,4|2,3:2|3:1,0:0:0:0:
295,312,73772,1,8,0:0:0:0:
215,351,73957,2,0,P|168:354|126:347,1,70,4|2,3:2|0:0,0:0:0:0:
147,267,74327,2,0,P|194:264|236:271,1,70,2|8,3:1|0:0,0:0:0:0:
79,304,74698,2,0,P|70:270|75:234,1,70,2|2,3:1|0:0,0:0:0:0:
100,156,75068,2,0,P|44:158|13:177,2,70,8|10|8,3:2|0:0|0:0,0:0:0:0:
175,193,75624,5,12,0:0:0:0:
216,266,75809,1,8,0:3:0:0:
226,91,76179,2,0,P|186:87|124:99,1,70,4|2,0:0|0:0,0:0:0:0:
100,156,76550,2,0,P|60:160|-2:148,1,70,12|2,0:0|0:0,0:0:0:0:
13,239,76920,2,0,P|38:298|5:385,1,140,4|8,0:0|0:0,0:0:0:0:
152,263,77661,2,0,P|223:248|308:274,1,140,10|10,0:2|0:3,0:0:0:0:
345,323,78216,1,8,0:3:0:0:
424,295,78401,1,8,0:3:0:0:
424,295,78494,1,8,0:3:0:0:
424,295,78587,6,0,L|420:210,1,70,4|2,0:0|0:0,0:0:0:0:
340,200,78957,2,0,L|349:38,1,140,4|2,0:0|0:0,0:0:0:0:
429,80,79513,2,0,P|464:82|510:72,2,70,2|8|0,0:0|0:0|0:0,0:0:0:0:
347,60,80068,2,0,P|310:53|262:58,1,70,2|2,0:0|0:0,0:0:0:0:
197,79,80439,1,8,0:0:0:0:
133,134,80624,2,0,L|91:133,2,35,2|8|2,0:2|0:0|0:0,0:0:0:0:
176,205,80994,2,0,P|193:259|166:365,1,140,2|2,0:0|0:0,0:0:0:0:
264,350,81550,6,0,P|299:354|333:348,1,70,6|2,0:0|0:0,0:0:0:0:
361,268,81920,2,0,P|344:214|371:108,1,140,12|2,0:0|0:0,0:0:0:0:
435,101,82476,2,0,P|467:108|510:99,2,70,2|8|0,0:0|0:0|0:0,0:0:0:0:
366,53,83031,1,2,0:0:0:0:
287,25,83216,1,2,0:0:0:0:
219,74,83401,1,8,0:0:0:0:
139,47,83587,2,0,P|125:117|162:202,1,140,2|2,0:0|0:0,0:0:0:0:
173,212,84050,1,2,0:0:0:0:
206,236,84142,2,0,P|254:240|295:229,1,70,6|8,0:0|0:3,0:0:0:0:
313,160,84513,6,0,P|355:156|402:167,1,70,4|2,0:0|3:1,0:0:0:0:
440,223,84883,1,0,0:0:0:0:
409,301,85068,2,0,P|374:306|339:301,1,70,4|2,3:2|0:0,0:0:0:0:
268,251,85439,2,0,P|264:203|275:162,1,70,2|8,3:1|0:0,0:0:0:0:
340,138,85809,2,0,P|388:134|429:145,1,70,4|2,3:2|0:2,0:0:0:0:
448,212,86179,2,0,P|400:216|359:205,1,70,2|8,3:1|0:0,0:0:0:0:
340,138,86550,2,0,P|305:133|270:138,1,70,2|2,3:1|0:0,0:0:0:0:
191,110,86920,1,2,3:1:0:0:
167,190,87105,1,6,2:2:0:0:
94,82,87290,1,8,3:3:0:0:
52,155,87476,6,0,L|58:245,1,70,6|8,0:0|0:0,0:0:0:0:
90,301,87846,1,10,0:0:0:0:
162,259,88031,2,0,L|168:169,1,70,8|2,0:3|0:0,0:0:0:0:
168,147,88309,1,8,0:3:0:0:
171,105,88401,2,0,L|177:15,1,70,4|2,0:3|0:0,0:0:0:0:
254,66,88772,2,0,P|319:81|390:55,2,140,12|12|2,0:0|0:0|0:2,0:0:0:0:
175,36,89698,5,2,0:0:0:0:
99,71,89883,1,8,0:3:0:0:
167,119,90068,1,4,0:3:0:0:
99,71,90253,1,2,0:0:0:0:
47,137,90439,6,0,P|32:200|83:268,1,140,4|0,0:0|0:0,0:0:0:0:
218,339,91179,1,2,0:1:0:0:
231,171,91550,1,0,0:0:0:0:
137,310,91920,1,2,0:0:0:0:
303,328,92290,1,2,0:1:0:0:
364,171,92661,2,0,P|288:188|213:159,1,140,2|0,0:1|0:0,0:0:0:0:
88,80,93401,6,0,P|105:155|76:230,1,140,4|2,0:0|0:0,0:0:0:0:
17,366,94142,1,2,0:0:0:0:
39,283,94327,1,0,0:0:0:0:
98,344,94513,1,2,0:0:0:0:
147,276,94698,2,0,P|215:261|289:275,1,140,4|8,0:0|0:3,0:0:0:0:
348,327,95253,1,2,0:0:0:0:
399,259,95439,2,0,P|384:191|397:117,1,140,2|2,0:0|0:0,0:0:0:0:
448,56,95994,1,2,0:0:0:0:
476,134,96179,1,2,0:0:0:0:
365,45,96364,5,12,0:0:0:0:
365,45,96550,1,12,0:0:0:0:
197,60,96920,1,12,0:0:0:0:
340,147,97290,1,12,0:0:0:0:
197,60,97661,2,0,P|140:117|146:178,1,140,4|6,0:0|0:0,0:0:0:0:
143,171,98124,1,0,0:0:0:0:
143,171,98216,1,0,0:0:0:0:
206,226,98401,2,0,P|272:210|351:231,1,140,6|8,0:2|0:3,0:0:0:0:
376,248,98864,1,8,0:3:0:0:
399,283,98957,2,0,P|403:327|395:354,1,70,4|0,0:3|0:0,0:0:0:0:
320,315,99327,5,4,0:0:0:0:
381,101,111179,6,0,P|415:105|481:90,2,70,4|0|0,0:1|0:0|0:0,0:0:0:0:
299,80,111735,1,0,0:0:0:0:
247,13,111920,2,0,L|158:16,1,70,0|0,0:0|0:0,0:0:0:0:
93,16,112290,1,0,0:0:0:0:
93,16,112476,2,0,P|112:87|84:171,1,140,0|0,0:0|0:0,0:0:0:0:
43,215,113031,2,0,P|20:180|17:140,1,70,0|0,0:0|0:0,0:0:0:0:
435,151,114142,6,0,P|430:116|435:81,2,70,2|0|0,0:0|0:0|0:0,0:0:0:0:
471,226,114698,1,0,0:0:0:0:
405,278,114883,2,0,B|337:264|337:264|268:279,1,140,0|0,0:0|0:0,0:0:0:0:
268,363,115439,2,0,B|336:377|336:377|422:358,1,140,0|0,0:0|0:0,0:0:0:0:
479,323,115994,1,0,0:0:0:0:
479,323,116179,1,0,0:0:0:0:
70,116,117105,6,0,P|29:117|-9:108,2,70,2|0|0,0:0|0:0|0:0,0:0:0:0:
150,89,117661,1,0,0:0:0:0:
179,167,117846,2,0,P|197:242|171:318,1,140,0|0,0:0|0:0,0:0:0:0:
100,324,118401,2,0,B|37:334|-9:322|-9:322|6:275,1,140,0|0,0:0|0:0,0:0:0:0:
22,211,118957,1,0,0:0:0:0:
22,211,119142,1,0,0:0:0:0:
213,312,120068,6,0,P|256:317|312:297,1,70,2|0,0:1|0:0,0:0:0:0:
358,277,120439,1,2,0:1:0:0:
358,277,120624,2,0,P|377:203|337:125,1,140,2|0,0:1|0:0,0:0:0:0:
276,118,121179,2,0,P|231:124|183:109,1,70,2|0,0:0|0:0,0:0:0:0:
135,74,121550,1,2,0:0:0:0:
24,162,121735,1,2,0:0:0:0:
52,83,121920,1,2,0:1:0:0:
94,212,122105,1,2,0:0:0:0:
94,212,122290,6,0,P|132:205|191:221,1,70,4|8,0:0|0:0,0:0:0:0:
162,209,122568,1,8,0:0:0:0:
162,209,122661,1,8,0:0:0:0:
244,273,122846,1,8,0:0:0:0:
244,273,122939,1,0,0:0:0:0:
244,273,123031,6,0,P|313:286|382:273,1,140,6|8,0:0|0:0,0:0:0:0:
457,237,123587,1,0,0:0:0:0:
457,237,123679,1,0,0:0:0:0:
457,237,123772,2,0,P|464:283|452:320,1,70,2|2,0:0|0:1,0:0:0:0:
380,273,124142,2,0,P|373:227|385:190,1,70,8|0,0:0|0:0,0:0:0:0:
403,124,124513,2,0,P|328:117|251:141,1,140,2|8,0:0|0:0,0:0:0:0:
241,213,125068,1,2,0:1:0:0:
172,260,125253,1,0,0:0:0:0:
87,252,125439,1,0,0:0:0:0:
13,212,125624,2,0,P|3:251|16:297,1,70,8|2,0:0|0:1,0:0:0:0:
95,177,125994,6,0,P|112:104|83:31,1,140,4|8,0:0|0:0,0:0:0:0:
169,10,126550,1,2,0:1:0:0:
215,79,126735,1,2,0:0:0:0:
215,79,126920,2,0,P|286:88|380:72,1,140,2|0,0:1|0:0,0:0:0:0:
425,36,127476,1,2,0:0:0:0:
465,109,127661,1,2,0:1:0:0:
420,180,127846,1,2,0:0:0:0:
467,249,128031,1,2,0:1:0:0:
432,325,128216,2,0,P|389:331|346:318,1,70,2|2,0:0|0:1,0:0:0:0:
304,265,128587,2,0,P|261:259|218:272,1,70,8|0,0:0|0:0,0:0:0:0:
162,305,128957,5,4,0:0:0:0:
97,358,129142,1,2,0:1:0:0:
32,304,129327,1,8,0:0:0:0:
94,182,129513,2,0,P|101:216|96:251,1,70,2|2,0:1|0:0,0:0:0:0:
18,220,129883,2,0,P|10:185|15:151,1,70,2|8,0:1|0:0,0:0:0:0:
94,182,130253,2,0,P|127:176|163:186,1,70,2|2,0:1|0:0,0:0:0:0:
192,262,130624,2,0,P|158:268|124:261,1,70,2|8,0:1|0:0,0:0:0:0:
244,197,130994,2,0,P|275:258|251:322,1,140,2|0,0:1|0:0,0:0:0:0:
192,262,131550,2,0,P|162:195|180:143,1,105,2|0,0:0|0:0,0:0:0:0:
192,132,131920,6,0,L|180:60,2,70,4|0|2,0:2|0:0|0:1,0:0:0:0:
108,118,132476,1,0,0:0:0:0:
108,118,132661,2,0,L|96:46,2,70,2|0|2,0:1|0:0|0:1,0:0:0:0:
24,122,133216,1,0,0:0:0:0:
17,206,133401,6,0,B|12:276|12:276|46:339,1,140,2|8,0:1|0:0,0:0:0:0:
112,286,133957,2,0,B|182:271|182:271|266:289,1,140,8|0,0:2|0:3,0:0:0:0:
322,327,134513,1,8,0:3:0:0:
396,288,134698,1,8,0:3:0:0:
442,217,134883,2,0,L|435:133,1,70,10|0,0:0|0:0,0:0:0:0:
363,104,135253,6,0,L|357:173,1,70,4|0,0:0|0:0,0:0:0:0:
294,230,135624,1,2,0:0:0:0:
233,171,135809,1,2,0:1:0:0:
164,218,135994,2,0,L|158:287,1,70,8|2,0:0|0:1,0:0:0:0:
212,351,136364,1,2,0:0:0:0:
288,314,136550,1,0,0:0:0:0:
361,354,136735,2,0,P|398:360|449:347,1,70,8|2,0:0|0:1,0:0:0:0:
489,295,137105,5,2,0:0:0:0:
419,248,137290,1,2,0:1:0:0:
481,191,137476,1,8,0:0:0:0:
409,147,137661,1,2,0:1:0:0:
349,206,137846,6,0,P|265:223|192:197,1,140,4|8,0:0|0:0,0:0:0:0:
167,139,138401,1,2,0:1:0:0:
212,67,138587,2,0,P|296:50|369:76,1,140,2|8,0:0|0:0,0:0:0:0:
392,134,139142,1,2,0:1:0:0:
349,206,139327,6,0,P|311:220|269:223,1,70,6|2,0:0|0:1,0:0:0:0:
234,293,139698,2,0,P|194:286|156:267,1,70,8|2,0:0|0:1,0:0:0:0:
91,311,140068,2,0,P|59:285|36:250,1,70,2|2,0:0|0:1,0:0:0:0:
6,185,140439,1,2,0:0:0:0:
55,117,140624,1,8,0:0:0:0:
55,117,140716,1,8,0:0:0:0:
55,117,140809,6,0,P|116:131|197:115,1,140,4|8,0:0|0:0,0:0:0:0:
264,77,141364,1,2,0:1:0:0:
322,138,141550,2,0,P|344:206|312:276,1,140,2|8,0:0|0:0,0:0:0:0:
261,327,142105,1,2,0:1:0:0:
178,313,142290,6,0,L|120:322,2,35,8|0|2,0:0|0:0|0:1,0:0:0:0:
128,244,142661,2,0,L|70:253,2,35,2|0|10,0:0|0:0|0:3,0:0:0:0:
189,187,143031,2,0,L|246:196,2,35,8|8|12,0:3|0:3|0:3,0:0:0:0:
112,152,143401,2,0,P|102:99|116:43,1,105,12|0,0:0|0:0,0:0:0:0:
139,16,143772,6,0,P|177:22|229:8,2,70,12|2|2,0:0|0:0|0:0,0:0:0:0:
56,3,144327,2,0,P|39:34|32:89,1,70,12|2,0:0|0:0,0:0:0:0:
27,151,144698,1,2,0:0:0:0:
62,227,144883,2,0,L|225:222,1,140,12|2,0:0|0:0,0:0:0:0:
286,225,145439,1,12,0:0:0:0:
334,156,145624,1,2,0:0:0:0:
250,149,145809,1,2,0:0:0:0:
370,232,145994,1,12,0:0:0:0:
418,163,146179,1,8,0:0:0:0:
383,86,146364,2,0,P|333:70|306:74,1,70,10|2,0:0|0:0,0:0:0:0:
334,156,146735,5,4,0:0:0:0:
256,320,148031,5,0,0:0:0:0:
160,224,149698,5,0,0:0:0:0:
68,348,150809,5,0,0:0:0:0:
68,348,150994,1,0,0:0:0:0:
96,92,151735,5,0,0:0:0:0:
256,192,152661,5,0,0:0:0:0:
256,192,152846,1,0,0:0:0:0:
435,125,153957,5,0,0:0:0:0:
317,38,155068,6,0,L|320:183,1,140,0|0,0:0|0:0,0:0:0:0:
270,247,155624,1,0,0:0:0:0:
270,247,155809,1,0,0:0:0:0:
186,273,156920,6,0,P|212:316|298:338,1,140,6|2,0:0|0:0,0:0:0:0:
377,325,157476,1,2,0:0:0:0:
438,267,157661,1,2,0:0:0:0:
466,187,157846,2,0,B|479:114|479:114|454:28,1,140,2|2,0:0|0:0,0:0:0:0:
393,100,158401,2,0,B|320:113|320:113|234:88,1,140,8|8,0:0|0:0,0:0:0:0:
195,36,158957,2,0,P|172:84|177:121,1,70,10|8,0:0|0:0,0:0:0:0:
218,169,159327,1,8,0:0:0:0:
256,94,159513,1,10,0:0:0:0:
134,174,159698,1,8,0:0:0:0:
291,212,159883,5,8,0:0:0:0:
67,102,160994,2,0,L|59:171,2,70,0|2|0,0:0|0:2|0:1,0:0:0:0:
113,31,161550,6,0,P|50:20|25:29,2,70,6|0|8,0:0|0:0|0:0,0:0:0:0:
180,80,162105,1,0,0:1:0:0:
180,80,162290,2,0,P|226:98|323:72,1,140,2|8,0:0|0:0,0:0:0:0:
375,24,162846,1,0,0:1:0:0:
375,24,163031,2,0,P|399:59|390:111,1,70,2|2,0:0|0:1,0:0:0:0:
391,169,163401,1,8,0:0:0:0:
391,169,163587,2,0,P|361:234|383:323,1,140,2|2,0:1|0:1,0:0:0:0:
206,336,164327,1,2,0:0:0:0:
206,336,164513,6,0,L|132:325,1,70,6|0,0:0|0:1,0:0:0:0:
71,272,164883,2,0,P|53:314|62:360,2,70,8|0|2,0:0|0:1|0:0,0:0:0:0:
150,242,165439,2,0,P|166:204|148:100,1,140,2|2,0:1|0:1,0:0:0:0:
72,83,165994,2,0,P|88:53|117:33,2,70,2|2|8,0:0|0:1|0:0,0:0:0:0:
53,165,166550,1,2,0:1:0:0:
85,242,166735,1,0,0:0:0:0:
159,277,166920,2,0,P|194:284|229:282,1,70,2|8,0:1|0:0,0:0:0:0:
292,227,167290,1,8,0:0:0:0:
292,227,167383,1,8,0:0:0:0:
292,227,167476,6,0,P|312:271|277:351,1,140,6|8,0:0|0:0,0:0:0:0:
194,357,168031,2,0,L|109:355,1,70,4|2,3:2|0:0,0:0:0:0:
59,301,168401,2,0,P|51:263|58:230,1,70,2|8,3:1|0:0,0:0:0:0:
133,196,168772,2,0,P|141:234|134:267,1,70,4|2,3:2|0:0,0:0:0:0:
63,147,169142,2,0,P|89:123|122:112,1,70,2|8,3:1|0:0,0:0:0:0:
206,114,169513,2,0,P|239:124|264:148,1,70,2|2,3:1|0:0,0:0:0:0:
314,216,169883,1,2,3:0:0:0:
322,299,170068,1,8,0:0:0:0:
263,359,170253,1,2,3:1:0:0:
194,310,170439,6,0,L|100:314,1,70,6|8,0:0|0:0,0:0:0:0:
64,155,170994,2,0,L|56:238,1,70,4|2,0:0|0:0,0:0:0:0:
145,181,171364,2,0,L|138:111,1,70,12|2,0:0|0:0,0:0:0:0:
194,48,171735,2,0,P|119:30|59:83,1,140,12|8,0:0|0:0,0:0:0:0:
217,144,172476,2,0,P|292:162|352:109,1,140,10|10,0:2|0:3,0:0:0:0:
325,46,173031,2,0,L|276:35,2,35,8|8|8,0:3|0:3|0:3,0:0:0:0:
409,56,173401,6,0,B|436:122|436:122|411:217,1,140,4|8,0:0|0:0,0:0:0:0:
377,262,173957,1,2,0:1:0:0:
377,262,174142,2,0,P|309:272|282:263,1,70,2|0,0:0|0:0,0:0:0:0:
261,202,174513,2,0,P|329:192|356:201,2,70,8|0|2,0:0|0:0|0:0,0:0:0:0:
210,268,175068,2,0,L|130:269,1,70,2|8,0:1|0:0,0:0:0:0:
90,200,175439,2,0,P|59:252|86:330,1,140,2|8,0:0|0:2,0:0:0:0:
144,378,175994,1,10,0:0:0:0:
218,337,176179,1,2,0:0:0:0:
218,337,176364,6,0,L|210:268,1,70,4|2,0:0|0:1,0:0:0:0:
169,193,176735,2,0,L|177:123,1,70,8|2,0:0|0:1,0:0:0:0:
221,52,177105,2,0,P|174:41|137:52,2,70,2|2|8,0:0|0:1|0:0,0:0:0:0:
276,115,177661,1,2,0:1:0:0:
276,115,177846,2,0,L|355:119,1,70,2|2,0:0|0:1,0:0:0:0:
404,58,178216,1,8,0:0:0:0:
404,58,178401,2,0,P|429:106|397:186,1,140,8|10,0:2|0:2,0:0:0:0:
350,250,178957,2,0,L|361:303,2,35,8|0|2,0:0|0:0|0:0,0:0:0:0:
272,218,179327,6,0,P|237:211|203:216,1,70,4|2,0:0|3:1,0:0:0:0:
123,188,179698,1,8,0:0:0:0:
123,188,179883,2,0,P|119:218|131:259,1,70,4|2,3:2|0:0,0:0:0:0:
203,216,180253,2,0,P|207:186|195:145,1,70,2|8,3:1|0:0,0:0:0:0:
167,68,180624,1,4,3:2:0:0:
114,133,180809,1,2,0:0:0:0:
196,147,180994,2,0,L|266:144,1,70,2|8,3:1|0:0,0:0:0:0:
302,67,181364,2,0,L|213:72,1,70,2|2,3:1|0:0,0:0:0:0:
266,144,181735,2,0,P|279:176|280:211,2,70,2|6|8,3:0|0:0|0:3,0:0:0:0:
232,70,182290,5,6,0:0:0:0:
232,70,182476,1,8,0:0:0:0:
80,140,182846,2,0,L|85:226,1,70,8|2,0:3|0:0,0:0:0:0:
163,236,183216,2,0,L|167:166,1,70,8|4,0:3|0:3,0:0:0:0:
137,86,183587,2,0,P|93:63|11:103,2,140,12|8|10,0:0|0:3|0:3,0:0:0:0:
167,166,184513,5,8,0:3:0:0:
237,120,184698,1,10,0:3:0:0:
293,181,184883,1,10,0:3:0:0:
359,129,185068,1,10,0:3:0:0:
430,173,185253,6,0,P|442:121|431:93,1,70,10|2,0:0|0:0,0:0:0:0:
359,129,185624,2,0,P|346:166|406:253,1,140,4|2,0:0|0:0,0:0:0:0:
476,243,186179,2,0,P|469:288|439:320,2,70,2|8|2,0:0|0:0|0:1,0:0:0:0:
487,159,186735,1,2,0:0:0:0:
459,79,186920,1,2,0:0:0:0:
378,53,187105,1,8,0:0:0:0:
378,53,187290,2,0,P|296:61|221:49,1,140,2|2,0:2|0:0,0:0:0:0:
171,2,187846,2,0,P|151:49|165:97,1,70,8|8,0:0|0:0,0:0:0:0:
186,143,188216,6,0,P|152:151|118:143,1,70,2|8,0:0|0:0,0:0:0:0:
257,87,188587,2,0,P|275:127|223:225,1,140,4|2,0:0|0:0,0:0:0:0:
189,278,189142,2,0,P|166:252|159:219,2,70,2|8|2,0:0|0:0|0:1,0:0:0:0:
243,212,189698,2,0,P|309:194|391:224,1,140,2|8,0:0|0:0,0:0:0:0:
428,278,190253,2,0,P|452:252|459:218,1,70,2|2,0:2|0:2,0:0:0:0:
376,213,190624,2,0,P|346:266|392:353,1,140,2|0,0:2|0:0,0:0:0:0:
295,376,191179,6,0,P|267:316|266:288,1,70,4|2,0:0|3:1,0:0:0:0:
259,229,191550,1,8,0:0:0:0:
181,260,191735,2,0,L|172:338,1,70,4|2,3:2|0:0,0:0:0:0:
100,371,192105,2,0,L|91:301,1,70,2|8,3:1|0:0,0:0:0:0:
81,217,192476,1,4,3:2:0:0:
143,161,192661,1,2,0:0:0:0:
218,197,192846,2,0,P|253:203|296:195,1,70,2|8,3:1|0:0,0:0:0:0:
323,122,193216,2,0,P|288:116|245:124,1,70,2|2,3:1|0:0,0:0:0:0:
286,198,193587,2,0,P|294:243|283:291,2,70,2|6|8,3:1|2:2|3:3,0:0:0:0:
254,120,194142,5,6,0:0:0:0:
254,120,194327,1,8,0:0:0:0:
410,56,194698,2,0,P|414:90|408:124,1,70,6|2,0:0|0:0,0:0:0:0:
339,171,195068,2,0,P|333:205|338:240,1,70,8|2,0:0|0:0,0:0:0:0:
369,318,195439,2,0,P|413:351|500:332,2,140,4|8|8,0:0|0:3|0:0,0:0:0:0:
338,240,196364,5,2,0:1:0:0:
283,304,196550,1,8,0:0:0:0:
226,366,196735,1,8,0:0:0:0:
170,303,196920,1,10,0:0:0:0:
115,239,197105,6,0,P|85:299|126:374,2,140,4|0|8,0:0|0:0|0:0,0:0:0:0:
186,86,198216,1,0,0:0:0:0:
281,224,198587,1,2,0:0:0:0:
126,159,198957,1,0,0:0:0:0:
293,143,199327,2,0,P|360:196|343:282,1,140,8|2,0:0|0:0,0:0:0:0:
219,333,200068,2,0,P|152:280|169:194,1,140,12|2,0:0|0:0,0:0:0:0:
199,69,200809,6,0,P|157:71|122:64,2,70,10|0|10,0:0|0:0|0:0,0:0:0:0:
275,34,201364,2,0,P|337:26|434:42,1,140,4|8,0:0|0:3,0:0:0:0:
483,82,201920,2,0,P|490:122|478:163,1,70,6|8,0:0|0:0,0:0:0:0:
440,221,202290,1,2,0:2:0:0:
400,118,202476,1,2,0:0:0:0:
483,150,202661,1,4,0:0:0:0:
316,121,203031,5,8,0:0:0:0:
316,121,203216,1,4,0:0:0:0:
149,142,203587,2,0,L|155:300,1,140,4|4,0:0|0:0,0:0:0:0:
309,345,204327,2,0,L|314:205,2,140,6|12|6,0:0|0:0|0:0,0:0:0:0:
154,281,205439,2,0,L|146:71,1,210,6|2,0:0|0:2,0:0:0:0:
256,192,206179,12,0,207476,0:0:0:0:
301,195,207846,5,0,0:0:0:0:
386,50,208216,1,0,0:0:0:0:
470,195,208587,1,2,0:0:0:0:
301,195,208957,6,0,P|222:180|135:213,1,140,4|8,0:0|0:0,0:0:0:0:
114,127,209513,2,0,P|86:229|147:273,1,140,2|0,0:1|0:0,0:0:0:0:
159,308,210068,1,8,0:0:0:0:
220,364,210253,1,2,0:1:0:0:
279,303,210439,2,0,P|311:313|362:305,2,70,2|0|8,0:0|0:0|0:0,0:0:0:0:
220,242,210994,1,0,0:0:0:0:
160,183,211179,1,2,0:0:0:0:
93,234,211364,1,2,0:1:0:0:
27,180,211550,2,0,L|31:80,1,70,8|0,0:0|0:0,0:0:0:0:
95,57,211920,6,0,P|161:80|263:59,1,140,6|8,0:0|0:0,0:0:0:0:
287,11,212476,2,0,P|315:65|271:149,1,140,2|0,0:1|0:0,0:0:0:0:
230,196,213031,1,8,0:0:0:0:
173,134,213216,1,2,0:1:0:0:
114,193,213401,2,0,P|71:181|32:185,2,70,2|0|8,0:0|0:0|0:0,0:0:0:0:
163,260,213957,1,2,0:1:0:0:
215,325,214142,2,0,L|297:328,1,70,2|8,0:0|0:0,0:0:0:0:
348,272,214513,2,0,L|430:269,1,70,2|8,0:0|0:0,0:0:0:0:
490,226,214883,6,0,P|499:286|487:313,2,70,4|0|8,0:0|0:0|0:0,0:0:0:0:
421,177,215439,2,0,L|251:183,1,140,2|0,0:1|0:0,0:0:0:0:
201,154,215994,2,0,P|194:196|209:229,1,70,8|2,0:0|0:1,0:0:0:0:
281,181,216364,2,0,P|288:139|273:106,1,70,8|2,0:0|0:1,0:0:0:0:
235,41,216735,2,0,P|193:34|160:49,1,70,2|8,0:0|0:3,0:0:0:0:
89,73,217105,1,12,0:3:0:0:
42,143,217290,1,8,0:3:0:0:
33,226,217476,1,4,0:0:0:0:
199,249,217846,6,0,P|265:239|345:264,1,140,12|2,0:0|0:0,0:0:0:0:
328,341,218401,2,0,P|262:351|182:326,1,140,12|2,0:0|0:0,0:0:0:0:
123,284,218957,2,0,P|113:218|138:138,1,140,12|2,0:0|0:0,0:0:0:0:
187,84,219513,1,12,0:0:0:0:
237,151,219698,1,2,0:0:0:0:
306,104,219883,1,0,0:0:0:0:
368,159,220068,6,0,P|402:165|455:156,1,70,8|10,0:0|0:0,0:0:0:0:
500,105,220439,1,10,0:0:0:0:
479,23,220624,1,12,0:0:0:0:
