osu file format v14

[General]
AudioFilename: audio.mp3
AudioLeadIn: 0
PreviewTime: 60136
Countdown: 0
SampleSet: Soft
StackLeniency: 0.5
Mode: 0
LetterboxInBreaks: 0
WidescreenStoryboard: 0

[Editor]
DistanceSpacing: 1.4
BeatDivisor: 4
GridSize: 8
TimelineZoom: 1.9

[Metadata]
Title:Sayounara, Hanadorobou-san
TitleUnicode:さようなら、花泥棒さん
Artist:sana
ArtistUnicode:鎖那
Creator:climbx3145
Version:Kuse's Hard
Source:
Tags:さな female utaite cover Good-bye, Ms. Floral Thief Sayonara (un)sentimental spica pop jpop j-pop japanese hatsune miku 初音ミク Vocaloid Kuse KuBsNia_ZhoYL_
BeatmapID:2701348
BeatmapSetID:1295063

[Difficulty]
HPDrainRate:4.5
CircleSize:3.5
OverallDifficulty:7
ApproachRate:7.8
SliderMultiplier:1.4
SliderTickRate:1

[Events]
//Background and Video events
0,0,"BG.jpg",0,0
//Break Periods
2,92101,102416
//Storyboard Layer 0 (Background)
//Storyboard Layer 1 (Fail)
//Storyboard Layer 2 (Pass)
//Storyboard Layer 3 (Foreground)
//Storyboard Layer 4 (Overlay)
//Storyboard Sound Samples

[TimingPoints]
1549,352.941176470588,4,1,2,40,1,0
3843,-100,4,2,1,40,0,0
4372,352.941176470588,4,1,2,40,1,0
4372,-100,4,2,1,70,0,0
26960,-117.647058823529,4,2,1,60,0,0
49548,-117.647058823529,4,2,1,70,0,0
60842,-86.9565217391304,4,2,1,80,0,1
83430,-100,4,2,1,70,0,0
91901,352.941176470588,4,1,2,40,1,0
91901,-100,4,2,1,70,0,0
103195,-117.647058823529,4,2,1,60,0,0
125783,-117.647058823529,4,2,1,70,0,0
137077,-86.9565217391304,4,2,1,80,0,1
159665,-100,4,2,1,70,0,0
168136,352.941176470588,4,1,2,40,1,0
168136,-117.647058823529,4,2,1,50,0,0
168488,-117.647058823529,4,1,2,40,0,0
173430,-117.647058823529,4,2,1,50,0,0
173783,-117.647058823529,4,2,1,50,0,0
193547,-117.647058823529,4,2,1,40,0,0
194959,-100,4,2,1,70,0,0
196371,-86.9565217391304,4,2,1,80,0,1
218959,-100,4,2,1,70,0,0
227430,352.941176470588,4,1,2,40,1,0
227430,-100,4,2,1,70,0,0
250018,-100,4,2,1,60,0,0

[Colours]
Combo1 : 255,172,214
Combo2 : 255,142,142
Combo3 : 255,255,145
Combo4 : 147,255,147

[HitObjects]
86,249,1549,5,10,0:0:0:0:
94,67,1901,1,10,0:0:0:0:
86,249,2254,1,10,0:0:0:0:
162,298,2431,1,10,0:0:0:0:
232,240,2607,2,0,L|309:251,1,70,10|0,0:0|0:0,0:0:0:0:
388,221,2960,6,0,B|384:172|384:172|349:142|349:142|344:85,2,140,10|8|10,0:0|0:0|0:0,0:0:0:0:
441,302,3843,1,0,1:2:0:0:
441,302,4019,2,0,P|415:347|359:353,1,105,10|0,0:0|0:0,0:0:0:0:
320,349,4372,6,0,L|327:264,1,70,6|2,1:2|0:0,0:0:0:0:
277,202,4724,1,10,0:0:0:0:
277,202,4901,1,10,0:0:0:0:
211,265,5077,2,0,P|146:257|110:186,1,140,2|10,1:2|0:0,0:0:0:0:
171,128,5607,1,2,1:2:0:0:
121,51,5783,6,0,L|194:36,1,70,2|0,0:0|1:2,0:0:0:0:
263,90,6136,2,0,L|347:110,1,70,10|8,0:0|0:0,0:0:0:0:
344,15,6489,2,0,L|259:-5,1,70,2|0,1:2|0:0,0:0:0:0:
189,36,6842,1,10,0:0:0:0:
55,160,7195,6,0,L|71:250,1,70,2|2,1:2|0:0,0:0:0:0:
92,321,7548,1,10,0:0:0:0:
92,321,7724,1,10,0:0:0:0:
156,256,7901,2,0,P|215:240|271:299,1,140,2|10,1:2|0:0,0:0:0:0:
299,375,8430,1,2,1:2:0:0:
367,313,8607,6,0,L|450:324,2,70,2|2|10,0:0|1:2|0:0,0:0:0:0:
327,230,9136,1,10,0:0:0:0:
398,173,9313,2,0,P|430:210|517:189,1,140,2|8,1:2|0:0,0:0:0:0:
424,34,10019,6,0,L|338:29,1,70,6|2,1:2|0:0,0:0:0:0:
289,93,10371,1,10,0:0:0:0:
289,93,10548,1,10,0:0:0:0:
213,43,10724,2,0,B|149:77|149:77|55:61,1,140,2|10,1:2|0:0,0:0:0:0:
3,112,11254,1,2,1:2:0:0:
82,155,11430,6,0,L|68:238,1,70,2|0,0:0|1:2,0:0:0:0:
11,294,11783,2,0,L|21:363,1,70,10|8,0:0|0:0,0:0:0:0:
111,379,12136,2,0,L|100:309,1,70,2|0,1:2|0:0,0:0:0:0:
70,224,12489,1,10,0:0:0:0:
198,352,12842,6,0,L|278:376,1,70,2|2,1:2|0:0,0:0:0:0:
289,286,13195,1,10,0:0:0:0:
289,286,13371,1,10,0:0:0:0:
356,347,13548,2,0,B|396:320|396:320|386:217,1,140,2|10,1:2|0:0,0:0:0:0:
324,161,14077,1,2,1:2:0:0:
392,101,14254,6,0,L|470:113,2,70,2|2|10,0:0|1:2|0:0,0:0:0:0:
320,43,14783,1,10,0:0:0:0:
255,107,14960,2,0,L|179:109,1,70,2|8,1:2|0:0,0:0:0:0:
166,198,15313,2,0,L|294:193,1,105,2|0,1:2|0:0,0:0:0:0:
314,228,15666,6,0,L|303:329,1,70,6|2,1:2|0:0,0:0:0:0:
258,376,16019,1,10,0:0:0:0:
258,376,16195,1,10,0:0:0:0:
215,295,16371,2,0,P|175:255|89:256,1,140,2|10,1:2|0:0,0:0:0:0:
25,197,16901,1,2,1:2:0:0:
81,126,17077,6,0,L|173:143,1,70,2|0,0:0|1:2,0:0:0:0:
232,178,17430,2,0,L|318:164,1,70,10|8,0:0|0:0,0:0:0:0:
293,75,17783,2,0,L|207:89,1,70,2|0,1:2|0:0,0:0:0:0:
149,138,18136,1,10,0:0:0:0:
226,302,18489,6,0,L|316:317,1,70,2|2,1:2|0:0,0:0:0:0:
390,313,18842,1,10,0:0:0:0:
390,313,19019,1,10,0:0:0:0:
336,239,19195,2,0,P|319:189|358:105,1,140,2|10,1:2|0:0,0:0:0:0:
406,39,19724,1,2,1:2:0:0:
453,116,19901,6,0,L|534:124,2,70,2|2|10,0:0|1:2|0:0,0:0:0:0:
400,191,20430,1,10,0:0:0:0:
350,111,20607,2,0,L|206:133,1,140,2|8,1:2|0:0,0:0:0:0:
43,59,21313,6,0,L|131:80,1,70,6|2,1:2|0:0,0:0:0:0:
124,165,21666,1,10,0:0:0:0:
124,165,21842,1,10,0:0:0:0:
55,225,22019,2,0,P|52:281|130:318,1,140,2|10,1:2|0:0,0:0:0:0:
190,264,22548,1,2,1:2:0:0:
262,318,22724,6,0,L|352:332,1,70,2|0,0:0|1:2,0:0:0:0:
408,280,23077,2,0,L|485:270,1,70,10|8,0:0|0:0,0:0:0:0:
482,362,23430,2,0,L|405:372,1,70,2|0,1:2|0:0,0:0:0:0:
331,328,23783,1,10,0:0:0:0:
196,205,24136,6,0,L|195:119,1,70,2|2,1:2|0:0,0:0:0:0:
257,66,24489,1,10,0:0:0:0:
257,66,24666,1,10,0:0:0:0:
326,124,24842,2,0,P|371:123|413:207,1,140,2|10,1:2|0:0,0:0:0:0:
352,263,25371,1,2,1:2:0:0:
426,315,25548,6,0,L|417:384,2,70,2|2|10,0:0|1:2|0:0,0:0:0:0:
352,263,26077,1,10,0:0:0:0:
285,325,26254,2,0,L|198:337,1,70,2|8,1:2|0:0,0:0:0:0:
141,281,26607,2,0,B|102:233|179:234|130:163,1,105,4|0,1:2|0:0,0:0:0:0:
141,147,26960,5,4,1:2:0:0:
294,56,27313,2,0,L|369:74,1,59.5000011348725,10|0,0:0|1:2,0:0:0:0:
413,134,27666,2,0,L|479:124,1,59.5000011348725,2|0,1:2|0:0,0:0:0:0:
512,205,28019,2,0,L|391:222,1,119.000002269745,10|0,0:0|0:0,0:0:0:0:
318,268,28548,1,0,1:2:0:0:
244,316,28724,5,10,0:0:0:0:
244,316,28901,1,2,1:2:0:0:
315,369,29077,2,0,L|399:384,1,59.5000011348725,2|0,1:2|0:0,0:0:0:0:
430,310,29430,2,0,L|303:282,1,119.000002269745,10|0,0:0|1:2,0:0:0:0:
215,158,30136,6,0,L|207:82,1,59.5000011348725,10|0,0:0|1:2,0:0:0:0:
120,86,30489,2,0,L|126:156,1,59.5000011348725,2|0,1:2|0:0,0:0:0:0:
84,224,30842,2,0,B|144:240|144:240|168:308,1,119.000002269745,10|0,0:0|0:0,0:0:0:0:
225,357,31371,1,0,1:2:0:0:
292,297,31548,5,10,0:0:0:0:
292,297,31724,1,0,1:2:0:0:
346,367,31901,2,0,L|413:359,1,59.5000011348725,2|0,1:2|0:0,0:0:0:0:
467,296,32254,2,0,L|458:192,1,89.2500017023087,10|0,0:0|0:0,0:0:0:0:
454,162,32607,5,0,1:2:0:0:
336,27,32960,2,0,L|249:38,1,59.5000011348725,10|0,0:0|1:2,0:0:0:0:
226,108,33313,2,0,L|139:119,1,59.5000011348725,2|0,1:2|0:0,0:0:0:0:
77,110,33666,2,0,B|62:169|62:169|92:220,1,119.000002269745,10|0,0:0|0:0,0:0:0:0:
147,288,34195,1,0,1:2:0:0:
222,241,34371,6,0,L|291:230,1,59.5000011348725,10|2,0:0|1:2,0:0:0:0:
364,275,34724,1,2,1:2:0:0:
364,275,34901,1,2,0:0:0:0:
439,227,35077,2,0,L|430:161,1,59.5000011348725,10|2,0:0|0:0,0:0:0:0:
371,100,35430,6,0,P|321:121|267:71,1,119.000002269745,2|8,1:2|0:0,0:0:0:0:
237,3,35960,1,2,1:2:0:0:
192,80,36136,2,0,P|151:66|97:127,1,119.000002269745,2|8,1:2|0:0,0:0:0:0:
53,189,36666,1,2,1:2:0:0:
124,242,36842,6,0,B|162:241|162:241|193:273|193:273|252:275,1,119.000002269745,2|8,0:0|0:0,0:0:0:0:
303,223,37371,1,2,1:2:0:0:
366,293,37548,1,10,0:0:0:0:
366,293,37724,1,0,1:2:0:0:
417,220,37901,2,0,B|398:178|398:178|411:115,1,89.2500017023087,8|0,0:0|0:0,0:0:0:0:
417,92,38254,5,4,1:2:0:0:
244,46,38607,2,0,L|255:125,1,59.5000011348725,10|0,0:0|1:2,0:0:0:0:
212,184,38960,2,0,L|223:263,1,59.5000011348725,2|0,1:2|0:0,0:0:0:0:
264,320,39313,2,0,P|228:353|151:334,1,119.000002269745,10|0,0:0|0:0,0:0:0:0:
87,295,39842,1,0,1:2:0:0:
94,205,40019,6,0,L|159:192,1,59.5000011348725,10|0,0:0|1:2,0:0:0:0:
218,133,40371,2,0,L|283:120,1,59.5000011348725,2|0,1:2|0:0,0:0:0:0:
298,34,40724,2,0,P|242:19|186:49,1,119.000002269745,10|0,0:0|1:2,0:0:0:0:
23,111,41430,6,0,L|15:33,1,59.5000011348725,10|0,0:0|1:2,0:0:0:0:
103,29,41783,2,0,L|110:104,1,59.5000011348725,2|0,1:2|0:0,0:0:0:0:
82,173,42136,2,0,B|87:211|87:211|125:245|125:245|133:296,1,119.000002269745,10|0,0:0|0:0,0:0:0:0:
131,364,42666,1,0,1:2:0:0:
205,314,42842,5,10,0:0:0:0:
205,314,43019,1,0,1:2:0:0:
282,357,43195,2,0,L|354:370,1,59.5000011348725,2|0,1:2|0:0,0:0:0:0:
405,305,43548,2,0,B|388:278|388:278|373:198,1,89.2500017023087,10|0,0:0|0:0,0:0:0:0:
368,177,43901,5,0,1:2:0:0:
282,20,44254,2,0,L|274:96,1,59.5000011348725,10|0,0:0|1:2,0:0:0:0:
221,150,44607,2,0,L|230:218,1,59.5000011348725,2|0,1:2|0:0,0:0:0:0:
185,287,44960,2,0,P|211:320|289:324,1,119.000002269745,10|0,0:0|0:0,0:0:0:0:
349,266,45489,1,0,1:2:0:0:
420,320,45666,6,0,L|490:296,1,59.5000011348725,10|2,0:0|1:2,0:0:0:0:
510,220,46019,1,2,1:2:0:0:
510,220,46195,1,2,0:0:0:0:
431,177,46371,1,10,0:0:0:0:
465,94,46548,1,2,0:0:0:0:
382,63,46724,6,0,P|333:63|308:136,1,119.000002269745,2|8,1:2|0:0,0:0:0:0:
356,191,47254,1,2,1:2:0:0:
267,194,47430,2,0,P|220:209|168:154,1,119.000002269745,2|8,1:2|0:0,0:0:0:0:
182,78,47960,1,2,1:2:0:0:
102,117,48136,6,0,L|24:130,1,59.5000011348725,2|0,0:0|1:2,0:0:0:0:
0,205,48489,2,0,L|12:274,1,59.5000011348725,8|2,0:0|1:2,0:0:0:0:
87,309,48842,1,10,1:2:0:0:
139,236,49019,1,4,0:3:0:0:
202,297,49195,1,8,0:3:0:0:
151,370,49371,1,8,0:3:0:0:
282,289,49548,6,0,B|332:275|330:355|405:342,1,119.000002269745,4|8,1:2|0:0,0:0:0:0:
444,288,50077,1,8,0:0:0:0:
444,288,50254,2,0,L|430:211,1,59.5000011348725,2|0,1:2|0:0,0:0:0:0:
487,165,50607,2,0,L|491:99,1,59.5000011348725,10|0,0:0|1:2,0:0:0:0:
410,88,50960,6,0,P|376:128|295:116,1,119.000002269745,2|8,0:0|0:0,0:0:0:0:
245,80,51489,1,8,0:0:0:0:
245,80,51666,2,0,L|162:92,1,59.5000011348725,2|0,1:2|0:0,0:0:0:0:
134,154,52019,2,0,L|146:232,1,59.5000011348725,10|0,0:0|0:0,0:0:0:0:
115,291,52371,6,0,B|153:296|153:296|187:325|187:325|238:331,1,119.000002269745,2|8,1:2|0:0,0:0:0:0:
300,297,52901,1,8,0:0:0:0:
300,297,53077,2,0,L|382:281,1,59.5000011348725,2|0,1:2|0:0,0:0:0:0:
439,267,53430,1,10,0:0:0:0:
383,204,53607,1,2,1:2:0:0:
425,132,53783,6,0,L|429:59,1,59.5000011348725,2|0,0:0|1:2,0:0:0:0:
374,8,54136,1,10,0:0:0:0:
374,8,54313,1,10,0:0:0:0:
299,44,54489,2,0,L|229:31,2,59.5000011348725,2|2|10,1:2|0:0|0:0,0:0:0:0:
344,114,55019,1,2,0:0:0:0:
254,195,55195,6,0,B|221:203|221:203|184:173|184:173|126:184,1,119.000002269745,6|8,1:2|0:0,0:0:0:0:
86,237,55724,1,10,0:0:0:0:
86,237,55901,2,0,L|93:313,1,59.5000011348725,2|0,1:2|0:0,0:0:0:0:
147,358,56254,1,10,0:0:0:0:
213,307,56430,1,2,1:2:0:0:
289,340,56607,6,0,P|328:302|312:220,1,119.000002269745,2|8,0:0|0:0,0:0:0:0:
269,180,57136,1,10,0:0:0:0:
269,180,57313,2,0,L|277:113,1,59.5000011348725,2|0,1:2|0:0,0:0:0:0:
293,39,57666,1,8,0:0:0:0:
415,152,58019,5,6,1:3:0:0:
392,316,58371,1,6,1:3:0:0:
415,152,58724,2,0,L|489:147,2,59.5000011348725,6|6|2,1:3|1:3|0:0,0:0:0:0:
349,204,59254,1,6,1:3:0:0:
296,139,59430,2,0,P|247:98|183:115,1,119.000002269745,6|0,1:3|0:0,0:0:0:0:
43,173,60136,6,2,P|48:143|94:209,1,208.250003972054,2|0,0:1|0:0,0:1:0:0:
69,248,60842,6,0,L|81:350,1,80.5000015354157,6|0,1:2|0:0,0:0:0:0:
171,355,61195,2,0,L|181:262,1,80.5000015354157,10|0,0:0|0:0,0:0:0:0:
252,211,61548,2,0,L|236:122,1,80.5000015354157,2|0,1:2|0:0,0:0:0:0:
322,85,61901,2,0,L|340:184,1,80.5000015354157,10|0,0:0|0:0,0:0:0:0:
416,263,62254,6,0,L|497:277,2,80.5000015354157,2|2|10,1:2|0:0|0:0,0:0:0:0:
347,331,62783,1,2,0:0:0:0:
274,267,62960,2,0,L|186:288,1,80.5000015354157,2|2,1:2|0:0,0:0:0:0:
120,346,63313,1,10,0:0:0:0:
120,346,63489,1,2,0:0:0:0:
49,245,63666,6,0,L|58:149,1,80.5000015354157,2|0,1:2|0:0,0:0:0:0:
133,105,64019,2,0,L|155:192,1,80.5000015354157,10|0,0:0|0:0,0:0:0:0:
244,211,64371,2,0,L|334:224,1,80.5000015354157,2|0,1:2|0:0,0:0:0:0:
331,125,64724,2,0,L|237:115,1,80.5000015354157,10|0,0:0|0:0,0:0:0:0:
133,105,65077,6,0,P|69:106|40:194,1,161.000003070831,2|10,1:2|0:0,0:0:0:0:
112,249,65607,1,2,0:0:0:0:
68,334,65783,2,0,L|-13:346,2,80.5000015354157,2|2|10,1:2|0:0|0:0,0:0:0:0:
157,373,66313,1,2,0:0:0:0:
198,243,66489,6,0,B|245:250|245:250|289:295|289:295|350:303,1,161.000003070831,6|8,1:2|0:0,0:0:0:0:
420,354,67019,1,2,0:0:0:0:
480,279,67195,2,0,P|477:212|409:188,1,120.750002303124,2|0,1:2|0:0,0:0:0:0:
402,155,67548,2,0,L|406:72,1,80.5000015354157,10|0,0:0|0:0,0:0:0:0:
322,25,67901,6,0,P|258:35|245:123,1,161.000003070831,2|8,1:2|0:0,0:0:0:0:
300,196,68430,1,2,0:0:0:0:
221,252,68607,2,0,B|151:273|147:191|68:219,1,161.000003070831,2|8,1:2|0:0,0:0:0:0:
6,146,69136,5,2,0:0:0:0:
75,78,69313,1,2,1:2:0:0:
75,78,69489,2,0,L|169:93,1,80.5000015354157,2|10,0:0|0:0,0:0:0:0:
239,44,69842,2,0,L|326:29,1,80.5000015354157,2|0,0:0|1:2,0:0:0:0:
396,88,70195,5,2,0:0:0:0:
328,157,70371,1,10,0:0:0:0:
328,157,70548,2,0,L|320:248,1,80.5000015354157,2|2,0:0|1:2,0:0:0:0:
251,305,70901,2,0,L|264:387,1,80.5000015354157,2|8,0:0|0:0,0:0:0:0:
449,323,71430,1,2,1:2:0:0:
449,323,71607,1,2,0:0:0:0:
401,239,71783,1,10,0:0:0:0:
445,155,71960,1,10,0:0:0:0:
445,155,72048,1,8,0:0:0:0:
445,155,72136,6,0,L|433:53,1,80.5000015354157,6|0,1:2|0:0,0:0:0:0:
343,48,72489,2,0,L|333:141,1,80.5000015354157,10|0,0:0|0:0,0:0:0:0:
262,192,72842,2,0,L|278:281,1,80.5000015354157,2|0,1:2|0:0,0:0:0:0:
192,318,73195,2,0,L|174:219,1,80.5000015354157,10|0,0:0|0:0,0:0:0:0:
115,164,73548,6,0,L|127:79,2,80.5000015354157,2|2|10,1:2|0:0|0:0,0:0:0:0:
50,236,74077,1,2,0:0:0:0:
111,310,74254,2,0,L|196:318,1,80.5000015354157,2|2,1:2|0:0,0:0:0:0:
280,275,74607,1,10,0:0:0:0:
280,275,74783,1,2,0:0:0:0:
197,176,74960,6,0,L|210:84,1,80.5000015354157,2|0,1:2|0:0,0:0:0:0:
297,58,75313,2,0,L|316:153,1,80.5000015354157,10|0,0:0|0:0,0:0:0:0:
393,190,75666,2,0,L|378:290,1,80.5000015354157,2|0,1:2|0:0,0:0:0:0:
477,282,76019,2,0,L|488:195,1,80.5000015354157,10|0,0:0|0:0,0:0:0:0:
431,84,76371,6,0,B|460:101|460:101|523:97,2,80.5000015354157,2|2|10,1:2|0:0|0:0,0:0:0:0:
365,11,76901,1,2,0:0:0:0:
293,75,77077,2,0,B|251:80|251:80|192:57|192:57|129:67,1,161.000003070831,2|10,1:2|0:0,0:0:0:0:
73,138,77606,1,2,0:0:0:0:
192,160,77783,6,0,B|211:196|198:230|198:230|150:258|145:319,1,161.000003070831,6|8,1:2|0:0,0:0:0:0:
221,363,78313,1,2,0:0:0:0:
276,284,78489,2,0,P|311:322|405:312,1,120.750002303124,2|0,1:2|0:0,0:0:0:0:
401,285,78842,2,0,L|388:185,1,80.5000015354157,10|0,0:0|0:0,0:0:0:0:
369,110,79195,6,0,B|325:118|325:118|279:166|279:166|217:174,1,161.000003070831,2|8,1:2|0:0,0:0:0:0:
179,89,79724,1,2,0:0:0:0:
122,166,79901,2,0,P|143:202|72:277,1,161.000003070831,2|8,1:2|0:0,0:0:0:0:
5,209,80430,5,2,0:0:0:0:
47,124,80607,1,2,1:2:0:0:
47,124,80783,2,0,L|40:30,1,80.5000015354157,2|10,0:0|0:0,0:0:0:0:
131,10,81136,2,0,L|138:95,1,80.5000015354157,2|0,0:0|1:2,0:0:0:0:
210,153,81489,5,2,0:0:0:0:
296,108,81666,1,10,0:0:0:0:
296,108,81842,2,0,L|390:119,1,80.5000015354157,2|2,0:0|1:2,0:0:0:0:
385,213,82195,2,0,L|294:199,1,80.5000015354157,2|8,0:0|0:0,0:0:0:0:
147,311,82724,1,2,1:2:0:0:
147,311,82901,1,2,0:0:0:0:
49,274,83077,1,10,0:0:0:0:
128,206,83254,1,10,0:0:0:0:
128,206,83342,1,8,0:0:0:0:
128,206,83430,6,0,P|185:209|250:287,1,140,6|8,1:2|0:0,0:0:0:0:
272,350,83960,1,10,0:0:0:0:
335,285,84136,2,0,P|399:287|449:214,1,140,2|8,1:2|0:0,0:0:0:0:
381,169,84666,1,2,1:2:0:0:
448,108,84842,6,0,L|460:26,2,70,2|0|8,0:0|1:2|0:0,0:0:0:0:
381,169,85371,1,8,0:0:0:0:
338,88,85548,2,0,L|249:73,1,70,2|2,1:2|0:0,0:0:0:0:
179,60,85901,1,10,0:0:0:0:
22,152,86254,6,0,P|66:144|114:218,1,140,2|8,1:2|0:0,0:0:0:0:
65,291,86783,1,10,0:0:0:0:
137,346,86960,2,0,P|190:372|265:306,1,140,2|10,1:2|0:0,0:0:0:0:
299,255,87489,6,0,L|282:185,1,70,2|0,1:2|0:0,0:0:0:0:
219,121,87842,2,0,L|231:35,1,70,2|8,1:2|0:0,0:0:0:0:
310,8,88195,1,10,0:0:0:0:
310,8,88371,2,0,P|365:7|404:103,1,140,0|8,1:2|0:0,0:0:0:0:
438,266,89077,6,0,B|443:220|443:220|475:184|475:184|485:116,1,140,6|8,1:2|0:0,0:0:0:0:
414,75,89607,1,10,0:0:0:0:
414,75,89783,2,0,L|332:94,1,70,2|8,1:2|0:0,0:0:0:0:
258,117,90136,1,8,0:0:0:0:
202,44,90313,1,10,0:0:0:0:
97,99,90489,5,2,1:2:0:0:
114,280,90842,1,10,1:2:0:0:
97,99,91195,2,0,L|49:85,3,35,2|8|8|8,1:2|0:0|0:0|0:0,0:0:0:0:
114,126,91548,2,0,L|159:115,3,35,2|8|8|8,1:2|0:0|0:0|0:0,0:0:0:0:
93,160,91901,5,6,1:2:0:0:
372,144,103195,5,4,1:2:0:0:
281,33,103548,2,0,L|288:102,1,59.5000011348725,10|0,0:0|1:2,0:0:0:0:
227,158,103901,2,0,L|237:229,1,59.5000011348725,2|0,1:2|0:0,0:0:0:0:
293,285,104253,2,0,B|351:301|351:301|410:268,1,119.000002269745,10|0,0:0|0:0,0:0:0:0:
476,222,104783,1,0,1:2:0:0:
416,163,104959,5,10,0:0:0:0:
416,163,105136,1,0,1:2:0:0:
461,86,105312,2,0,L|449:23,1,59.5000011348725,2|0,1:2|0:0,0:0:0:0:
378,75,105665,2,0,B|326:106|326:106|256:97,1,119.000002269745,10|0,0:0|1:2,0:0:0:0:
145,228,106371,6,0,L|153:152,1,59.5000011348725,10|0,0:0|1:2,0:0:0:0:
135,80,106724,2,0,L|141:14,1,59.5000011348725,2|0,1:2|0:0,0:0:0:0:
228,5,107077,2,0,L|215:130,1,119.000002269745,10|0,0:0|0:0,0:0:0:0:
264,198,107606,1,0,1:2:0:0:
196,256,107783,5,10,0:0:0:0:
196,256,107959,1,0,1:2:0:0:
239,333,108136,2,0,L|323:344,1,59.5000011348725,2|0,1:2|0:0,0:0:0:0:
358,287,108489,2,0,L|367:183,1,89.2500017023087,10|0,0:0|0:0,0:0:0:0:
369,153,108842,5,0,1:2:0:0:
263,8,109195,2,0,L|350:19,1,59.5000011348725,10|0,0:0|1:2,0:0:0:0:
391,71,109548,2,0,L|478:82,1,59.5000011348725,2|0,1:2|0:0,0:0:0:0:
511,143,109900,2,0,B|526:202|526:202|496:253,1,119.000002269745,10|0,0:0|0:0,0:0:0:0:
434,316,110430,1,0,1:2:0:0:
366,257,110606,6,0,L|297:246,1,59.5000011348725,10|2,0:0|1:2,0:0:0:0:
248,187,110959,1,2,1:2:0:0:
248,187,111136,1,2,0:0:0:0:
173,235,111312,2,0,L|164:293,1,59.5000011348725,10|2,0:0|0:0,0:0:0:0:
82,329,111665,6,0,P|40:281|60:213,1,119.000002269745,2|8,1:2|0:0,0:0:0:0:
113,169,112195,1,2,1:2:0:0:
173,235,112371,2,0,P|215:187|195:119,1,119.000002269745,2|8,1:2|0:0,0:0:0:0:
145,70,112900,1,2,1:2:0:0:
216,17,113077,6,0,B|277:15|267:74|344:50,1,119.000002269745,2|8,0:0|0:0,0:0:0:0:
413,49,113606,1,2,1:2:0:0:
421,138,113783,1,10,0:0:0:0:
421,138,113959,1,0,1:2:0:0:
331,144,114136,2,0,B|312:186|312:186|325:249,1,89.2500017023087,8|0,0:0|0:0,0:0:0:0:
332,271,114489,5,4,1:2:0:0:
495,199,114842,2,0,L|484:278,1,59.5000011348725,10|0,0:0|1:2,0:0:0:0:
410,305,115195,2,0,L|399:384,1,59.5000011348725,2|0,1:2|0:0,0:0:0:0:
320,326,115548,2,0,P|274:290|218:301,1,119.000002269745,10|0,0:0|0:0,0:0:0:0:
140,344,116077,1,0,1:2:0:0:
75,282,116253,6,0,L|85:205,1,59.5000011348725,10|2,0:0|1:2,0:0:0:0:
144,159,116606,2,0,L|154:82,1,59.5000011348725,2|0,1:2|0:0,0:0:0:0:
203,27,116959,2,0,P|259:12|315:42,1,119.000002269745,10|0,0:0|1:2,0:0:0:0:
461,136,117665,6,0,L|393:144,1,59.5000011348725,10|0,0:0|1:2,0:0:0:0:
377,229,118018,2,0,L|442:223,1,59.5000011348725,2|0,1:2|0:0,0:0:0:0:
482,304,118371,2,0,P|447:344|363:346,1,119.000002269745,10|0,0:0|0:0,0:0:0:0:
314,297,118900,1,0,1:2:0:0:
250,359,119077,5,10,0:0:0:0:
250,359,119253,1,0,1:2:0:0:
179,305,119430,2,0,L|184:223,1,59.5000011348725,2|0,1:2|0:0,0:0:0:0:
123,178,119783,2,0,B|26:191,1,89.2500017023087,10|0,0:0|0:0,0:0:0:0:
0,194,120136,5,0,1:2:0:0:
46,366,120489,2,0,L|125:353,1,59.5000011348725,10|0,0:0|1:2,0:0:0:0:
179,305,120842,2,0,L|251:290,1,59.5000011348725,2|0,1:2|0:0,0:0:0:0:
281,215,121195,2,0,P|307:182|385:178,1,119.000002269745,10|0,0:0|0:0,0:0:0:0:
450,230,121724,1,0,1:2:0:0:
497,154,121900,6,0,L|510:75,1,59.5000011348725,10|2,0:0|1:2,0:0:0:0:
446,35,122253,1,2,1:2:0:0:
446,35,122430,1,2,0:0:0:0:
382,97,122606,1,10,0:0:0:0:
298,64,122783,1,2,0:0:0:0:
265,147,122959,6,0,P|234:192|154:183,1,119.000002269745,2|8,1:2|0:0,0:0:0:0:
120,123,123489,1,2,1:2:0:0:
81,203,123665,2,0,P|22:212|4:272,1,119.000002269745,2|8,1:2|0:0,0:0:0:0:
53,336,124195,1,2,1:2:0:0:
127,287,124371,6,0,L|205:300,1,59.5000011348725,2|0,0:0|1:2,0:0:0:0:
262,343,124724,2,0,L|272:284,1,59.5000011348725,8|2,0:0|1:2,0:0:0:0:
221,210,125077,1,10,1:2:0:0:
285,147,125253,1,4,0:3:0:0:
219,87,125430,1,8,0:3:0:0:
158,152,125606,1,8,0:3:0:0:
114,48,125783,6,0,P|164:47|220:89,1,119.000002269745,4|8,1:2|0:0,0:0:0:0:
289,151,126312,1,8,0:0:0:0:
289,151,126489,2,0,L|303:74,1,59.5000011348725,2|0,1:2|0:0,0:0:0:0:
387,77,126842,2,0,L|398:144,1,59.5000011348725,10|0,0:0|1:2,0:0:0:0:
454,204,127195,6,0,L|437:333,1,119.000002269745,2|8,0:0|0:0,0:0:0:0:
364,372,127724,1,8,0:0:0:0:
364,372,127900,2,0,L|305:363,1,59.5000011348725,2|0,1:2|0:0,0:0:0:0:
227,319,128253,2,0,L|156:333,1,59.5000011348725,10|0,0:0|0:0,0:0:0:0:
98,274,128606,6,0,P|118:232|203:223,1,119.000002269745,2|8,1:2|0:0,0:0:0:0:
276,235,129136,1,8,0:0:0:0:
276,235,129312,2,0,L|280:173,1,59.5000011348725,2|0,1:2|0:0,0:0:0:0:
331,102,129665,1,10,0:0:0:0:
410,143,129842,1,0,1:2:0:0:
365,220,130018,6,0,L|361:294,1,59.5000011348725,2|0,0:0|1:2,0:0:0:0:
425,349,130371,1,10,0:0:0:0:
425,349,130548,1,10,0:0:0:0:
479,278,130724,2,0,L|541:289,2,59.5000011348725,2|2|10,1:2|0:0|0:0,0:0:0:0:
447,194,131253,1,2,0:0:0:0:
496,119,131430,6,0,P|455:78|377:95,1,119.000002269745,6|8,1:2|0:0,0:0:0:0:
328,137,131959,1,10,0:0:0:0:
328,137,132136,2,0,L|246:160,1,59.5000011348725,2|0,1:2|0:0,0:0:0:0:
186,183,132489,1,10,0:0:0:0:
230,260,132665,1,2,1:2:0:0:
179,334,132842,6,0,P|119:340|76:300,1,119.000002269745,2|8,0:0|0:0,0:0:0:0:
108,221,133371,1,10,0:0:0:0:
108,221,133548,2,0,L|100:154,1,59.5000011348725,2|0,1:2|0:0,0:0:0:0:
85,74,133900,1,8,0:0:0:0:
254,17,134253,5,6,1:3:0:0:
230,193,134606,1,6,1:3:0:0:
254,17,134959,2,0,L|328:12,2,59.5000011348725,6|6|2,1:3|1:3|0:0,0:0:0:0:
207,94,135489,1,6,1:3:0:0:
287,131,135665,2,0,P|345:126|387:61,1,119.000002269745,6|8,1:3|0:0,0:0:0:0:
487,227,136371,6,0,L|497:273,3,29.7500005674362,10|8|10|8,0:0|0:0|0:0|0:0,0:0:0:0:
460,200,136724,2,0,L|464:170,3,29.7500005674362,2|8|10|8,1:2|0:0|0:0|0:0,0:0:0:0:
428,219,137077,6,0,L|344:238,1,80.5000015354157,6|0,1:2|0:0,0:0:0:0:
273,177,137430,2,0,L|176:160,1,80.5000015354157,10|0,0:0|0:0,0:0:0:0:
140,244,137783,2,0,L|154:323,1,80.5000015354157,2|0,1:2|0:0,0:0:0:0:
247,349,138136,2,0,L|261:269,1,80.5000015354157,10|0,0:0|0:0,0:0:0:0:
285,175,138489,6,0,P|326:131|448:158,1,161.000003070831,2|10,1:2|0:0,0:0:0:0:
489,202,139018,1,2,0:0:0:0:
425,274,139195,2,0,L|330:251,1,80.5000015354157,2|2,1:2|0:0,0:0:0:0:
289,179,139548,1,10,0:0:0:0:
289,179,139724,1,2,0:0:0:0:
256,300,139900,6,0,L|166:321,1,80.5000015354157,2|0,1:2|0:0,0:0:0:0:
117,241,140253,2,0,L|21:227,1,80.5000015354157,10|0,0:0|0:0,0:0:0:0:
0,140,140606,2,0,L|20:34,1,80.5000015354157,2|0,1:2|0:0,0:0:0:0:
111,61,140959,2,0,L|125:146,1,80.5000015354157,10|0,0:0|0:0,0:0:0:0:
232,188,141312,6,0,P|188:170|118:254,1,161.000003070831,2|10,1:2|0:0,0:0:0:0:
182,312,141842,1,2,0:0:0:0:
272,277,142018,2,0,L|368:289,2,80.5000015354157,2|2|10,1:2|0:0|0:0,0:0:0:0:
232,188,142548,1,2,0:0:0:0:
338,130,142724,6,0,P|426:142|455:229,1,161.000003070831,6|8,1:2|0:0,0:0:0:0:
447,296,143253,1,2,0:0:0:0:
351,286,143430,2,0,L|340:371,1,80.5000015354157,2|0,1:2|0:0,0:0:0:0:
243,363,143783,2,0,L|235:269,1,80.5000015354157,10|0,0:0|0:0,0:0:0:0:
238,185,144136,6,0,P|173:206|139:291,1,161.000003070831,2|8,1:2|0:0,0:0:0:0:
86,368,144665,1,2,0:0:0:0:
49,278,144842,2,0,B|65:206|-17:208|4:131,1,161.000003070831,2|8,1:2|0:0,0:0:0:0:
64,56,145371,5,2,0:0:0:0:
128,135,145548,1,2,1:2:0:0:
128,135,145724,2,0,L|222:150,1,80.5000015354157,2|10,0:0|0:0,0:0:0:0:
266,70,146077,2,0,L|353:55,1,80.5000015354157,2|0,0:0|1:2,0:0:0:0:
427,107,146430,5,2,0:0:0:0:
360,176,146606,1,10,0:0:0:0:
360,176,146783,2,0,L|352:267,1,80.5000015354157,2|2,0:0|1:2,0:0:0:0:
436,305,147136,2,0,L|449:387,1,80.5000015354157,2|8,0:0|0:0,0:0:0:0:
274,313,147665,1,2,1:2:0:0:
274,313,147842,1,2,0:0:0:0:
352,256,148018,1,10,0:0:0:0:
276,200,148195,1,10,0:0:0:0:
276,200,148283,1,8,0:0:0:0:
276,200,148371,6,0,L|173:179,1,80.5000015354157,6|0,1:2|0:0,0:0:0:0:
138,261,148724,2,0,L|37:289,1,80.5000015354157,10|0,0:0|0:0,0:0:0:0:
4,204,149077,2,0,L|-13:122,1,80.5000015354157,2|0,1:2|0:0,0:0:0:0:
82,104,149430,2,0,L|98:185,1,80.5000015354157,10|0,0:0|0:0,0:0:0:0:
197,183,149783,6,0,P|262:194|334:119,1,161.000003070831,2|10,1:2|0:0,0:0:0:0:
271,57,150312,1,2,0:0:0:0:
357,12,150489,2,0,L|442:20,1,80.5000015354157,2|2,1:2|0:0,0:0:0:0:
510,90,150842,1,10,0:0:0:0:
510,90,151018,1,2,0:0:0:0:
411,160,151195,6,0,L|430:251,1,80.5000015354157,2|0,1:2|0:0,0:0:0:0:
351,298,151548,2,0,L|335:376,1,80.5000015354157,10|0,0:0|0:0,0:0:0:0:
246,340,151900,2,0,L|234:260,1,80.5000015354157,2|0,1:2|0:0,0:0:0:0:
314,206,152253,2,0,L|326:113,1,80.5000015354157,10|0,0:0|0:0,0:0:0:0:
268,46,152606,6,0,B|174:29,2,80.5000015354157,2|2|10,1:2|0:0|0:0,0:0:0:0:
324,126,153136,1,2,0:0:0:0:
390,56,153312,2,0,L|495:38,1,80.5000015354157,2|2,1:2|0:0,0:0:0:0:
500,133,153665,2,0,L|412:149,1,80.5000015354157,10|2,0:0|0:0,0:0:0:0:
341,246,154018,6,0,B|295:258|295:258|238:221|238:221|165:241,1,161.000003070831,6|8,1:2|0:0,0:0:0:0:
111,284,154548,1,2,0:0:0:0:
38,220,154724,2,0,P|79:156|143:165,1,120.750002303124,2|0,1:2|0:0,0:0:0:0:
161,131,155077,2,0,L|174:32,1,80.5000015354157,10|0,0:0|0:0,0:0:0:0:
258,9,155430,6,0,B|302:17|302:17|348:65|348:65|410:73,1,161.000003070831,2|8,1:2|0:0,0:0:0:0:
479,122,155959,1,2,0:0:0:0:
392,165,156136,2,0,P|316:202|309:280,1,161.000003070831,2|8,1:2|0:0,0:0:0:0:
323,366,156665,5,2,0:0:0:0:
235,336,156842,1,2,1:2:0:0:
235,336,157018,2,0,L|146:346,1,80.5000015354157,2|10,0:0|0:0,0:0:0:0:
123,253,157371,2,0,L|205:244,1,80.5000015354157,2|0,0:0|1:2,0:0:0:0:
279,184,157724,5,2,0:0:0:0:
212,121,157900,1,10,0:0:0:0:
212,121,158077,2,0,L|217:35,1,80.5000015354157,2|2,0:0|1:2,0:0:0:0:
311,18,158430,2,0,L|308:109,1,80.5000015354157,2|8,0:0|0:0,0:0:0:0:
370,286,158959,1,2,1:2:0:0:
370,286,159136,1,2,0:0:0:0:
307,212,159312,1,10,0:0:0:0:
410,202,159489,1,10,0:0:0:0:
410,202,159577,1,8,0:0:0:0:
410,202,159665,6,0,P|452:127|443:64,1,140,6|8,1:2|0:0,0:0:0:0:
390,3,160195,1,10,0:0:0:0:
341,79,160371,2,0,B|268:105|272:30|203:60,1,140,2|8,1:2|0:0,0:0:0:0:
133,106,160900,1,2,1:2:0:0:
191,176,161077,6,0,L|272:159,2,70,2|0|8,0:0|1:2|0:0,0:0:0:0:
131,245,161606,1,8,0:0:0:0:
221,259,161783,2,0,L|301:241,1,70,2|2,1:2|0:0,0:0:0:0:
344,171,162136,1,10,0:0:0:0:
485,285,162489,6,0,P|444:352|380:355,1,140,2|8,1:2|0:0,0:0:0:0:
302,327,163018,1,10,0:0:0:0:
375,272,163195,2,0,L|383:124,1,140,2|10,1:2|0:0,0:0:0:0:
316,68,163724,6,0,L|214:80,1,70,2|0,1:2|0:0,0:0:0:0:
166,120,164077,2,0,L|157:33,1,70,2|8,1:2|0:0,0:0:0:0:
78,18,164430,1,10,0:0:0:0:
78,18,164606,2,0,P|23:65|27:130,1,140,0|8,1:2|0:0,0:0:0:0:
208,133,165312,6,0,B|162:143|162:143|131:179|131:179|64:197,1,140,6|8,1:2|0:0,0:0:0:0:
32,265,165842,2,0,L|114:279,1,70,10|2,0:0|1:2,0:0:0:0:
163,350,166195,1,8,0:0:0:0:
163,350,166371,1,8,0:0:0:0:
244,308,166548,1,10,0:0:0:0:
172,215,166724,5,2,1:2:0:0:
192,34,167077,1,10,1:2:0:0:
172,215,167430,2,0,L|184:310,1,70,10|6,1:2|0:3,0:0:0:0:
238,355,167783,2,0,P|289:371|261:325,1,140,10|4,1:2|1:2,0:0:0:0:
109,347,168488,5,10,0:0:0:0:
109,347,168665,1,10,0:0:0:0:
50,280,168841,2,0,L|52:213,1,59.5000011348725,0|0,1:0|2:0,0:0:0:0:
57,131,169194,1,10,0:0:0:0:
230,172,169547,5,0,1:0:0:0:
136,26,169900,1,10,0:0:0:0:
136,26,170077,1,10,0:0:0:0:
141,115,170253,2,0,L|145:187,1,59.5000011348725,0|0,1:0|2:0,0:0:0:0:
152,263,170606,1,10,0:0:0:0:
327,228,170959,5,0,1:0:0:0:
229,378,171312,1,10,0:0:0:0:
229,378,171488,1,10,0:0:0:0:
232,288,171665,2,0,L|235:211,1,59.5000011348725,0|0,1:0|2:0,0:0:0:0:
237,139,172018,1,10,0:0:0:0:
408,203,172371,2,2,B|436:162|487:155|487:155|439:132|423:81|423:81|396:127|351:136|351:136|389:157|409:197,1,357.000006809235,2|10,1:0|0:0,0:1:0:0:
335,348,173783,5,6,1:2:0:0:
242,201,174136,1,10,0:0:0:0:
242,201,174312,2,0,L|234:277,1,59.5000011348725,10|2,0:0|1:2,0:0:0:0:
60,293,174841,1,10,0:0:0:0:
132,345,175018,1,2,0:0:0:0:
144,256,175194,6,0,L|151:181,1,59.5000011348725,2|0,1:2|0:0,0:0:0:0:
159,111,175547,1,10,0:0:0:0:
159,111,175724,1,10,0:0:0:0:
239,73,175900,2,0,L|242:13,2,59.5000011348725,2|2|10,1:2|0:0|0:0,0:0:0:0:
232,162,176430,1,2,0:0:0:0:
311,122,176606,5,2,1:2:0:0:
488,167,176959,1,10,0:0:0:0:
488,167,177136,1,8,0:0:0:0:
412,214,177312,1,2,1:2:0:0:
360,43,177665,1,10,0:0:0:0:
260,190,178018,6,0,L|177:194,1,59.5000011348725,2|0,1:2|0:0,0:0:0:0:
125,144,178371,1,10,0:0:0:0:
125,144,178547,2,0,L|127:59,1,59.5000011348725,10|2,0:0|1:2,0:0:0:0:
188,20,178900,1,2,0:0:0:0:
259,73,179077,2,0,L|336:74,1,59.5000011348725,10|2,0:0|0:0,0:0:0:0:
403,45,179430,6,0,L|392:189,1,119.000002269745,2|8,1:2|0:0,0:0:0:0:
387,256,179959,1,10,0:0:0:0:
387,256,180136,1,2,1:2:0:0:
239,355,180488,1,10,0:0:0:0:
312,195,180841,6,0,P|276:166|189:174,1,119.000002269745,2|8,1:2|0:0,0:0:0:0:
134,220,181371,1,10,0:0:0:0:
161,304,181547,2,0,P|219:307|267:274,1,119.000002269745,2|8,1:2|0:0,0:0:0:0:
311,195,182077,1,2,0:0:0:0:
355,119,182253,5,2,1:2:0:0:
355,119,182430,2,0,L|430:128,1,59.5000011348725,2|10,0:0|0:0,0:0:0:0:
468,196,182783,2,0,L|461:271,1,59.5000011348725,10|0,0:0|1:2,0:0:0:0:
392,311,183136,5,2,0:0:0:0:
319,269,183312,1,10,0:0:0:0:
319,269,183488,2,0,L|248:283,1,59.5000011348725,2|2,0:0|1:2,0:0:0:0:
189,226,183841,2,0,L|104:215,1,59.5000011348725,2|8,0:0|0:0,0:0:0:0:
55,179,184194,1,8,0:0:0:0:
55,179,184371,2,0,P|94:139|165:143,1,119.000002269745,2|10,1:2|0:0,0:0:0:0:
126,314,185077,6,0,L|53:303,2,59.5000011348725,6|2|10,1:2|0:0|0:0,0:0:0:0:
202,267,185606,1,10,0:0:0:0:
202,267,185783,2,0,L|212:208,1,59.5000011348725,2|2,1:2|0:0,0:0:0:0:
155,138,186136,2,0,L|144:66,1,59.5000011348725,10|2,0:0|0:0,0:0:0:0:
216,24,186488,6,0,B|256:26|256:26|286:57|286:57|329:63,1,119.000002269745,2|10,1:2|0:0,0:0:0:0:
397,13,187018,1,10,0:0:0:0:
436,92,187194,2,0,L|506:104,2,59.5000011348725,2|2|10,1:2|0:0|0:0,0:0:0:0:
361,143,187724,1,2,0:0:0:0:
409,217,187900,5,2,1:2:0:0:
241,172,188253,1,10,0:0:0:0:
241,172,188430,1,8,0:0:0:0:
296,241,188606,1,2,1:2:0:0:
319,64,188959,1,10,0:0:0:0:
409,217,189312,6,0,L|404:288,1,59.5000011348725,2|2,1:2|0:0,0:0:0:0:
326,315,189665,1,10,0:0:0:0:
326,315,189841,2,0,L|309:230,1,59.5000011348725,10|2,0:0|1:2,0:0:0:0:
330,168,190194,1,2,0:0:0:0:
254,119,190371,2,0,L|260:55,1,59.5000011348725,10|2,0:0|0:0,0:0:0:0:
180,17,190724,6,0,P|125:50|108:124,1,119.000002269745,2|8,1:2|0:0,0:0:0:0:
166,165,191253,1,10,0:0:0:0:
100,225,191430,2,0,L|122:346,1,119.000002269745,2|10,1:2|0:0,0:0:0:0:
299,353,192136,6,0,L|322:237,1,119.000002269745,2|8,1:2|0:0,0:0:0:0:
292,151,192665,1,10,0:0:0:0:
365,101,192841,2,0,B|425:98|425:98|476:153,1,119.000002269745,2|8,1:2|0:0,0:0:0:0:
410,311,193547,1,10,1:2:0:0:
410,311,194959,5,2,1:0:0:0:
255,214,195312,1,8,1:2:0:0:
100,310,195665,2,0,L|55:317,3,35,10|8|10|8,1:2|0:0|0:0|0:0,0:0:0:0:
129,285,196018,2,0,L|174:297,3,35,2|8|10|8,1:2|0:0|0:0|0:0,0:0:0:0:
101,247,196371,6,0,L|113:145,1,80.5000015354157,6|0,1:2|0:0,0:0:0:0:
199,128,196724,2,0,L|209:221,1,80.5000015354157,10|0,0:0|0:0,0:0:0:0:
278,274,197077,2,0,L|262:363,1,80.5000015354157,2|0,1:2|0:0,0:0:0:0:
359,365,197430,2,0,L|377:266,1,80.5000015354157,10|0,0:0|0:0,0:0:0:0:
433,209,197783,6,0,L|514:223,2,80.5000015354157,2|2|10,1:2|0:0|0:0,0:0:0:0:
373,285,198312,1,2,0:0:0:0:
330,198,198488,2,0,L|338:87,1,80.5000015354157,2|2,1:2|0:0,0:0:0:0:
343,24,198841,1,10,0:0:0:0:
343,24,199018,1,2,0:0:0:0:
244,100,199194,6,0,L|137:117,1,80.5000015354157,2|0,1:2|0:0,0:0:0:0:
115,196,199547,2,0,L|203:211,1,80.5000015354157,10|0,0:0|0:0,0:0:0:0:
266,274,199900,2,0,L|288:376,1,80.5000015354157,2|0,1:2|0:0,0:0:0:0:
373,317,200253,2,0,L|388:225,1,80.5000015354157,10|0,0:0|0:0,0:0:0:0:
440,126,200606,6,0,P|430:165|322:177,1,161.000003070831,2|10,1:2|0:0,0:0:0:0:
275,97,201135,1,2,0:0:0:0:
343,28,201312,2,0,L|431:40,2,80.5000015354157,2|2|10,1:2|0:0|0:0,0:0:0:0:
275,97,201841,1,2,0:0:0:0:
193,0,202018,6,0,B|158:31|158:31|146:169,1,161.000003070831,6|8,1:2|0:0,0:0:0:0:
202,224,202547,1,2,0:0:0:0:
290,185,202724,2,0,P|327:175|377:250,1,120.750002303124,2|0,1:2|0:0,0:0:0:0:
360,273,203077,2,0,L|275:286,1,80.5000015354157,10|0,0:0|0:0,0:0:0:0:
176,359,203430,6,0,P|109:331|119:240,1,161.000003070831,2|8,1:2|0:0,0:0:0:0:
202,224,203959,1,2,0:0:0:0:
148,144,204135,2,0,P|210:191|303:166,1,161.000003070831,2|8,1:2|0:0,0:0:0:0:
368,123,204665,1,2,0:0:0:0:
431,202,204841,5,2,1:2:0:0:
431,202,205018,2,0,L|419:295,1,80.5000015354157,2|10,0:0|0:0,0:0:0:0:
345,343,205371,2,0,L|333:261,1,80.5000015354157,2|0,0:0|1:2,0:0:0:0:
262,197,205724,1,2,0:0:0:0:
194,265,205900,5,10,0:0:0:0:
194,265,206077,2,0,L|186:356,1,80.5000015354157,2|2,0:0|1:2,0:0:0:0:
94,316,206430,2,0,L|81:236,1,80.5000015354157,2|8,0:0|0:0,0:0:0:0:
229,112,206959,1,2,1:2:0:0:
229,112,207135,1,2,0:0:0:0:
174,32,207312,1,10,0:0:0:0:
275,19,207488,1,10,0:0:0:0:
275,19,207577,1,8,0:0:0:0:
275,19,207665,6,0,L|361:31,1,80.5000015354157,6|0,1:2|0:0,0:0:0:0:
437,81,208018,2,0,L|427:174,1,80.5000015354157,10|0,0:0|0:0,0:0:0:0:
347,214,208371,2,0,L|363:303,1,80.5000015354157,2|0,1:2|0:0,0:0:0:0:
265,308,208724,2,0,L|247:209,1,80.5000015354157,10|0,0:0|0:0,0:0:0:0:
176,165,209077,6,0,L|188:80,2,80.5000015354157,2|2|10,1:2|0:0|0:0,0:0:0:0:
102,228,209606,1,2,0:0:0:0:
41,152,209783,2,0,L|29:53,1,80.5000015354157,2|2,1:2|0:0,0:0:0:0:
99,4,210135,1,10,0:0:0:0:
99,4,210312,1,2,0:0:0:0:
187,85,210488,6,0,L|273:96,1,80.5000015354157,2|0,1:2|0:0,0:0:0:0:
317,177,210841,2,0,L|224:200,1,80.5000015354157,10|0,0:0|0:0,0:0:0:0:
203,286,211194,2,0,L|188:386,1,80.5000015354157,2|0,1:2|0:0,0:0:0:0:
109,313,211547,2,0,L|126:220,1,80.5000015354157,10|0,0:0|0:0,0:0:0:0:
238,196,211900,6,0,B|278:191|278:191|321:216,2,80.5000015354157,2|2|10,1:2|0:0|0:0,0:0:0:0:
160,137,212430,1,2,0:0:0:0:
230,70,212606,2,0,B|271:69|271:69|327:100|327:100|391:97,1,161.000003070831,2|10,1:2|0:0,0:0:0:0:
457,36,213135,1,2,0:0:0:0:
512,145,213312,6,0,B|516:194|516:194|493:253|405:250,1,161.000003070831,6|8,1:2|0:0,0:0:0:0:
351,188,213841,1,2,0:0:0:0:
298,269,214018,2,0,P|275:222|188:233,1,120.750002303124,2|0,1:2|0:0,0:0:0:0:
174,244,214371,2,0,L|58:226,1,80.5000015354157,10|0,0:0|0:0,0:0:0:0:
39,311,214724,6,0,B|113:295|108:371|193:359,1,161.000003070831,2|8,1:2|0:0,0:0:0:0:
257,295,215253,1,2,0:0:0:0:
174,244,215430,2,0,P|140:196|195:112,1,161.000003070831,2|8,1:2|0:0,0:0:0:0:
266,62,215959,1,2,0:0:0:0:
185,19,216135,5,2,1:2:0:0:
185,19,216312,2,0,L|87:13,1,80.5000015354157,2|10,0:0|0:0,0:0:0:0:
104,110,216665,2,0,L|198:116,1,80.5000015354157,2|0,0:0|1:2,0:0:0:0:
251,184,217018,1,2,0:0:0:0:
322,119,217194,5,10,0:0:0:0:
322,119,217371,2,0,L|419:125,1,80.5000015354157,2|2,0:0|1:2,0:0:0:0:
422,218,217724,2,0,L|333:213,1,80.5000015354157,2|8,0:0|0:0,0:0:0:0:
175,309,218253,1,2,1:2:0:0:
175,309,218430,1,2,0:0:0:0:
104,243,218606,1,10,0:0:0:0:
187,190,218783,1,10,0:0:0:0:
187,190,218871,1,8,0:0:0:0:
187,190,218959,6,0,L|280:197,1,70,6|0,1:2|0:0,0:0:0:0:
341,213,219312,2,0,L|421:218,1,70,8|10,0:0|0:0,0:0:0:0:
473,151,219665,2,0,P|454:103|355:103,1,140,2|8,1:2|0:0,0:0:0:0:
285,112,220194,1,2,1:2:0:0:
204,68,220371,6,0,L|216:-14,2,70,2|0|8,0:0|1:2|0:0,0:0:0:0:
190,158,220900,1,8,0:0:0:0:
268,204,221077,2,0,L|276:286,1,70,2|2,1:2|0:0,0:0:0:0:
284,364,221430,1,10,0:0:0:0:
103,338,221783,6,0,P|134:263|205:257,1,140,2|10,1:2|0:0,0:0:0:0:
274,273,222312,1,10,0:0:0:0:
363,290,222488,2,0,P|431:286|458:215,1,140,2|10,1:2|0:0,0:0:0:0:
397,159,223018,6,0,L|380:89,1,70,2|0,1:2|0:0,0:0:0:0:
298,50,223371,2,0,L|288:119,1,70,2|8,1:2|0:0,0:0:0:0:
214,173,223724,1,10,0:0:0:0:
214,173,223900,2,0,P|180:114|113:109,1,140,0|8,1:2|0:0,0:0:0:0:
16,263,224606,6,0,B|60:274|60:274|105:256|105:256|173:270,1,140,6|8,1:2|0:0,0:0:0:0:
228,313,225135,2,0,L|234:241,1,70,10|2,0:0|1:2,0:0:0:0:
248,156,225488,1,8,0:0:0:0:
248,156,225665,1,8,0:0:0:0:
193,83,225841,1,10,0:0:0:0:
114,173,226018,5,2,1:2:0:0:
126,5,226371,1,10,1:2:0:0:
114,173,226724,2,0,L|55:162,3,35,2|8|8|8,1:2|0:0|0:0|0:0,0:0:0:0:
140,205,227077,2,0,L|188:197,3,35,2|8|8|8,1:2|0:0|0:0|0:0,0:0:0:0:
113,247,227430,6,0,L|120:347,1,70,6|2,1:2|0:0,0:0:0:0:
198,368,227782,1,10,0:0:0:0:
198,368,227959,1,10,0:0:0:0:
232,283,228135,2,0,P|269:231|360:222,1,140,2|10,1:2|0:0,0:0:0:0:
416,266,228665,1,2,1:2:0:0:
491,215,228841,6,0,L|506:136,1,70,2|0,0:0|1:2,0:0:0:0:
444,76,229194,2,0,L|436:-14,1,70,10|8,0:0|0:0,0:0:0:0:
347,16,229547,2,0,L|355:99,1,70,2|0,1:2|0:0,0:0:0:0:
407,159,229900,1,10,0:0:0:0:
259,52,230253,6,0,L|178:62,1,70,2|2,1:2|0:0,0:0:0:0:
112,22,230606,1,10,0:0:0:0:
112,22,230782,1,10,0:0:0:0:
38,76,230959,2,0,P|30:128|104:191,1,140,2|10,1:2|0:0,0:0:0:0:
174,210,231488,1,2,1:2:0:0:
112,277,231665,6,0,L|105:354,2,70,2|2|10,0:0|1:2|0:0,0:0:0:0:
174,210,232194,1,10,0:0:0:0:
145,123,232371,2,0,P|189:89|273:120,1,140,2|8,1:2|0:0,0:0:0:0:
370,258,233077,6,0,L|377:183,1,70,6|2,1:2|0:0,0:0:0:0:
349,106,233430,1,10,0:0:0:0:
349,106,233606,1,10,0:0:0:0:
298,181,233782,2,0,B|238:218|238:218|143:212,1,140,2|10,1:2|0:0,0:0:0:0:
77,207,234312,1,2,1:2:0:0:
23,280,234488,6,0,L|28:358,1,70,2|0,0:0|1:2,0:0:0:0:
117,365,234841,2,0,L|129:288,1,70,10|8,0:0|0:0,0:0:0:0:
168,213,235194,2,0,L|157:143,1,70,2|0,1:2|0:0,0:0:0:0:
90,81,235547,1,10,0:0:0:0:
266,38,235900,6,0,L|346:62,1,70,2|2,1:2|0:0,0:0:0:0:
421,97,236253,1,10,0:0:0:0:
421,97,236430,1,10,0:0:0:0:
346,149,236606,2,0,B|315:184|315:184|334:289,1,140,2|10,1:2|0:0,0:0:0:0:
347,365,237135,1,2,1:2:0:0:
417,307,237312,6,0,L|495:319,2,70,2|2|10,0:0|1:2|0:0,0:0:0:0:
331,275,237841,1,10,0:0:0:0:
406,224,238018,2,0,L|411:154,1,70,2|8,1:2|0:0,0:0:0:0:
323,127,238371,2,0,L|313:235,1,105,2|0,1:2|0:0,0:0:0:0:
281,264,238724,6,0,L|193:260,1,70,6|2,1:2|0:0,0:0:0:0:
138,214,239077,1,10,0:0:0:0:
138,214,239253,1,10,0:0:0:0:
170,128,239430,2,0,P|210:88|296:89,1,140,2|10,1:2|0:0,0:0:0:0:
361,141,239959,1,2,1:2:0:0:
429,81,240135,6,0,L|525:71,1,70,2|0,0:0|1:2,0:0:0:0:
511,164,240488,2,0,L|436:173,1,70,10|8,0:0|0:0,0:0:0:0:
371,230,240841,2,0,L|282:220,1,70,2|0,1:2|0:0,0:0:0:0:
212,203,241194,1,10,0:0:0:0:
48,282,241547,6,0,L|43:195,1,70,2|2,1:2|0:0,0:0:0:0:
35,125,241900,1,10,0:0:0:0:
35,125,242077,1,10,0:0:0:0:
116,164,242253,2,0,B|161:169|161:169|203:137|203:137|259:142,1,140,2|10,1:2|0:0,0:0:0:0:
326,100,242782,1,2,1:2:0:0:
383,170,242959,6,0,L|455:180,2,70,2|2|10,0:0|1:2|0:0,0:0:0:0:
301,211,243488,1,10,0:0:0:0:
244,140,243665,2,0,P|211:96|107:104,1,140,2|8,1:2|0:0,0:0:0:0:
27,239,244371,6,0,L|115:260,1,70,6|2,1:2|0:0,0:0:0:0:
187,280,244724,1,10,0:0:0:0:
187,280,244900,1,10,0:0:0:0:
252,216,245077,2,0,P|310:176|383:193,1,140,2|10,1:2|0:0,0:0:0:0:
441,249,245606,1,2,1:2:0:0:
382,318,245782,6,0,L|288:303,1,70,2|0,0:0|1:2,0:0:0:0:
235,355,246135,2,0,L|165:364,1,70,10|8,0:0|0:0,0:0:0:0:
153,273,246488,2,0,L|222:263,1,70,2|0,1:2|0:0,0:0:0:0:
299,215,246841,1,10,0:0:0:0:
117,197,247194,6,0,L|116:111,1,70,2|2,1:2|0:0,0:0:0:0:
180,62,247547,1,10,0:0:0:0:
180,62,247724,1,10,0:0:0:0:
238,131,247900,2,0,B|309:154|301:79|382:103,1,140,2|10,1:2|0:0,0:0:0:0:
459,106,248430,1,2,1:2:0:0:
407,180,248606,6,0,L|400:259,2,70,2|2|10,0:0|1:2|0:0,0:0:0:0:
459,106,249135,1,10,0:0:0:0:
367,99,249312,2,0,L|357:22,1,70,2|8,1:2|0:0,0:0:0:0:
271,0,249665,2,0,P|204:21|184:99,1,140,4|0,1:2|0:0,0:0:0:0:
194,198,250194,5,8,0:0:0:0:
194,198,250371,1,8,0:0:0:0:
260,372,250724,1,8,0:0:0:0:
260,372,250900,1,8,0:0:0:0:
383,238,251253,2,0,L|372:168,1,70,8|0,0:0|0:0,0:0:0:0:
299,113,251606,1,8,0:0:0:0:
256,192,251782,1,12,0:0:0:0:
