osu file format v14

[General]
AudioFilename: audio.mp3
AudioLeadIn: 0
PreviewTime: 58958
Countdown: 1
SampleSet: Soft
StackLeniency: 0.7
Mode: 0
LetterboxInBreaks: 0
WidescreenStoryboard: 0

[Editor]
DistanceSpacing: 1.4
BeatDivisor: 4
GridSize: 8
TimelineZoom: 1

[Metadata]
Title:Sayonara, hana dorobou-san
TitleUnicode:さようなら、花泥棒さん
Artist:sana
ArtistUnicode:鎖那
Creator:MagicNAT
Version:Light Insane
Source:
Tags:
BeatmapID:975995
BeatmapSetID:455330

[Difficulty]
HPDrainRate:7
CircleSize:4
OverallDifficulty:6
ApproachRate:8
SliderMultiplier:1.6
SliderTickRate:2

[Events]
//Background and Video events
0,0,"maxresdefault.jpg",0,0
//Break Periods
2,166805,171149
//Storyboard Layer 0 (Background)
//Storyboard Layer 1 (Fail)
//Storyboard Layer 2 (Pass)
//Storyboard Layer 3 (Foreground)
//Storyboard Sound Samples

[TimingPoints]
370,352.941176470588,4,2,0,100,1,0
59664,-100,4,2,0,100,0,1
67781,-100,4,2,0,100,0,0
70252,-100,4,2,0,100,0,1
82252,-100,4,2,0,100,0,0
135899,-100,4,2,0,100,0,1
144369,-100,4,2,0,100,0,0
147193,-100,4,2,0,100,0,1
157781,-100,4,2,0,100,0,0
195193,-100,4,2,0,100,0,1
203664,-100,4,2,0,100,0,0
206487,-100,4,2,0,100,0,1
217075,-100,4,2,0,100,0,0

[HitObjects]
71,71,370,5,0,0:0:0:0:
171,288,722,1,0,0:0:0:0:
276,139,1075,1,0,0:0:0:0:
339,77,1252,1,0,0:0:0:0:
386,150,1428,1,0,0:0:0:0:
168,214,1781,2,0,P|158:157|175:105,1,80
243,168,2134,2,0,P|285:207|305:250,1,80
243,168,2487,1,0,0:0:0:0:
413,61,2840,1,0,0:0:0:0:
319,110,3193,5,0,0:0:0:0:
234,86,3369,1,0,0:0:0:0:
266,168,3546,2,0,P|279:219|317:248,1,80
402,124,3899,1,0,0:0:0:0:
171,57,4252,1,0,0:0:0:0:
174,144,4428,1,0,0:0:0:0:
254,106,4605,2,0,B|307:144|344:151|344:151|365:215,1,160
248,210,5311,2,0,B|284:167|334:159|334:159|348:101,1,160
171,62,6017,5,0,0:0:0:0:
239,117,6193,1,0,0:0:0:0:
176,178,6369,2,0,P|214:211|250:211,1,80
239,117,6722,1,0,0:0:0:0:
428,163,7075,6,0,P|383:165|345:146,1,80
396,74,7428,1,0,0:0:0:0:
270,142,7605,1,0,0:0:0:0:
244,57,7781,1,0,0:0:0:0:
161,167,7958,1,0,0:0:0:0:
126,86,8134,1,0,0:0:0:0:
250,210,8487,1,0,0:0:0:0:
106,196,8840,6,0,P|125:240|120:282,1,80
187,147,9193,2,0,P|178:98|189:60,1,80
282,132,9546,2,0,B|290:188|271:231|271:231|292:287,1,160
371,219,10075,1,0,0:0:0:0:
413,141,10252,2,0,B|372:125|332:135|332:135|256:94,1,160
77,159,10958,1,0,0:0:0:0:
161,136,11134,1,0,0:0:0:0:
173,223,11311,1,0,0:0:0:0:
331,167,11664,6,0,P|356:121|357:80,1,80
270,98,12017,1,0,0:0:0:0:
327,168,12193,1,0,0:0:0:0:
243,195,12369,1,0,0:0:0:0:
410,238,12722,2,0,P|432:276|470:301,1,80
446,145,13075,1,0,0:0:0:0:
377,89,13252,1,0,0:0:0:0:
307,210,13428,1,0,0:0:0:0:
282,127,13605,1,0,0:0:0:0:
183,242,13781,1,0,0:0:0:0:
156,86,14134,1,0,0:0:0:0:
329,214,14487,6,0,P|359:247|410:268,1,80
207,184,14840,2,0,P|163:193|111:186,1,80
288,117,15193,1,0,0:0:0:0:
345,278,15546,1,0,0:0:0:0:
226,344,15722,1,0,0:0:0:0:
236,225,15899,2,0,B|192:202|193:138|193:138|124:102,1,160
273,149,16605,1,0,0:0:0:0:
376,238,16781,1,0,0:0:0:0:
449,124,16957,1,0,0:0:0:0:
150,43,17311,5,0,0:0:0:0:
101,151,17487,1,0,0:0:0:0:
193,129,17664,1,0,0:0:0:0:
138,264,17840,1,0,0:0:0:0:
17,170,18017,1,0,0:0:0:0:
317,83,18369,1,0,0:0:0:0:
359,166,18546,1,0,0:0:0:0:
280,207,18722,5,0,0:0:0:0:
219,103,18899,1,0,0:0:0:0:
170,212,19075,1,0,0:0:0:0:
302,129,19252,1,0,0:0:0:0:
375,248,19429,1,0,0:0:0:0:
157,147,19781,1,0,0:0:0:0:
97,217,20134,6,0,P|141:243|182:239,1,80
257,161,20487,2,0,P|308:159|344:178,1,80
273,274,20840,1,0,0:0:0:0:
130,177,21193,1,0,0:0:0:0:
218,54,21369,1,0,0:0:0:0:
308,113,21546,2,0,P|334:144|378:153,1,80
332,242,21899,2,0,P|385:264|421:293,1,80
236,160,22252,1,0,0:0:0:0:
92,294,22605,1,0,0:0:0:0:
256,260,22958,6,0,P|295:235|307:204,1,80
187,160,23311,1,0,0:0:0:0:
136,268,23487,1,0,0:0:0:0:
256,260,23664,1,0,0:0:0:0:
344,158,24017,6,0,P|356:107|344:77,1,80
228,68,24369,1,0,0:0:0:0:
273,179,24546,1,0,0:0:0:0:
160,138,24722,1,0,0:0:0:0:
205,249,24899,2,0,P|209:291|252:330,1,80
388,102,25428,1,0,0:0:0:0:
84,92,25781,6,0,P|141:112|177:105,1,80
74,237,26134,1,0,0:0:0:0:
74,237,26487,2,0,P|140:274|174:279,1,80
229,148,26840,1,0,0:0:0:0:
229,148,27193,2,0,P|271:189|299:204,1,80
332,110,27546,1,0,0:0:0:0:
332,110,27722,2,0,P|372:142|416:153,1,80
165,88,28252,1,0,0:0:0:0:
165,88,28605,6,0,P|196:122|246:139,1,80
353,51,28958,1,0,0:0:0:0:
353,51,29311,2,0,P|333:107|309:124,1,80
171,159,29664,1,0,0:0:0:0:
171,159,30017,2,0,P|193:218|221:243,1,80
354,210,30369,1,0,0:0:0:0:
295,320,30546,1,0,0:0:0:0:
203,229,30722,1,0,0:0:0:0:
368,95,31075,1,0,0:0:0:0:
368,95,31428,6,0,P|316:79|284:87,1,80
358,221,31781,1,0,0:0:0:0:
358,221,32134,2,0,P|293:208|271:215,1,80
355,344,32487,1,0,0:0:0:0:
355,344,32840,2,0,P|312:321|302:287,1,80
424,203,33193,1,0,0:0:0:0:
288,210,33369,1,0,0:0:0:0:
350,88,33546,1,0,0:0:0:0:
350,88,33899,1,0,0:0:0:0:
120,93,34252,6,0,P|151:129|186:143,1,80
290,36,34605,1,0,0:0:0:0:
290,36,34958,2,0,P|335:70|387:82,1,80
276,207,35311,1,0,0:0:0:0:
276,207,35664,2,0,P|238:159|200:147,1,80
366,202,36017,2,0,P|390:242|437:268,1,80
468,118,36369,2,0,L|454:158,1,40
258,271,36722,1,0,0:0:0:0:
112,89,37075,6,0,P|155:113|202:109,1,80
315,74,37428,1,0,0:0:0:0:
315,74,37781,2,0,P|293:128|256:159,1,80
143,123,38134,1,0,0:0:0:0:
143,123,38487,2,0,P|182:170|210:183,1,80
330,146,38840,2,0,P|378:158|421:193,1,80
296,283,39193,1,0,0:0:0:0:
296,283,39546,1,0,0:0:0:0:
166,225,39899,6,0,P|179:186|218:156,1,80
296,283,40252,1,0,0:0:0:0:
381,178,40605,2,0,P|353:129|322:112,1,80
288,245,40958,1,0,0:0:0:0:
129,82,41311,2,0,P|116:135|105:158,1,80
241,159,41664,1,0,0:0:0:0:
241,159,41840,1,0,0:0:0:0:
338,63,42017,1,0,0:0:0:0:
386,236,42369,1,0,0:0:0:0:
386,236,42723,6,0,P|338:198|296:195,1,80
287,325,43075,1,0,0:0:0:0:
287,325,43428,2,0,P|256:292|245:244,1,80
363,191,43781,1,0,0:0:0:0:
363,191,44134,2,0,P|341:134|302:114,1,80
192,144,44487,2,0,P|170:105|177:49,1,80
302,42,44840,1,0,0:0:0:0:
302,42,45193,1,0,0:0:0:0:
172,232,45546,6,0,P|216:257|257:264,1,80
342,168,45899,1,0,0:0:0:0:
342,168,46252,2,0,P|293:175|251:168,1,80
178,63,46605,1,0,0:0:0:0:
435,150,46958,1,0,0:0:0:0:
209,301,47311,1,0,0:0:0:0:
272,185,47664,2,0,P|317:159|340:163,2,40
385,260,48017,1,0,0:0:0:0:
422,129,48193,1,0,0:0:0:0:
294,83,48369,6,0,P|244:72|198:82,1,80
163,201,48722,1,0,0:0:0:0:
163,201,48899,1,0,0:0:0:0:
298,195,49075,2,0,B|356:161|381:154|381:154|423:88,1,160
271,94,49781,6,0,P|231:79|192:77,1,80
252,200,50134,1,0,0:0:0:0:
252,200,50311,1,0,0:0:0:0:
116,212,50487,2,0,B|141:249|181:259|181:259|220:332,1,160
353,164,51193,6,0,P|379:208|425:223,1,80
411,84,51546,1,0,0:0:0:0:
411,84,51722,1,0,0:0:0:0:
275,95,51899,2,0,P|243:132|239:163,1,80
347,244,52252,1,0,0:0:0:0:
347,244,52605,6,0,P|366:198|400:178,1,80
254,201,52958,1,0,0:0:0:0:
254,201,53134,1,0,0:0:0:0:
179,239,53311,2,0,B|161:195|186:151|186:151|136:89,1,160
279,93,53840,6,0,L|320:77,2,40
413,113,54193,1,0,0:0:0:0:
359,203,54369,1,0,0:0:0:0:
359,203,54546,1,0,0:0:0:0:
224,186,54722,2,0,P|190:160|172:112,1,80
107,246,55075,1,0,0:0:0:0:
107,246,55252,1,0,0:0:0:0:
228,186,55428,6,0,P|258:147|301:133,1,80
343,258,55781,1,0,0:0:0:0:
343,258,55958,1,0,0:0:0:0:
425,150,56134,2,0,P|465:178|502:181,1,80
448,53,56487,1,0,0:0:0:0:
177,83,56840,5,0,0:0:0:0:
164,258,57193,1,0,0:0:0:0:
380,93,57546,1,0,0:0:0:0:
326,185,57722,1,0,0:0:0:0:
131,195,58075,1,0,0:0:0:0:
131,195,58252,1,0,0:0:0:0:
372,248,58958,5,0,0:0:0:0:
370,112,59134,1,0,0:0:0:0:
264,198,59311,1,0,0:0:0:0:
269,62,59487,1,0,0:0:0:0:
142,113,59664,5,0,0:0:0:0:
163,158,60016,1,0,0:0:0:0:
187,206,60369,1,0,0:0:0:0:
208,251,60722,1,0,0:0:0:0:
371,209,61075,2,0,P|413:183|447:180,1,80
341,88,61428,2,0,P|303:126|268:136,1,80
324,263,61781,1,0,0:0:0:0:
392,140,61958,1,0,0:0:0:0:
257,67,62134,1,0,0:0:0:0:
187,184,62311,1,0,0:0:0:0:
324,263,62487,5,0,0:0:0:0:
268,234,62840,1,0,0:0:0:0:
218,198,63193,1,0,0:0:0:0:
171,157,63546,1,0,0:0:0:0:
403,86,63899,2,0,P|351:56|326:32,1,80
319,198,64252,2,0,P|263:230|246:252,1,80
219,109,64605,1,0,0:0:0:0:
133,214,64781,1,0,0:0:0:0:
78,89,64958,1,0,0:0:0:0:
219,109,65134,1,0,0:0:0:0:
348,66,65311,6,0,B|381:106|418:149|418:149|391:210,1,160
320,161,65840,1,0,0:0:0:0:
348,66,66017,6,0,B|381:106|418:149|418:149,1,80
320,161,66369,1,0,0:0:0:0:
192,208,66546,1,0,0:0:0:0:
217,70,66722,2,0,P|181:100|132:107,1,80
270,171,67075,2,0,P|316:203|351:208,1,80
310,74,67428,1,0,0:0:0:0:
88,231,67781,1,0,0:0:0:0:
224,233,67958,5,0,0:0:0:0:
224,233,68134,2,0,B|276:265|278:265|278:265|380:246,1,160
307,126,68664,2,0,P|275:87|246:73,1,80
383,100,69017,2,0,P|433:122|462:122,1,80
347,201,69369,1,0,0:0:0:0:
216,160,69546,1,0,0:0:0:0:
240,293,69722,1,0,0:0:0:0:
113,242,69899,1,0,0:0:0:0:
326,73,70252,6,0,P|364:104|404:112,1,80
266,161,70605,1,0,0:0:0:0:
386,223,70781,1,0,0:0:0:0:
260,275,70958,2,0,P|216:255|188:220,1,80
174,97,71311,2,0,P|237:97|260:89,1,80
342,195,71664,1,0,0:0:0:0:
477,197,71840,1,0,0:0:0:0:
423,62,72017,1,0,0:0:0:0:
298,264,72369,6,0,P|266:219|242:198,1,80
344,171,72722,2,0,P|356:117|372:87,1,80
234,64,73075,1,0,0:0:0:0:
200,191,73252,1,0,0:0:0:0:
319,156,73428,1,0,0:0:0:0:
234,64,73605,1,0,0:0:0:0:
106,91,73781,6,0,P|150:116|192:115,1,80
234,179,74134,2,0,P|258:130|259:58,1,120
218,34,74487,2,0,P|176:32|108:80,1,120
113,125,74840,1,0,0:0:0:0:
255,188,75193,1,0,0:0:0:0:
255,188,75369,1,0,0:0:0:0:
375,123,75546,1,0,0:0:0:0:
375,123,75722,1,0,0:0:0:0:
330,251,75899,2,0,P|290:264|225:260,1,80
296,136,76252,2,0,P|264:79|235:70,1,80
162,165,76605,6,0,B|202:192|246:192|246:192|301:139,1,160
375,234,77134,1,0,0:0:0:0:
277,294,77311,2,0,B|237:321|193:321|193:321|138:268,1,160
228,175,78016,6,0,P|269:192|313:193,1,80
171,95,78369,2,0,P|133:127|85:141,1,80
245,100,78722,1,0,0:0:0:0:
149,201,79075,1,0,0:0:0:0:
269,208,79252,5,0,0:0:0:0:
348,152,79428,2,0,P|373:100|404:91,1,80
411,211,79781,2,0,P|379:249|344:260,1,80
308,146,80134,1,0,0:0:0:0:
191,115,80311,5,0,0:0:0:0:
269,208,80487,2,0,P|316:223|360:210,1,80
357,97,80840,2,0,P|393:130|438:144,1,80
308,146,81193,1,0,0:0:0:0:
108,279,81546,1,0,0:0:0:0:
216,228,81722,2,0,P|253:266|292:271,1,80
406,168,82252,6,0,B|353:129|353:129|239:133,1,160
153,190,82781,1,0,0:0:0:0:
133,71,82958,1,0,0:0:0:0:
372,56,83311,1,0,0:0:0:0:
404,322,83664,5,0,0:0:0:0:
418,203,83840,1,0,0:0:0:0:
329,121,84017,2,0,P|285:153|241:155,1,80
321,259,84369,1,0,0:0:0:0:
342,77,84722,1,0,0:0:0:0:
227,122,84899,1,0,0:0:0:0:
227,122,85075,6,0,P|199:156|195:196,1,80
279,184,85428,2,0,P|328:206|349:230,1,80
214,289,85781,1,0,0:0:0:0:
271,55,86134,1,0,0:0:0:0:
387,106,86311,1,0,0:0:0:0:
387,106,86487,6,0,P|379:54|342:35,1,80
284,133,86840,2,0,P|309:178|353:198,1,80
439,140,87193,1,0,0:0:0:0:
166,137,87546,1,0,0:0:0:0:
370,233,87899,5,0,0:0:0:0:
274,136,88075,1,0,0:0:0:0:
211,257,88252,1,0,0:0:0:0:
118,157,88428,1,0,0:0:0:0:
246,201,88605,2,0,P|291:217|336:203,1,80
221,118,88958,1,0,0:0:0:0:
348,72,89134,1,0,0:0:0:0:
374,205,89311,1,0,0:0:0:0:
137,71,89664,1,0,0:0:0:0:
216,247,90017,2,0,L|162:228,3,40
267,221,90369,2,0,L|316:196,4,40
436,82,91075,5,0,0:0:0:0:
177,121,91781,1,0,0:0:0:0:
428,225,92134,1,0,0:0:0:0:
245,23,92487,1,0,0:0:0:0:
266,183,92840,2,0,P|224:213|163:227,1,80
251,97,93193,1,0,0:0:0:0:
436,85,93546,5,0,0:0:0:0:
106,77,94252,1,0,0:0:0:0:
260,120,94605,1,0,0:0:0:0:
144,203,94958,2,0,P|174:237|236:248,1,80
328,188,95311,2,0,P|376:207|397:225,1,80
288,307,95664,1,0,0:0:0:0:
162,65,96017,1,0,0:0:0:0:
431,97,96369,5,0,0:0:0:0:
202,244,96722,1,0,0:0:0:0:
361,208,97075,2,0,P|401:239|436:245,2,80
184,71,97781,5,0,0:0:0:0:
95,328,98134,1,0,0:0:0:0:
206,249,98487,1,0,0:0:0:0:
318,324,98663,1,0,0:0:0:0:
393,210,98840,1,0,0:0:0:0:
228,91,99193,5,0,0:0:0:0:
127,182,99369,1,0,0:0:0:0:
262,163,99546,1,0,0:0:0:0:
170,262,99722,1,0,0:0:0:0:
305,244,99899,2,0,P|351:232|408:129,1,160
296,62,100428,5,0,0:0:0:0:
160,76,100605,2,0,P|196:109|233:121,1,80
177,247,100958,2,0,P|216:271|257:279,1,80
328,167,101311,1,0,0:0:0:0:
406,277,101487,1,0,0:0:0:0:
474,159,101664,1,0,0:0:0:0:
351,71,102017,1,0,0:0:0:0:
351,71,102369,6,0,P|311:93|272:95,1,80
157,100,102722,1,0,0:0:0:0:
157,100,103075,2,0,P|178:134|228:164,1,80
326,188,103428,1,0,0:0:0:0:
326,188,103605,2,0,P|278:230|236:244,1,80
147,204,103958,1,0,0:0:0:0:
218,300,104134,1,0,0:0:0:0:
357,104,104487,1,0,0:0:0:0:
117,92,104840,6,0,P|143:50|191:30,1,80
236,134,105193,1,0,0:0:0:0:
236,134,105369,2,0,P|270:173|278:216,1,80
462,45,105899,1,0,0:0:0:0:
462,45,106252,6,0,P|410:71|387:67,1,80
358,184,106605,1,0,0:0:0:0:
358,184,106781,1,0,0:0:0:0:
270,101,106958,1,0,0:0:0:0:
151,309,107311,1,0,0:0:0:0:
151,309,107664,6,0,P|115:254|110:225,1,80
229,266,108017,1,0,0:0:0:0:
229,266,108193,1,0,0:0:0:0:
229,266,108369,2,0,P|215:212|216:151,1,80
324,140,108722,1,0,0:0:0:0:
324,140,109075,2,0,P|315:86|326:45,1,80
414,135,109428,2,0,P|424:184|416:226,1,80
342,305,109781,1,0,0:0:0:0:
232,109,110134,1,0,0:0:0:0:
232,109,110487,6,0,P|182:70|174:39,1,80
296,42,110840,1,0,0:0:0:0:
296,42,111017,1,0,0:0:0:0:
296,42,111193,2,0,P|331:87|327:119,1,80
327,227,111546,1,0,0:0:0:0:
330,227,111899,2,0,P|312:273|278:298,1,80
241,181,112252,2,0,P|254:134|315:111,1,80
357,205,112605,1,0,0:0:0:0:
289,292,112781,1,0,0:0:0:0:
202,208,112958,1,0,0:0:0:0:
401,59,113311,6,0,P|359:77|314:77,1,80
365,192,113664,1,0,0:0:0:0:
365,192,114017,2,0,P|316:203|277:201,1,80
293,321,114369,1,0,0:0:0:0:
293,321,114722,2,0,P|249:328|201:328,1,80
206,208,115075,2,0,P|166:233|128:244,1,80
176,129,115428,1,0,0:0:0:0:
409,184,115781,1,0,0:0:0:0:
409,184,116134,6,0,P|394:121|368:85,1,80
291,182,116487,1,0,0:0:0:0:
291,182,116840,2,0,P|253:213|211:220,1,80
105,241,117193,1,0,0:0:0:0:
105,241,117546,2,0,P|133:273|179:291,1,80
208,175,117899,1,0,0:0:0:0:
208,175,118075,1,0,0:0:0:0:
327,192,118252,2,0,B|360:158|364:116|364:116|280:66,1,160
82,180,118958,5,0,0:0:0:0:
149,278,119134,1,0,0:0:0:0:
214,176,119311,1,0,0:0:0:0:
243,177,119664,1,0,0:0:0:0:
333,98,119840,1,0,0:0:0:0:
406,193,120017,1,0,0:0:0:0:
406,193,120369,6,0,P|372:240|339:252,1,80
243,199,120722,2,0,P|215:229|210:267,1,80
324,189,121075,1,0,0:0:0:0:
261,86,121252,1,0,0:0:0:0:
200,189,121428,1,0,0:0:0:0:
120,98,121605,1,0,0:0:0:0:
67,205,121781,2,0,B|89:259|115:278|115:278|198:295,1,160
233,181,122311,1,0,0:0:0:0:
290,75,122487,2,0,B|344:97|363:123|363:123|380:206,1,160
272,253,123017,5,0,0:0:0:0:
183,172,123193,2,0,P|186:125|209:98,1,80
101,210,123546,2,0,P|90:254|60:282,1,80
168,327,123899,1,0,0:0:0:0:
246,236,124075,1,0,0:0:0:0:
316,333,124252,1,0,0:0:0:0:
436,67,124605,6,0,P|404:96|366:103,1,80
335,218,124958,2,0,P|286:197|255:160,1,80
244,60,125311,1,0,0:0:0:0:
153,138,125487,1,0,0:0:0:0:
267,178,125664,1,0,0:0:0:0:
71,251,126017,6,0,P|111:247|149:222,1,80
252,277,126369,2,0,P|289:246|309:208,1,80
287,99,126722,1,0,0:0:0:0:
227,203,126899,1,0,0:0:0:0:
346,212,127075,1,0,0:0:0:0:
449,82,127428,5,0,0:0:0:0:
329,65,127605,1,0,0:0:0:0:
392,166,127781,1,0,0:0:0:0:
288,108,127958,1,0,0:0:0:0:
212,201,128134,2,0,P|254:224|297:221,1,80
230,117,128487,1,0,0:0:0:0:
140,103,128840,6,0,P|151:148|176:174,1,80
275,107,129193,2,0,P|320:123|365:123,1,80
273,215,129546,1,0,0:0:0:0:
378,270,129722,1,0,0:0:0:0:
387,149,129899,1,0,0:0:0:0:
273,215,130075,1,0,0:0:0:0:
257,79,130252,6,0,B|231:117|190:140|190:140|169:213,1,160
268,276,130781,1,0,0:0:0:0:
338,178,130958,2,0,B|289:173|256:185|256:185|177:137,1,160
284,69,131487,1,0,0:0:0:0:
164,52,131664,2,0,B|144:89|106:104|106:104|111:190,1,160
229,163,132193,1,0,0:0:0:0:
329,228,132369,1,0,0:0:0:0:
104,311,132722,1,0,0:0:0:0:
213,261,132899,5,0,0:0:0:0:
322,308,133075,1,0,0:0:0:0:
356,70,133428,1,0,0:0:0:0:
119,110,133781,1,0,0:0:0:0:
233,148,133958,1,0,0:0:0:0:
145,244,134311,2,0,P|183:281|209:283,1,80
402,156,134840,5,0,0:0:0:0:
187,90,135193,2,0,L|140:100,6,40
322,73,135899,1,0,0:0:0:0:
260,175,136075,1,0,0:0:0:0:
360,121,136252,1,0,0:0:0:0:
479,115,136428,1,0,0:0:0:0:
389,171,136605,1,0,0:0:0:0:
283,227,136781,1,0,0:0:0:0:
407,228,136958,1,0,0:0:0:0:
138,186,137311,5,0,0:0:0:0:
227,287,137487,1,0,0:0:0:0:
282,165,137664,1,0,0:0:0:0:
138,186,137840,1,0,0:0:0:0:
300,247,138017,2,0,P|342:233|366:205,1,80
282,165,138369,2,0,P|237:124|228:86,1,80
353,48,138722,5,0,0:0:0:0:
280,163,138899,1,0,0:0:0:0:
394,89,139075,1,0,0:0:0:0:
280,163,139252,1,0,0:0:0:0:
413,138,139428,1,0,0:0:0:0:
280,163,139605,1,0,0:0:0:0:
411,196,139781,1,0,0:0:0:0:
148,125,140134,6,0,P|181:161|215:172,1,80
286,58,140487,2,0,P|321:27|358:22,1,80
340,157,140840,1,0,0:0:0:0:
216,98,141017,1,0,0:0:0:0:
232,232,141193,1,0,0:0:0:0:
340,157,141369,1,0,0:0:0:0:
333,293,141546,6,0,B|280:297|246:292|246:292|169:243,1,160
315,214,142075,1,0,0:0:0:0:
315,214,142252,2,0,B|262:218|228:213|228:213|151:164,1,160
319,100,142958,2,0,P|367:115|400:140,1,80
263,179,143311,1,0,0:0:0:0:
161,89,143487,1,0,0:0:0:0:
108,214,143664,1,0,0:0:0:0:
372,279,144017,1,0,0:0:0:0:
372,279,144369,6,0,P|401:234|405:190,1,80
270,191,144722,2,0,P|274:251|292:273,1,80
352,147,145075,1,0,0:0:0:0:
239,69,145252,1,0,0:0:0:0:
239,69,145428,2,0,P|192:77|151:70,1,80
261,164,145781,2,0,P|298:199|341:208,1,80
334,71,146134,1,0,0:0:0:0:
90,191,146487,1,0,0:0:0:0:
90,191,146664,2,0,P|136:207|165:193,1,80
234,78,147017,1,0,0:0:0:0:
325,178,147193,6,0,P|365:156|381:124,1,80
246,152,147546,2,0,P|205:182|191:214,1,80
315,267,147899,1,0,0:0:0:0:
406,166,148075,1,0,0:0:0:0:
281,110,148252,1,0,0:0:0:0:
281,110,148605,6,0,P|232:129|201:135,1,80
358,183,148958,2,0,P|395:200|440:202,1,80
381,76,149311,1,0,0:0:0:0:
297,182,149487,1,0,0:0:0:0:
211,75,149664,1,0,0:0:0:0:
122,178,149840,1,0,0:0:0:0:
122,178,150017,6,0,P|166:213|213:217,1,80
211,75,150369,2,0,P|250:41|288:36,1,80
339,156,150722,2,0,P|374:189|412:197,1,80
428,62,151075,2,0,P|470:40|508:36,1,80
450,162,151428,1,0,0:0:0:0:
345,74,151605,1,0,0:0:0:0:
270,187,151781,1,0,0:0:0:0:
153,116,151958,1,0,0:0:0:0:
164,251,152134,2,0,P|202:273|252:281,1,80
272,148,152487,2,0,P|301:116|348:105,1,80
397,208,152840,6,0,B|337:227|337:227|227:193,1,160
348,139,153369,1,0,0:0:0:0:
228,124,153546,2,0,B|171:125|171:125|71:169,1,160
296,263,154252,2,0,P|341:261|381:244,1,80
271,184,154605,2,0,P|226:178|187:192,1,80
327,114,154958,1,0,0:0:0:0:
120,236,155311,1,0,0:0:0:0:
264,44,155664,5,0,0:0:0:0:
177,126,155840,1,0,0:0:0:0:
270,201,156017,1,0,0:0:0:0:
172,269,156193,1,0,0:0:0:0:
172,269,156369,2,0,P|216:294|251:294,1,80
410,297,156722,5,0,0:0:0:0:
455,185,156899,1,0,0:0:0:0:
336,203,157075,2,0,P|315:166|276:146,1,80
221,251,157428,1,0,0:0:0:0:
66,101,157781,6,0,P|115:133|149:131,1,80
223,52,158134,1,0,0:0:0:0:
359,102,158487,2,0,B|316:148|316:148|339:252,1,160
225,196,159017,1,0,0:0:0:0:
173,88,159193,2,0,P|146:124|103:130,1,80
225,196,159546,1,0,0:0:0:0:
429,69,159899,5,0,0:0:0:0:
310,88,160075,1,0,0:0:0:0:
392,175,160252,2,0,P|349:188|301:176,1,80
213,118,160605,1,0,0:0:0:0:
121,40,160781,1,0,0:0:0:0:
44,132,160958,1,0,0:0:0:0:
220,295,161311,6,0,P|269:291|303:275,1,80
203,202,161664,1,0,0:0:0:0:
322,194,161840,1,0,0:0:0:0:
265,87,162017,2,0,P|310:108|356:102,1,80
191,118,162369,1,0,0:0:0:0:
92,148,162722,6,0,P|131:179|166:181,1,80
259,114,163075,2,0,P|294:72|330:57,1,80
363,171,163428,1,0,0:0:0:0:
266,242,163605,1,0,0:0:0:0:
354,322,163781,1,0,0:0:0:0:
441,247,164134,5,0,0:0:0:0:
443,126,164311,1,0,0:0:0:0:
337,183,164487,2,0,P|301:161|287:118,1,80
210,220,164840,1,0,0:0:0:0:
105,160,165017,1,0,0:0:0:0:
65,273,165193,1,0,0:0:0:0:
196,143,165369,1,0,0:0:0:0:
294,212,165546,1,0,0:0:0:0:
428,37,165899,1,0,0:0:0:0:
411,276,166252,1,0,0:0:0:0:
347,174,166428,1,0,0:0:0:0:
455,122,166605,1,0,0:0:0:0:
137,81,171899,5,0,0:0:0:0:
199,183,172075,1,0,0:0:0:0:
260,79,172252,1,0,0:0:0:0:
137,81,172428,1,0,0:0:0:0:
199,183,172605,2,0,P|235:220|281:229,1,80
376,167,172958,1,0,0:0:0:0:
319,61,173134,1,0,0:0:0:0:
256,163,173311,1,0,0:0:0:0:
458,33,173664,1,0,0:0:0:0:
374,122,174017,5,0,0:0:0:0:
278,194,174193,1,0,0:0:0:0:
401,251,174369,1,0,0:0:0:0:
374,122,174546,1,0,0:0:0:0:
254,129,174722,1,0,0:0:0:0:
471,230,175075,1,0,0:0:0:0:
377,113,175428,5,0,0:0:0:0:
377,113,175781,2,0,P|331:96|296:105,1,80
174,216,176134,1,0,0:3:0:0:
174,216,176487,2,0,P|233:208|257:184,1,80,0|0,0:3|0:3,0:3:0:0:
348,130,176840,1,0,0:0:0:0:
266,41,177017,1,0,0:0:0:0:
234,156,177193,1,0,0:0:0:0:
348,130,177369,1,0,0:0:0:0:
266,41,177546,2,0,P|196:63|188:72,1,80
278,150,177899,1,0,0:0:0:0:
357,60,178075,1,0,0:0:0:0:
357,60,178252,6,0,B|315:29|315:29|206:45,1,160
173,159,178781,1,0,0:0:0:0:
173,159,178958,2,0,B|223:172|223:172|356:156,1,160
455,77,179664,2,0,P|414:44|384:30,1,80
270,52,180017,2,0,P|294:91|353:115,1,80
438,81,180369,1,0,0:0:0:0:
217,175,180722,1,0,0:0:0:0:
332,121,181075,6,0,P|306:88|268:68,1,80
255,188,181428,2,0,P|293:211|338:208,1,80
310,91,181781,1,0,0:0:0:0:
90,187,182134,5,0,0:0:0:0:
198,239,182311,2,0,P|246:261|283:259,1,80
307,145,182664,2,0,P|280:100|251:77,1,80
90,253,183193,1,0,0:0:0:0:
321,184,183546,1,0,0:0:0:0:
321,184,183899,6,0,P|341:135|335:102,1,80
235,173,184252,2,0,P|244:214|268:250,1,80
391,247,184605,2,0,P|411:198|405:165,1,80
305,236,184958,2,0,P|314:277|338:313,1,80
306,142,185311,1,0,0:0:0:0:
203,80,185487,1,0,0:0:0:0:
189,199,185664,1,0,0:0:0:0:
306,142,185840,1,0,0:0:0:0:
203,80,186017,1,0,0:0:0:0:
291,302,186369,1,0,0:0:0:0:
391,198,186722,6,0,P|433:169|446:135,1,80
328,111,187075,2,0,P|276:147|265:180,1,80
391,198,187428,2,0,P|433:169|446:135,1,80
328,111,187781,2,0,P|276:147|265:180,1,80
242,277,188134,1,0,0:0:0:0:
347,334,188311,1,0,0:0:0:0:
342,214,188487,1,0,0:0:0:0:
242,277,188664,1,0,0:0:0:0:
347,334,188840,2,0,P|377:300|388:261,1,80
321,148,189193,2,0,P|288:182|283:221,1,80
423,281,189546,6,0,B|454:248|454:248|415:127,1,160
334,102,190075,1,0,0:0:0:0:
231,56,190252,2,0,B|194:95|194:95|188:206,1,160
388,201,190958,2,0,P|414:155|412:120,1,80
295,151,191311,2,0,P|271:194|270:242,1,80
371,117,191664,1,0,0:0:0:0:
166,243,192017,1,0,0:0:0:0:
394,172,192369,5,0,0:0:0:0:
296,101,192546,2,0,P|239:74|207:81,1,80
246,193,192899,1,0,0:0:0:0:
355,13,193252,1,0,0:0:0:0:
262,89,193428,1,0,0:0:0:0:
350,170,193605,1,0,0:0:0:0:
444,96,193781,2,0,P|440:53|407:25,1,80
320,103,194134,1,0,0:0:0:0:
442,309,194487,2,0,L|480:272,5,40
387,268,195017,1,0,0:0:0:0:
273,230,195193,6,0,P|228:222|174:168,1,120
188,112,195546,2,0,P|231:100|319:131,1,120
335,168,195899,2,0,P|330:217|269:263,1,120
230,223,196252,1,0,0:0:0:0:
406,60,196605,6,0,P|432:99|434:137,1,80
314,122,196958,2,0,P|277:74|272:42,1,80
266,215,197311,2,0,P|261:256|229:293,1,80
156,197,197664,2,0,P|162:144|190:107,1,80
350,102,198017,6,0,P|367:153|321:219,1,120
291,223,198369,2,0,P|249:206|209:129,1,120
231,102,198722,2,0,P|267:78|349:83,1,120
370,132,199075,1,0,0:0:0:0:
182,281,199428,6,0,P|156:244|154:198,1,80
270,233,199781,2,0,P|285:285|268:334,1,80
182,281,200134,2,0,P|156:244|154:198,1,80
270,233,200487,2,0,P|285:285|268:334,1,80
230,147,200840,6,0,B|329:102|329:102|396:125,1,160
299,231,201369,1,0,0:0:0:0:
167,188,201546,2,0,B|149:143|149:143|218:46,1,160
410,190,202252,2,0,P|365:210|321:211,1,80
340,92,202605,2,0,P|372:67|418:62,1,80
268,203,202958,1,0,0:0:0:0:
439,35,203311,1,0,0:0:0:0:
334,229,203664,6,0,P|287:186|276:148,1,80
390,147,204017,2,0,P|420:185|426:232,1,80
359,304,204369,1,0,0:0:0:0:
159,170,204722,2,0,P|160:117|179:83,1,80
271,159,205075,2,0,P|256:205|211:222,1,80
199,103,205428,1,0,0:0:0:0:
351,288,205781,1,0,0:0:0:0:
232,266,205958,2,0,P|187:242|172:208,1,80
277,156,206311,1,0,0:0:0:0:
316,268,206487,5,0,0:0:0:0:
176,92,206840,1,0,0:0:0:0:
384,172,207193,1,0,0:0:0:0:
178,313,207546,1,0,0:0:0:0:
178,313,207899,6,0,P|173:269|200:222,1,80
300,198,208252,2,0,P|336:232|357:272,1,80
256,331,208605,1,0,0:0:0:0:
236,212,208781,1,0,0:0:0:0:
348,254,208958,1,0,0:0:0:0:
256,331,209134,1,0,0:0:0:0:
165,264,209311,5,0,0:0:0:0:
296,82,209664,1,0,0:0:0:0:
402,279,210017,1,0,0:0:0:0:
201,179,210369,1,0,0:0:0:0:
201,179,210722,5,0,0:0:0:0:
292,113,210899,1,0,0:0:0:0:
361,200,211075,1,0,0:0:0:0:
254,234,211252,1,0,0:0:0:0:
255,101,211428,2,0,P|310:122|331:145,1,80
223,201,211781,2,0,P|181:193|152:163,1,80
199,56,212134,5,0,0:0:0:0:
396,162,212487,1,0,0:0:0:0:
333,255,212664,2,0,P|291:254|253:226,1,80
422,62,213193,1,0,0:0:0:0:
222,195,213546,2,0,P|166:181|151:163,1,80
255,103,213899,2,0,P|300:113|327:140,1,80
222,195,214252,1,0,0:0:0:0:
407,42,214605,1,0,0:0:0:0:
404,129,214781,5,0,0:0:0:0:
323,165,214958,2,0,P|298:122|303:72,1,80
404,129,215311,2,0,P|406:171|384:216,1,80
323,165,215664,1,0,0:0:0:0:
323,165,216017,6,0,P|274:187|242:178,1,80
271,96,216369,2,0,P|309:73|375:79,1,80
404,122,216722,1,0,0:0:0:0:
255,289,217075,2,0,P|213:282|170:251,1,80
277,204,217428,2,0,P|331:216|361:247,1,80
255,293,217781,6,0,B|215:277|215:277|156:172,1,160
243,101,218311,1,0,0:0:0:0:
277,204,218487,1,0,0:0:0:0:
129,252,218840,1,0,0:0:0:0:
129,252,219193,6,0,P|188:256|211:252,1,80
198,164,219546,2,0,P|235:138|278:126,1,80
274,215,219899,2,0,P|266:257|227:313,1,80
160,284,220252,1,0,0:0:0:0:
284,216,220605,2,0,P|317:246|430:264,1,160
386,186,221134,1,0,0:0:0:0:
354,103,221311,6,0,P|314:117|271:113,1,80
386,186,221664,1,0,0:0:0:0:
197,306,222017,1,0,0:0:0:0:
283,235,222193,1,0,0:0:0:0:
184,181,222369,1,0,0:0:0:0:
276,114,222546,1,0,0:0:0:0:
378,158,222722,2,0,P|349:193|293:217,1,80
229,142,223075,1,0,0:0:0:0:
285,52,223428,6,0,P|324:87|384:107,1,80
416,155,223781,2,0,P|387:194|355:210,1,80
279,244,224134,2,0,P|324:293|349:300,1,80
419,270,224487,1,0,0:0:0:0:
483,330,224664,1,0,0:0:0:0:
502,244,224840,1,0,0:0:0:0:
432,189,225017,2,0,P|461:149|475:92,1,80
383,116,225369,1,0,0:0:0:0:
304,156,225546,2,0,L|269:179,4,40
221,125,225987,2,0,L|187:93,3,40
