osu file format v14

[General]
AudioFilename: moe.mp3
AudioLeadIn: 0
PreviewTime: 71582
Countdown: 0
SampleSet: Soft
StackLeniency: 0.4
Mode: 0
LetterboxInBreaks: 1
WidescreenStoryboard: 1

[Editor]
Bookmarks: 2811,12316,17142,19444,21821,31326,36152,40831,50335,55088,59840,69420,71722,81227,85979,90732,100236,131128,147761,194107,213117,229750,236285,239378
DistanceSpacing: 1.4
BeatDivisor: 4
GridSize: 4
TimelineZoom: 2.599999

[Metadata]
Title:Sayonara Ryou Kataomoi
TitleUnicode:さよなら両片想
Artist:sana
ArtistUnicode:鎖那
Creator:Milan-
Version:apple's Insane
Source:
Tags:moe appleeaterx honeyworks Suki ni Naru Sono Shunkan wo 好きになるその瞬間を utaite
BeatmapID:1184488
BeatmapSetID:508803

[Difficulty]
HPDrainRate:7
CircleSize:4
OverallDifficulty:8
ApproachRate:9
SliderMultiplier:0.9
SliderTickRate:2

[Events]
//Background and Video events
0,0,"b.jpg",0,0
//Break Periods
//Storyboard Layer 0 (Background)
//Storyboard Layer 1 (Fail)
//Storyboard Layer 2 (Pass)
//Storyboard Layer 3 (Foreground)
//Storyboard Sound Samples

[TimingPoints]
2993,297.029702970297,4,2,1,55,1,0
10121,-57.1428571428571,4,2,1,55,0,0
12497,-57.1428571428571,4,2,1,45,0,0
17250,-57.1428571428571,4,2,1,55,0,0
19626,-57.1428571428571,4,2,1,50,0,0
20814,-57.1428571428571,4,2,1,55,0,0
22002,-54.054054054054,4,2,1,55,0,0
41012,-54.054054054054,4,2,1,45,0,0
50517,-54.054054054054,4,2,1,55,0,0
55270,-83.3333333333333,4,2,1,40,0,0
57646,-83.3333333333333,4,2,1,45,0,0
66854,-83.3333333333333,4,2,1,50,0,0
67448,-83.3333333333333,4,2,1,45,0,0
69230,-83.3333333333333,4,2,1,55,0,0
71903,-50,4,2,1,55,0,1
83785,-55.5555555555556,4,2,1,55,0,0
85864,-50,4,2,1,55,0,1
90913,-50,4,2,1,55,0,0

[Colours]
Combo1 : 168,196,159
Combo2 : 187,198,208
Combo3 : 226,215,173
Combo4 : 208,187,198

[HitObjects]
87,331,2992,5,4,0:0:0:0:
68,248,3141,1,4,0:0:0:0:
452,224,5369,5,4,0:0:0:0:
471,141,5518,1,4,0:0:0:0:
292,344,6260,5,4,0:0:0:0:
273,261,6409,1,4,0:0:0:0:
87,331,7745,5,4,0:0:0:0:
68,248,7894,1,4,0:0:0:0:
368,280,10121,5,4,0:0:0:0:
368,280,10270,2,0,P|354:337|349:374,1,78.7500007510185,4|0,0:0|0:0,0:0:0:0:
456,240,10567,2,0,P|401:185|304:203,1,157.500001502037,4|0,0:0|3:0,0:0:0:0:
128,236,11012,6,0,P|89:223|47:215,1,78.7500007510185,8|0,0:0|0:0,0:0:0:0:
37,196,11606,5,0,3:0:0:0:
51,159,11680,1,0,0:0:0:0:
78,132,11754,1,0,3:0:0:0:
115,118,11828,1,0,0:0:0:0:
154,120,11903,2,0,P|151:65|139:20,1,78.7500007510185,0|0,3:0|3:0,0:0:0:0:
429,111,12200,2,0,L|302:86,1,118.125001126528,2|0,3:0|0:0,0:0:0:0:
288,88,12497,6,0,P|245:155|249:244,1,157.500001502037,4|4,0:0|0:3,0:0:0:0:
307,295,12943,1,0,0:0:0:0:
171,355,13092,2,0,P|123:342|83:333,1,78.7500007510185,4|0,0:3|0:0,0:0:0:0:
78,213,13389,2,0,P|126:226|166:235,1,78.7500007510185,4|0,0:3|0:0,0:0:0:0:
348,186,13686,5,4,0:3:0:0:
307,295,13834,1,0,0:0:0:0:
238,212,13983,2,0,P|226:167|215:114,1,78.7500007510185,4|0,0:3|0:0,0:0:0:0:
416,266,14280,2,0,P|407:304|397:342,1,78.7500007510185,4|8,0:3|0:0,0:0:0:0:
348,186,14577,2,0,P|401:175|451:171,1,78.7500007510185,4|8,0:3|0:0,0:0:0:0:
268,55,14874,6,0,P|203:38|130:107,1,157.500001502037,4|4,0:0|0:3,0:0:0:0:
94,175,15319,1,0,0:0:0:0:
39,41,15468,2,0,P|23:98|23:122,1,78.7500007510185,4|0,0:3|0:0,0:0:0:0:
69,269,15765,1,6,0:3:0:0:
94,175,15913,1,0,0:0:0:0:
131,365,16062,1,4,0:3:0:0:
97,260,16210,6,0,P|145:273|190:280,1,78.7500007510185,2|4,0:0|0:3,0:0:0:0:
327,188,16507,1,0,0:0:0:0:
317,177,16582,1,0,0:0:0:0:
309,168,16656,2,0,P|270:181|232:196,1,78.7500007510185,8|4,0:3|0:3,0:0:0:0:
315,331,16953,1,8,0:0:0:0:
423,246,17101,1,0,0:0:0:0:
431,236,17176,1,8,0:0:0:0:
441,223,17250,6,0,L|457:129,1,78.7500007510185,4|0,0:0|0:0,0:0:0:0:
128,53,19626,6,0,L|141:130,1,78.7500007510185,6|0,0:0|0:0,0:0:0:0:
106,282,19923,1,0,0:0:0:0:
208,213,20072,1,0,0:0:0:0:
208,213,20146,1,0,0:0:0:0:
208,213,20220,1,8,0:0:0:0:
60,150,20369,1,0,0:0:0:0:
199,303,20517,2,0,L|286:284,1,78.7500007510185,8|0,0:0|0:0,0:0:0:0:
347,313,20740,1,0,0:0:0:0:
347,313,20814,6,0,P|416:352|460:336,1,118.125001126528,8|8,0:0|0:0,0:0:0:0:
460,332,21111,1,8,0:0:0:0:
420,143,21260,1,8,0:0:0:0:
420,143,21334,1,8,0:0:0:0:
420,143,21408,2,0,P|404:203|404:231,1,78.7500007510185,8|8,0:0|0:0,0:0:0:0:
410,234,21631,1,8,0:0:0:0:
417,247,21705,1,8,0:0:0:0:
298,107,21854,1,8,0:0:0:0:
298,107,21928,1,8,0:0:0:0:
298,107,22002,6,0,P|227:154|124:117,1,166.499999364853,6|8,0:0|0:0,0:0:0:0:
116,36,22448,1,0,0:0:0:0:
69,206,22596,2,0,P|56:142|53:111,1,83.2499996824265,2|0,0:0|0:0,0:0:0:0:
195,249,22893,2,0,P|189:290|180:330,1,83.2499996824265,8|0,0:0|0:0,0:0:0:0:
150,140,23191,6,0,L|330:109,1,166.499999364853,2|8,0:0|0:0,0:0:0:0:
496,168,23636,1,0,0:0:0:0:
496,168,23710,1,0,0:0:0:0:
496,168,23785,1,2,0:0:0:0:
404,80,23933,1,0,0:0:0:0:
364,200,24082,2,0,L|342:301,1,83.2499996824265,10|0,0:0|0:0,0:0:0:0:
206,362,24379,6,0,P|158:363|125:340,1,83.2499996824265,2|0,0:0|0:0,0:0:0:0:
262,199,24676,1,8,0:0:0:0:
158,244,24824,1,0,0:0:0:0:
262,199,24973,2,0,L|244:24,1,166.499999364853,2|8,0:0|0:0,0:0:0:0:
346,62,25418,1,0,0:0:0:0:
157,107,25567,6,0,P|104:94|67:89,1,83.2499996824265,2|0,0:0|0:0,0:0:0:0:
244,33,25864,1,8,0:0:0:0:
262,199,26012,1,0,0:0:0:0:
272,186,26087,1,8,0:0:0:0:
281,171,26161,2,0,P|326:181|394:197,1,83.2499996824265,2|0,0:0|0:0,0:0:0:0:
491,90,26458,1,8,0:0:0:0:
371,40,26606,1,8,0:0:0:0:
385,31,26681,1,8,0:0:0:0:
400,19,26755,6,0,P|385:77|380:111,1,83.2499996824265,6|0,0:0|0:0,0:0:0:0:
446,269,27052,2,0,P|461:211|466:177,1,83.2499996824265,8|0,0:0|0:0,0:0:0:0:
291,69,27349,2,0,P|212:78|167:162,1,166.499999364853,2|8,0:0|0:0,0:0:0:0:
183,302,27794,1,0,0:0:0:0:
110,232,27943,6,0,L|25:255,1,83.2499996824265,2|0,0:0|0:0,0:0:0:0:
267,376,28240,2,0,P|286:322|287:285,1,83.2499996824265,8|0,0:0|0:0,0:0:0:0:
188,67,28537,2,0,P|169:121|168:158,1,83.2499996824265,2|0,0:0|0:0,0:0:0:0:
373,296,28834,1,10,0:0:0:0:
271,124,28983,1,0,0:0:0:0:
395,204,29131,6,0,B|342:189|342:189|296:215|296:215|223:200,1,166.499999364853,2|8,0:0|0:0,0:0:0:0:
474,294,29577,1,0,0:0:0:0:
482,283,29651,1,8,0:0:0:0:
489,270,29725,2,0,P|503:214|507:176,1,83.2499996824265,2|0,0:0|0:0,0:0:0:0:
397,26,30022,2,0,P|383:82|379:120,1,83.2499996824265,8|0,0:0|0:0,0:0:0:0:
489,83,30319,1,2,0:0:0:0:
83,127,30616,6,0,L|190:108,1,83.2499996824265,8|8,0:0|0:0,0:0:0:0:
229,52,30839,1,8,0:0:0:0:
241,69,30913,6,0,L|249:122,1,41.6249998412132,8|0,0:0|0:0,0:0:0:0:
346,102,31062,2,0,L|339:143,1,41.6249998412132,8|8,0:0|0:0,0:0:0:0:
204,178,31210,6,0,L|212:231,1,41.6249998412132,8|0,0:0|0:0,0:0:0:0:
364,218,31359,2,0,L|357:259,1,41.6249998412132,8|8,0:0|0:0,0:0:0:0:
262,371,31507,6,0,P|258:337|271:290,1,83.2499996824265,4|0,0:0|0:0,0:0:0:0:
364,218,31804,1,8,0:0:0:0:
166,316,31953,2,0,L|-3:293,1,166.499999364853,6|0,0:0|0:0,0:0:0:0:
115,105,32398,1,0,0:0:0:0:
14,142,32547,1,8,0:0:0:0:
19,154,32621,1,8,0:0:0:0:
25,169,32695,6,0,P|82:213|185:184,1,166.499999364853,10|8,0:0|0:0,0:0:0:0:
367,71,33141,2,0,P|288:53|221:99,1,166.499999364853,6|0,0:0|3:3,0:0:0:0:
189,290,33587,1,0,3:0:0:0:
308,142,33735,1,0,0:0:0:0:
287,372,33884,6,0,P|275:287|253:197,1,166.499999364853,4|0,0:0|0:0,0:0:0:0:
410,76,34329,1,8,0:0:0:0:
366,249,34478,1,0,0:0:0:0:
224,127,34626,1,8,0:0:0:0:
406,163,34775,2,0,P|347:150|296:141,1,83.2499996824265,0|8,0:0|0:0,0:0:0:0:
158,213,35072,5,2,0:0:0:0:
125,186,35146,1,0,0:0:0:0:
107,149,35220,1,0,0:0:0:0:
110,108,35294,1,0,0:0:0:0:
131,73,35369,1,8,0:0:0:0:
59,257,35517,6,0,P|69:322|72:353,1,83.2499996824265,4|0,0:0|0:0,0:0:0:0:
224,127,35814,1,8,0:0:0:0:
224,127,35889,1,8,0:0:0:0:
224,127,35963,1,8,0:0:0:0:
272,322,36111,1,8,0:0:0:0:
165,236,36260,6,0,L|339:204,1,166.499999364853,6|8,0:0|0:0,0:0:0:0:
468,299,36705,2,0,P|427:292|389:274,1,83.2499996824265,0|2,0:0|0:0,0:0:0:0:
328,205,37002,1,0,0:0:0:0:
460,134,37151,2,0,P|470:78|479:35,1,83.2499996824265,8|0,0:0|0:0,0:0:0:0:
312,123,37448,6,0,P|320:164|328:205,1,83.2499996824265,2|0,0:0|0:0,0:0:0:0:
186,337,37745,1,8,0:0:0:0:
229,189,37893,1,8,0:0:0:0:
229,189,37967,1,8,0:0:0:0:
229,189,38042,1,2,0:0:0:0:
313,288,38191,1,0,0:0:0:0:
133,241,38339,2,0,L|38:257,1,83.2499996824265,8|0,0:0|0:0,0:0:0:0:
158,89,38636,6,0,L|293:73,1,124.87499952364,6|8,0:0|0:0,0:0:0:0:
302,71,38933,1,8,0:0:0:0:
463,215,39082,2,0,P|384:220|322:148,1,166.499999364853,6|0,0:0|0:0,0:0:0:0:
421,109,39527,1,0,0:0:0:0:
446,319,39676,1,0,0:0:0:0:
440,333,39750,1,0,0:0:0:0:
435,345,39824,6,0,P|371:323|305:311,1,124.87499952364,6|8,0:0|0:0,0:0:0:0:
300,323,40121,1,8,0:0:0:0:
134,357,40270,2,0,P|129:294|209:208,1,166.499999364853,6|10,0:0|0:0,0:0:0:0:
300,323,40715,1,0,0:0:0:0:
361,112,40864,1,8,0:0:0:0:
287,223,41012,6,0,P|329:217|372:212,1,83.2499996824265,4|0,0:0|0:0,0:0:0:0:
443,101,41309,2,0,P|399:107|359:112,1,83.2499996824265,4|0,0:3|0:0,0:0:0:0:
456,188,41606,2,0,P|446:250|443:274,1,83.2499996824265,4|0,0:3|0:0,0:0:0:0:
270,127,41903,2,0,P|265:87|257:42,1,83.2499996824265,0|0,0:0|0:0,0:0:0:0:
149,190,42200,6,0,P|81:192|21:110,2,166.499999364853,4|4|4,0:3|0:3|0:3,0:0:0:0:
270,127,42943,1,0,0:0:0:0:
240,217,43092,2,0,P|249:264|248:299,1,83.2499996824265,4|0,0:3|0:0,0:0:0:0:
114,113,43389,6,0,P|113:71|121:30,1,83.2499996824265,2|0,0:0|0:0,0:0:0:0:
230,29,43686,2,0,L|324:16,1,83.2499996824265,4|0,0:3|0:0,0:0:0:0:
435,108,43983,2,0,L|256:128,1,166.499999364853,4|4,0:3|0:3,0:0:0:0:
24,346,44577,6,0,L|203:326,1,166.499999364853,4|4,0:3|0:3,0:0:0:0:
254,266,45022,1,0,0:0:0:0:
357,363,45171,1,4,0:3:0:0:
359,202,45319,2,0,P|343:262|337:298,1,83.2499996824265,8|4,0:0|0:0,0:0:0:0:
422,82,45616,1,8,0:0:0:0:
453,178,45765,6,0,P|385:177|330:83,1,166.499999364853,4|4,0:0|0:3,0:0:0:0:
281,32,46210,2,0,P|223:51|190:60,1,83.2499996824265,0|4,0:0|0:3,0:0:0:0:
195,147,46507,1,0,0:0:0:0:
108,126,46656,2,0,P|68:114|28:101,1,83.2499996824265,4|0,0:3|0:0,0:0:0:0:
195,147,46953,6,0,L|214:317,1,166.499999364853,4|4,0:3|0:3,0:0:0:0:
299,365,47398,1,0,0:0:0:0:
380,309,47547,2,0,L|465:331,1,83.2499996824265,4|0,0:3|0:0,0:0:0:0:
451,125,47844,1,4,0:3:0:0:
475,219,47993,1,0,0:0:0:0:
468,229,48068,1,0,0:0:0:0:
460,239,48141,6,0,L|281:193,1,166.499999364853,2|4,0:0|0:3,0:0:0:0:
254,119,48587,1,0,0:0:0:0:
209,232,48735,2,0,P|161:253|117:247,1,83.2499996824265,4|0,0:3|0:0,0:0:0:0:
194,48,49032,2,0,P|242:27|286:33,1,83.2499996824265,4|0,0:3|0:0,0:0:0:0:
298,197,49329,5,2,0:3:0:0:
164,143,49478,2,0,P|107:126|66:117,1,83.2499996824265,2|0,0:3|0:0,0:0:0:0:
254,119,49775,5,2,0:3:0:0:
254,119,49849,1,0,0:0:0:0:
254,119,49924,1,0,0:0:0:0:
273,288,50072,2,0,P|336:283|390:198,1,166.499999364853,2|0,0:3|0:0,0:0:0:0:
132,225,50517,6,0,P|115:290|115:318,1,83.2499996824265,6|8,0:0|0:0,0:0:0:0:
273,288,50814,1,8,0:0:0:0:
125,122,50963,2,0,B|227:128|175:172|285:178,1,166.499999364853,6|8,0:0|0:0,0:0:0:0:
400,25,51408,1,0,0:0:0:0:
289,86,51557,1,0,0:0:0:0:
355,242,51705,6,0,P|374:174|381:133,1,83.2499996824265,6|0,0:0|0:0,0:0:0:0:
212,126,52002,1,8,0:0:0:0:
296,319,52151,2,0,P|375:339|445:267,1,166.499999364853,6|8,0:0|0:0,0:0:0:0:
250,231,52596,1,8,0:0:0:0:
220,240,52670,1,8,0:0:0:0:
190,249,52744,1,8,0:0:0:0:
160,258,52818,1,0,0:0:0:0:
130,268,52893,6,0,P|74:249|26:243,1,83.2499996824265,6|0,0:0|0:0,0:0:0:0:
201,345,53191,1,8,0:0:0:0:
108,168,53339,2,0,P|82:107|119:15,1,166.499999364853,6|0,0:0|0:0,0:0:0:0:
309,26,53785,1,8,0:0:0:0:
198,122,53933,1,0,0:0:0:0:
190,111,54007,1,0,0:0:0:0:
183,98,54082,6,0,L|348:127,1,166.499999364853,6|8,0:0|0:0,0:0:0:0:
489,320,54527,2,0,P|437:341|389:337,1,83.2499996824265,6|8,0:0|0:0,0:0:0:0:
414,216,54824,1,8,0:0:0:0:
414,216,54898,1,8,0:0:0:0:
414,216,54972,1,8,0:0:0:0:
301,329,55121,1,8,0:0:0:0:
292,345,55195,1,8,0:0:0:0:
283,363,55270,6,0,L|303:246,1,107.999996704102,4|0,0:0|0:0,0:0:0:0:
115,16,55864,2,0,L|95:133,1,107.999996704102,0|2,0:0|0:0,0:0:0:0:
41,183,56309,1,2,0:0:0:0:
109,234,56458,2,0,P|164:240|215:204,1,107.999996704102,2|0,0:0|0:0,0:0:0:0:
320,42,57052,2,0,P|265:36|214:72,1,107.999996704102,2|0,0:0|0:0,0:0:0:0:
286,118,57497,1,0,0:0:0:0:
401,27,57646,6,0,P|410:72|420:142,1,107.999996704102,6|0,0:0|3:0,0:0:0:0:
330,202,58092,1,0,3:3:0:0:
330,202,58166,1,0,0:0:0:0:
330,202,58240,2,0,P|319:266|314:327,1,107.999996704102,8|0,0:0|3:0,0:0:0:0:
420,358,58686,1,0,3:0:0:0:
420,358,58760,1,0,0:0:0:0:
420,358,58834,5,8,0:0:0:0:
158,315,59131,2,0,L|148:359,4,26.9999991760254,0|0|0|0|4,3:0|3:0|3:0|0:0|0:3,0:0:0:0:
282,365,59725,1,8,0:3:0:0:
141,281,60022,6,0,L|122:160,1,107.999996704102,6|0,0:0|0:0,0:0:0:0:
185,22,60468,1,0,0:0:0:0:
120,80,60616,2,0,P|148:100|184:108,1,53.9999983520508,8|2,0:0|0:0,0:0:0:0:
284,144,60913,1,0,0:0:0:0:
248,220,61062,1,0,0:0:0:0:
284,144,61210,6,0,P|290:92|258:20,1,107.999996704102,2|0,0:0|0:0,0:0:0:0:
248,220,61656,1,0,0:0:0:0:
284,300,61804,2,0,L|338:290,1,53.9999983520508,8|0,0:0|0:0,0:0:0:0:
432,204,62101,2,0,L|378:214,1,53.9999983520508
219,360,62398,6,0,P|174:327|111:324,1,107.999996704102,2|0,0:0|0:0,0:0:0:0:
64,224,62844,1,0,0:0:0:0:
48,365,62993,1,8,0:0:0:0:
153,237,63141,2,0,L|134:127,1,107.999996704102,2|0,0:0|0:0,0:0:0:0:
211,30,63587,6,0,L|230:140,2,107.999996704102,2|2|8,0:0|0:0|0:0,0:0:0:0:
471,122,64478,1,0,0:0:0:0:
410,273,64627,1,0,0:0:0:0:
485,228,64775,6,0,P|446:196|377:194,1,107.999996704102,2|0,0:0|0:0,0:0:0:0:
323,246,65220,1,0,0:0:0:0:
351,115,65369,2,0,P|361:69|368:48,1,53.9999983520508,8|2,0:0|0:0,0:0:0:0:
273,166,65666,2,0,P|263:120|256:99,1,53.9999983520508,0|0,0:0|0:0,0:0:0:0:
323,246,65963,6,0,P|288:278|227:288,1,107.999996704102,2|0,0:0|0:0,0:0:0:0:
191,204,66408,1,0,0:0:0:0:
155,334,66557,2,0,P|146:307|145:273,1,53.9999983520508,8|0,0:0|0:0,0:0:0:0:
357,170,66854,6,0,L|485:193,2,107.999996704102,6|0|0,0:0|0:0|0:0,0:0:0:0:
91,213,67745,1,8,0:0:0:0:
91,213,67893,2,0,P|79:161|92:107,1,107.999996704102,0|0,0:0|0:0,0:0:0:0:
298,74,68339,6,0,P|266:85|243:87,1,53.9999983520508,8|0,0:0|0:0,0:0:0:0:
164,44,68636,1,2,0:0:0:0:
164,44,68710,1,0,0:0:0:0:
164,44,68784,1,8,0:0:0:0:
202,165,68933,2,0,P|235:177|261:179,1,53.9999983520508,2|0,0:0|0:0,0:0:0:0:
406,78,69230,1,8,0:0:0:0:
484,246,69379,1,8,0:0:0:0:
484,246,69454,1,8,0:0:0:0:
484,246,69528,5,4,0:0:0:0:
256,192,69601,12,0,71309,0:0:0:0:
216,364,71903,6,0,P|304:324|303:233,1,180,6|8,0:0|0:0,0:0:0:0:
256,83,72349,1,0,0:0:0:0:
52,268,72497,2,0,P|116:256|188:245,1,135,2|0,0:0|0:0,0:0:0:0:
205,260,72794,2,0,P|216:190|225:159,1,90,8|0,0:0|0:0,0:0:0:0:
359,80,73092,5,2,0:0:0:0:
298,229,73240,1,0,0:0:0:0:
171,54,73389,2,0,P|227:70|271:91,1,90,8|0,0:0|0:0,0:0:0:0:
447,293,73686,2,0,B|339:294|389:343|280:345,1,180,2|8,0:0|0:0,0:0:0:0:
116,328,74131,1,8,0:0:0:0:
134,344,74205,1,8,0:0:0:0:
147,362,74280,6,0,P|155:302|167:256,1,90,2|0,0:0|0:0,0:0:0:0:
280,104,74577,1,8,0:0:0:0:
152,176,74725,1,0,0:0:0:0:
372,145,74874,2,0,P|359:46|292:6,1,180,2|10,0:0|0:0,0:0:0:0:
152,176,75319,1,8,0:0:0:0:
140,156,75393,1,8,0:0:0:0:
124,136,75468,6,0,P|67:153|27:165,1,90,2|0,0:0|0:0,0:0:0:0:
302,231,75765,1,8,0:0:0:0:
288,20,75913,1,8,0:0:0:0:
276,36,75988,1,8,0:0:0:0:
263,55,76062,2,0,P|243:119|238:158,1,90,8|8,0:0|0:0,0:0:0:0:
328,116,76285,1,8,0:0:0:0:
328,116,76359,1,8,0:0:0:0:
204,316,76507,1,8,0:0:0:0:
204,316,76582,1,8,0:0:0:0:
204,316,76656,6,0,P|116:329|56:260,1,180,6|8,0:0|0:0,0:0:0:0:
239,141,77101,1,0,0:0:0:0:
288,246,77250,2,0,P|362:233|437:226,1,135,2|0,0:0|0:0,0:0:0:0:
437,215,77547,2,0,P|451:291|453:331,1,90,8|0,0:0|0:0,0:0:0:0:
239,141,77844,6,0,P|243:94|254:46,1,90,2|0,0:0|0:0,0:0:0:0:
398,16,78141,1,8,0:0:0:0:
354,203,78290,1,0,0:0:0:0:
422,122,78438,2,0,P|373:108|320:100,1,90,2|0,0:0|0:0,0:0:0:0:
82,213,78735,2,0,P|98:281|108:347,1,135,8|0,0:0|0:0,0:0:0:0:
104,364,79032,6,0,B|224:339|224:339|289:369,1,180,6|8,0:0|0:0,0:0:0:0:
464,258,79478,1,0,0:0:0:0:
464,258,79552,1,0,0:0:0:0:
464,258,79626,2,0,B|342:281|342:281|283:254,1,180,6|8,0:0|0:0,0:0:0:0:
416,56,80072,1,0,0:0:0:0:
416,56,80146,1,0,0:0:0:0:
416,56,80220,5,4,0:0:0:0:
267,155,80369,1,0,0:0:0:0:
456,227,80517,1,8,0:0:0:0:
263,42,80666,6,0,P|182:76|170:183,1,180,4|0,0:0|3:3,0:0:0:0:
348,309,81111,1,0,3:0:0:0:
267,155,81260,2,0,L|256:204,1,45,8|8,0:0|0:0,0:0:0:0:
255,322,81408,6,0,B|191:315|191:315|144:343|144:343|49:333,1,180,6|8,0:0|0:0,0:0:0:0:
357,214,81854,2,0,P|426:278|401:394,1,180,6|8,0:0|0:0,0:0:0:0:
255,322,82299,1,0,0:0:0:0:
112,188,82448,1,8,0:0:0:0:
112,188,82522,1,8,0:0:0:0:
112,188,82596,6,0,P|98:100|163:29,1,180,6|8,0:0|0:0,0:0:0:0:
396,74,83042,2,0,B|290:76|341:128|214:129,1,180,6|8,0:0|0:0,0:0:0:0:
24,248,83488,1,8,0:0:0:0:
47,276,83562,1,8,0:0:0:0:
80,294,83636,1,8,0:0:0:0:
117,297,83710,1,8,0:0:0:0:
152,286,83785,6,0,P|210:273|256:264,1,80.9999975280763,6|8,0:0|0:0,0:0:0:0:
420,236,84082,1,8,0:0:0:0:
291,349,84230,1,8,0:0:0:0:
307,181,84379,6,0,P|327:261|331:282,1,80.9999975280763,8|8,0:0|0:0,0:0:0:0:
440,352,84676,1,8,0:0:0:0:
326,259,84824,1,8,0:0:0:0:
508,164,84973,6,0,P|431:138|376:128,1,121.499996292114,2|2,0:0|0:0,0:0:0:0:
343,50,85270,2,0,P|298:64|283:70,1,40.4999987640381,8|8,0:0|0:0,0:0:0:0:
215,96,85418,2,0,P|156:150|69:139,1,161.999995056153,6|0,0:0|0:0,0:0:0:0:
28,332,85864,1,8,0:0:0:0:
64,323,85938,1,8,0:0:0:0:
101,315,86012,1,8,0:0:0:0:
138,309,86086,1,8,0:0:0:0:
175,304,86161,6,0,P|256:364|338:339,1,180,6|8,0:0|0:0,0:0:0:0:
374,199,86606,1,0,0:0:0:0:
268,264,86755,2,0,P|260:188|276:125,1,135,2|0,0:0|0:0,0:0:0:0:
281,111,87052,2,0,L|191:91,1,90,8|0,0:0|0:0,0:0:0:0:
447,39,87349,6,0,P|465:89|465:141,1,90,2|0,0:0|0:0,0:0:0:0:
268,264,87646,1,8,0:0:0:0:
374,199,87794,1,0,0:0:0:0:
382,219,87869,1,0,0:0:0:0:
390,239,87943,2,0,P|453:230|495:227,1,90,2|0,0:0|0:0,0:0:0:0:
351,339,88240,1,8,0:0:0:0:
232,172,88389,1,8,0:0:0:0:
232,172,88463,1,8,0:0:0:0:
232,172,88537,6,0,P|164:256|197:341,1,180,6|8,0:0|0:0,0:0:0:0:
408,256,88983,2,0,P|404:168|383:65,1,180,6|0,0:0|0:0,0:0:0:0:
242,11,89428,1,10,0:0:0:0:
143,158,89577,1,2,0:0:0:0:
143,158,89651,1,8,0:0:0:0:
143,158,89725,6,0,P|207:166|252:178,1,90,10|2,0:0|0:0,0:0:0:0:
160,276,90022,1,10,0:0:0:0:
60,64,90171,2,0,P|36:132|28:207,1,135,6|0,0:0|0:0,0:0:0:0:
34,217,90468,1,8,0:0:0:0:
231,171,90616,1,8,0:0:0:0:
183,371,90765,1,8,0:0:0:0:
183,371,90839,1,8,0:0:0:0:
183,371,90913,5,6,0:0:0:0:
