osu file format v14

[General]
AudioFilename: moe.mp3
AudioLeadIn: 0
PreviewTime: 71582
Countdown: 0
SampleSet: Soft
StackLeniency: 0.4
Mode: 0
LetterboxInBreaks: 1
WidescreenStoryboard: 1

[Editor]
Bookmarks: 2811,12316,17142,19444,21821,31326,36152,40831,50335,55088,59840,69420,71722,81227,85979,90732,100236,131128,147761,194107,213117,229750,236285,239378
DistanceSpacing: 1.2
BeatDivisor: 4
GridSize: 32
TimelineZoom: 4.199998

[Metadata]
Title:Sayonara Ryou Kataomoi
TitleUnicode:さよなら両片想
Artist:sana
ArtistUnicode:鎖那
Creator:Milan-
Version:Insane
Source:
Tags:moe appleeaterx honeyworks Suki ni Naru Sono Shunkan wo 好きになるその瞬間を utaite
BeatmapID:1184487
BeatmapSetID:508803

[Difficulty]
HPDrainRate:6
CircleSize:4
OverallDifficulty:7
ApproachRate:9
SliderMultiplier:1.4
SliderTickRate:2

[Events]
//Background and Video events
0,0,"b.jpg",0,0
//Break Periods
//Storyboard Layer 0 (Background)
//Storyboard Layer 1 (Fail)
//Storyboard Layer 2 (Pass)
//Storyboard Layer 3 (Foreground)
//Storyboard Sound Samples

[TimingPoints]
2993,297.029702970297,4,2,1,55,1,0
10121,-125,4,2,1,55,0,0
11012,-125,4,2,1,55,0,0
11606,-100,4,2,1,55,0,0
11903,-125,4,2,1,55,0,0
12497,-111.111111111111,4,2,1,45,0,0
17250,-111.111111111111,4,2,1,55,0,0
19626,-100,4,2,1,50,0,0
20814,-100,4,2,1,55,0,0
22002,-90.9090909090909,4,2,1,55,0,0
31953,-125,4,2,1,55,0,0
32053,-90.9090909090909,4,2,1,55,0,0
33141,-125,4,2,1,55,0,0
33241,-90.9090909090909,4,2,1,55,0,0
39082,-125,4,2,1,55,0,0
39182,-90.9090909090909,4,2,1,55,0,0
40270,-125,4,2,1,55,0,0
40370,-90.9090909090909,4,2,1,55,0,0
41012,-142.857142857143,4,2,1,45,0,0
49329,-125,4,2,1,45,0,0
50517,-90.9090909090909,4,2,1,55,0,0
50963,-125,4,2,1,55,0,0
51063,-90.9090909090909,4,2,1,55,0,0
52151,-125,4,2,1,55,0,0
52251,-90.9090909090909,4,2,1,55,0,0
53339,-125,4,2,1,55,0,0
53439,-90.9090909090909,4,2,1,55,0,0
55270,-142.857142857143,4,2,1,40,0,0
57646,-142.857142857143,4,2,1,45,0,0
60022,-111.111111111111,4,2,1,45,0,0
66854,-125,4,2,1,50,0,0
67448,-111.111111111111,4,2,1,45,0,0
69230,-90.9090909090909,4,2,1,55,0,0
71903,-83.3333333333333,4,2,1,55,0,1
81854,-111.111111111111,4,2,1,55,0,1
81954,-83.3333333333333,4,2,1,55,0,1
83042,-111.111111111111,4,2,1,55,0,1
83142,-83.3333333333333,4,2,1,55,0,1
88983,-111.111111111111,4,2,1,55,0,1
89083,-83.3333333333333,4,2,1,55,0,1
90171,-111.111111111111,4,2,1,55,0,1
90271,-83.3333333333333,4,2,1,55,0,1
90913,-83.3333333333333,4,2,1,55,0,0

[Colours]
Combo1 : 168,196,159
Combo2 : 187,198,208
Combo3 : 226,215,173
Combo4 : 208,187,198

[HitObjects]
236,31,2993,5,4,0:0:0:0:
262,34,3141,1,4,0:0:0:0:
290,132,5369,5,4,0:0:0:0:
322,106,5517,1,4,0:0:0:0:
441,22,6260,5,4,0:0:0:0:
415,53,6408,1,4,0:0:0:0:
488,137,7745,5,4,0:0:0:0:
426,139,7893,1,4,0:0:0:0:
437,231,10121,5,4,0:0:0:0:
372,284,10270,2,0,P|357:247|366:196,1,84,4|0,0:0|0:0,0:0:0:0:
366,189,10567,2,0,P|318:209|254:186,1,112,4|0,0:0|3:0,0:0:0:0:
440,135,11012,5,8,0:0:0:0:
440,135,11606,6,0,P|448:113|452:86,1,35,0|0,3:0|0:0,0:0:0:0:
370,73,11755,2,0,P|365:90|359:106,1,35,0|0,3:0|0:0,0:0:0:0:
276,72,11903,2,0,P|222:74|181:110,1,112,0|2,3:0|3:0,0:0:0:0:
180,111,12497,6,0,P|148:111|117:104,1,62.9999980773926,4|0,0:0|0:0,0:0:0:0:
37,113,12794,2,0,L|46:176,1,62.9999980773926,4|0,0:3|0:0,0:0:0:0:
136,256,13092,2,0,L|145:193,1,62.9999980773926,4|0,0:3|0:0,0:0:0:0:
212,303,13389,2,0,P|242:296|274:295,1,62.9999980773926,4|0,0:3|0:0,0:0:0:0:
400,206,13686,6,0,P|368:205|337:198,1,62.9999980773926,4|0,0:3|0:0,0:0:0:0:
369,295,13983,2,0,L|357:361,1,62.9999980773926,4|0,0:3|0:0,0:0:0:0:
274,295,14280,1,4,0:3:0:0:
274,295,14428,1,8,0:0:0:0:
459,315,14577,1,4,0:3:0:0:
459,315,14725,1,8,0:0:0:0:
410,180,14874,6,0,P|355:186|279:133,1,125.999996154785,4|4,0:0|0:3,0:0:0:0:
311,17,15319,1,0,0:0:0:0:
231,35,15468,2,0,P|230:66|239:97,1,62.9999980773926,4|0,0:3|0:0,0:0:0:0:
219,215,15765,6,0,P|164:209|88:262,1,125.999996154785,6|4,0:3|0:3,0:0:0:0:
15,384,16210,1,2,0:0:0:0:
93,360,16359,2,0,P|68:320|44:307,1,62.9999980773926,4|0,0:3|0:0,0:0:0:0:
186,363,16656,1,8,0:3:0:0:
103,241,16804,1,4,0:3:0:0:
265,190,16953,2,0,B|278:224|278:224|259:300,1,94.499997116089,8|8,0:0|0:0,0:0:0:0:
242,294,17250,5,4,0:0:0:0:
132,61,19626,5,6,0:0:0:0:
186,125,19775,1,0,0:0:0:0:
220,48,19923,1,0,0:0:0:0:
104,145,20072,2,0,P|97:182|101:226,1,70,0|8,0:0|0:0,0:0:0:0:
260,265,20369,1,0,0:0:0:0:
260,265,20443,1,0,0:0:0:0:
260,265,20517,2,0,P|261:230|254:195,1,70,8|0,0:0|0:0,0:0:0:0:
313,96,20740,1,0,0:0:0:0:
300,111,20814,6,0,P|348:128|395:107,1,105,8|8,0:0|0:0,0:0:0:0:
487,200,21111,2,0,P|438:182|391:203,1,105,8|8,0:0|0:0,0:0:0:0:
299,207,21408,2,0,L|308:319,1,105,8|8,0:0|0:0,0:0:0:0:
194,289,21705,2,0,L|197:240,1,35,8|0,0:0|0:0,0:0:0:0:
126,177,21854,1,8,0:0:0:0:
126,177,21928,1,8,0:0:0:0:
126,177,22002,6,0,P|91:194|34:193,2,77.0000023498536,6|0|8,0:0|0:0|0:0,0:0:0:0:
71,98,22448,1,0,0:0:0:0:
17,22,22596,2,0,P|74:65|144:35,1,154.000004699707,2|8,0:0|0:0,0:0:0:0:
235,20,23042,1,0,0:0:0:0:
209,181,23191,6,0,L|200:105,1,77.0000023498536,2|0,0:0|0:0,0:0:0:0:
363,81,23488,2,0,P|328:97|290:95,1,77.0000023498536,8|0,0:0|0:0,0:0:0:0:
311,5,23785,1,2,0:0:0:0:
348,178,23933,1,0,0:0:0:0:
290,95,24082,2,0,P|324:78|362:80,1,77.0000023498536,10|0,0:0|0:0,0:0:0:0:
457,170,24379,6,0,P|447:95|496:39,1,154.000004699707,2|8,0:0|0:0,0:0:0:0:
348,178,24824,1,0,0:0:0:0:
408,248,24973,2,0,P|417:322|368:378,1,154.000004699707,2|8,0:0|0:0,0:0:0:0:
253,287,25418,1,0,0:0:0:0:
253,287,25567,6,0,L|330:294,1,77.0000023498536,2|0,0:0|0:0,0:0:0:0:
252,187,25864,2,0,L|120:204,1,115.50000352478,8|8,0:0|0:0,0:0:0:0:
117,197,26161,2,0,P|108:233|117:276,1,77.0000023498536,2|0,0:0|0:0,0:0:0:0:
197,101,26458,1,8,0:0:0:0:
197,101,26532,1,0,0:0:0:0:
197,101,26606,1,8,0:0:0:0:
197,101,26681,1,8,0:0:0:0:
197,101,26755,6,0,L|183:15,1,77.0000023498536,6|0,0:0|0:0,0:0:0:0:
301,101,27052,2,0,L|288:176,1,77.0000023498536,8|0,0:0|0:0,0:0:0:0:
211,261,27349,2,0,P|259:228|358:260,1,154.000004699707,2|8,0:0|0:0,0:0:0:0:
427,202,27794,1,0,0:0:0:0:
285,318,27943,5,2,0:0:0:0:
347,248,28092,1,0,0:0:0:0:
425,296,28240,2,0,P|431:334|419:382,1,77.0000023498536,8|0,0:0|0:0,0:0:0:0:
285,318,28537,2,0,P|221:355|153:324,1,154.000004699707,2|10,0:0|0:0,0:0:0:0:
73,277,28983,1,0,0:0:0:0:
146,99,29131,6,0,P|115:167|153:231,1,154.000004699707,2|8,0:0|0:0,0:0:0:0:
239,178,29577,1,0,0:0:0:0:
239,178,29651,1,8,0:0:0:0:
239,178,29725,2,0,L|413:164,1,154.000004699707,2|8,0:0|0:0,0:0:0:0:
392,165,30319,6,0,P|412:213|409:242,1,77.0000023498536,2|0,0:0|0:0,0:0:0:0:
297,331,30616,2,0,P|297:292|315:259,1,77.0000023498536,8|8,0:0|0:0,0:0:0:0:
432,331,30913,1,8,0:0:0:0:
432,331,30988,1,0,0:0:0:0:
432,331,31062,2,0,L|381:323,1,38.5000011749268,8|8,0:0|0:0,0:0:0:0:
410,236,31210,2,0,L|447:229,3,38.5000011749268,8|0|8|8,0:0|0:0|0:0|0:0,0:0:0:0:
416,143,31507,6,0,P|348:109|276:132,1,154.000004699707,4|8,0:0|0:0,0:0:0:0:
277,131,31953,6,0,P|308:99|314:17,1,112,6|0,0:0|0:0,0:0:0:0:
407,60,32398,1,0,0:0:0:0:
223,53,32547,1,8,0:0:0:0:
223,53,32621,1,8,0:0:0:0:
223,53,32695,6,0,P|187:95|195:191,1,154.000004699707,10|8,0:0|0:0,0:0:0:0:
193,188,33141,6,0,P|157:175|84:204,1,112,6|0,0:0|3:3,0:0:0:0:
85,213,33512,1,0,3:0:0:0:
82,229,33587,2,0,L|93:311,1,77.0000023498536,0|0,3:0|0:0,0:0:0:0:
208,384,33884,6,0,L|218:307,1,77.0000023498536,4|0,0:0|0:0,0:0:0:0:
330,214,34181,2,0,L|341:296,1,77.0000023498536,0|8,0:0|0:0,0:0:0:0:
430,243,34478,1,0,0:0:0:0:
430,243,34626,1,8,0:0:0:0:
311,115,34775,1,0,0:0:0:0:
311,115,34923,1,8,0:0:0:0:
239,275,35072,6,0,L|314:253,1,77.0000023498536,2|0,0:0|0:0,0:0:0:0:
377,177,35369,1,8,0:0:0:0:
166,346,35517,6,0,P|138:284|174:199,1,154.000004699707,4|8,0:0|0:0,0:0:0:0:
181,199,35889,1,8,0:0:0:0:
198,194,35963,2,0,P|226:191|257:195,3,38.5000011749268,8|8|8|8,0:0|0:0|0:0|0:0,0:0:0:0:
313,130,36260,6,0,P|352:131|401:111,1,77.0000023498536,6|0,0:0|0:0,0:0:0:0:
509,49,36557,2,0,P|473:37|435:39,1,77.0000023498536,8|0,0:0|0:0,0:0:0:0:
474,162,36854,2,0,P|497:233|467:303,1,154.000004699707,2|8,0:0|0:0,0:0:0:0:
467,303,37448,6,0,L|383:289,1,77.0000023498536,2|0,0:0|0:0,0:0:0:0:
309,335,37745,1,8,0:0:0:0:
249,264,37893,1,8,0:0:0:0:
249,264,37968,1,8,0:0:0:0:
249,264,38042,2,0,L|246:93,1,154.000004699707,2|8,0:0|0:0,0:0:0:0:
329,69,38488,1,0,0:0:0:0:
145,135,38636,6,0,P|95:106|38:110,1,115.50000352478,6|8,0:0|0:0,0:0:0:0:
27,123,38933,1,8,0:0:0:0:
144,134,39082,6,0,P|200:137|248:107,1,112,6|0,0:0|0:0,0:0:0:0:
257,96,39453,1,0,0:0:0:0:
262,79,39527,2,0,L|363:65,1,77.0000023498536,0|0,0:0|0:0,0:0:0:0:
476,135,39824,6,0,P|419:141|381:182,1,115.50000352478,6|8,0:0|0:0,0:0:0:0:
383,200,40121,1,8,0:0:0:0:
476,135,40270,6,0,P|502:98|490:18,1,112,6|10,0:0|0:0,0:0:0:0:
346,0,40715,2,0,L|355:87,1,77.0000023498536,0|8,0:0|0:0,0:0:0:0:
276,200,41012,5,4,0:0:0:0:
199,154,41309,1,4,0:3:0:0:
131,104,41606,1,4,0:3:0:0:
60,58,41903,1,0,0:0:0:0:
274,201,42200,5,4,0:3:0:0:
197,165,42497,1,4,0:3:0:0:
112,180,42794,2,0,P|96:216|99:239,1,48.9999985046387,4|0,0:3|0:0,0:0:0:0:
188,302,43092,2,0,P|184:277|172:257,1,48.9999985046387,4|0,0:3|0:0,0:0:0:0:
175,122,43389,6,0,P|222:104|281:117,1,97.9999970092774,2|4,0:0|0:3,0:0:0:0:
338,65,43834,1,0,0:0:0:0:
437,158,43983,2,0,P|388:164|343:146,1,97.9999970092774,4|4,0:3|0:3,0:0:0:0:
338,65,44428,1,0,0:0:0:0:
270,194,44577,2,0,L|281:292,1,97.9999970092774,4|4,0:3|0:3,0:0:0:0:
358,257,45022,1,0,0:0:0:0:
199,330,45171,6,0,L|193:281,1,48.9999985046387,4|8,0:3|0:0,0:0:0:0:
373,336,45468,2,0,L|378:384,1,48.9999985046387,4|8,0:0|0:0,0:0:0:0:
270,194,45765,5,4,0:0:0:0:
270,194,46062,1,4,0:3:0:0:
270,194,46359,1,4,0:3:0:0:
270,194,46656,1,4,0:3:0:0:
296,38,46953,5,4,0:3:0:0:
217,44,47250,1,4,0:3:0:0:
138,48,47547,1,4,0:3:0:0:
59,52,47844,2,0,P|50:84|48:117,1,48.9999985046387,4|0,0:3|0:0,0:0:0:0:
145,155,48141,6,0,P|161:221|159:252,1,97.9999970092774,2|4,0:0|0:3,0:0:0:0:
97,319,48587,1,0,0:0:0:0:
97,319,48735,2,0,L|34:317,1,48.9999985046387,4|0,0:3|0:0,0:0:0:0:
185,368,49032,2,0,L|248:366,1,48.9999985046387,4|0,0:3|0:0,0:0:0:0:
256,257,49329,6,0,L|247:299,2,28,2|0|2,0:3|0:0|0:3,0:0:0:0:
306,68,49775,2,0,L|297:110,1,28,2|0,0:3|0:0,0:0:0:0:
321,89,49923,2,0,L|312:131,2,28,0|0|2,0:0|0:0|0:3,0:0:0:0:
371,198,50517,6,0,P|335:212|297:208,1,77.0000023498536,6|8,0:0|0:0,0:0:0:0:
196,148,50814,1,8,0:0:0:0:
196,148,50889,1,0,0:0:0:0:
196,148,50963,6,0,P|218:193|192:269,1,112,6|8,0:0|0:0,0:0:0:0:
120,284,51408,1,0,0:0:0:0:
29,265,51557,1,0,0:0:0:0:
59,350,51705,6,0,P|130:326|202:351,1,154.000004699707,6|8,0:0|0:0,0:0:0:0:
375,281,52151,6,0,P|329:310|274:304,1,112,6|8,0:0|0:0,0:0:0:0:
261,289,52522,1,0,0:0:0:0:
253,270,52596,2,0,L|270:188,1,77.0000023498536,8|8,0:0|0:0,0:0:0:0:
398,101,52893,6,0,P|369:114|267:52,1,154.000004699707,6|8,0:0|0:0,0:0:0:0:
93,103,53339,6,0,P|146:93|193:122,1,112,6|0,0:0|0:0,0:0:0:0:
199,142,53710,1,0,0:0:0:0:
204,162,53785,2,0,L|190:241,1,77.0000023498536,8|0,0:0|0:0,0:0:0:0:
77,343,54082,6,0,L|259:324,1,154.000004699707,6|8,0:0|0:0,0:0:0:0:
367,257,54527,2,0,L|267:242,1,77.0000023498536,6|8,0:0|0:0,0:0:0:0:
190,237,54824,2,0,L|138:242,2,38.5000011749268,8|8|8,0:0|0:0|0:0,0:0:0:0:
256,135,55121,1,8,0:0:0:0:
256,135,55195,1,8,0:0:0:0:
256,135,55270,5,4,0:0:0:0:
371,54,56309,6,0,L|322:69,1,48.9999985046387,2|2,0:0|0:0,0:0:0:0:
463,70,57497,5,0,0:0:0:0:
471,161,57646,2,0,L|363:145,1,97.9999970092774,6|0,0:0|3:0,0:0:0:0:
354,156,58017,2,0,L|335:194,2,24.4999992523194,0|0|0,3:0|3:3|0:0,0:0:0:0:
255,169,58240,2,0,L|269:282,1,97.9999970092774,8|0,0:0|3:0,0:0:0:0:
251,282,58611,2,0,L|212:269,2,24.4999992523194,0|0|0,3:0|3:0|0:0,0:0:0:0:
164,201,58834,2,0,L|67:215,1,97.9999970092774,8|0,0:0|3:0,0:0:0:0:
48,204,59205,2,0,L|33:175,2,24.4999992523194,0|0|0,3:0|3:0|0:0,0:0:0:0:
108,117,59428,1,4,0:3:0:0:
108,117,59725,1,8,0:3:0:0:
108,117,60022,6,0,P|148:74|234:75,1,125.999996154785,6|0,0:0|0:0,0:0:0:0:
282,23,60468,1,0,0:0:0:0:
342,119,60616,2,0,P|311:117|283:104,1,62.9999980773926,8|2,0:0|0:0,0:0:0:0:
214,149,60913,2,0,L|224:217,1,62.9999980773926,0|0,0:0|0:0,0:0:0:0:
253,287,61210,6,0,P|213:244|127:245,1,125.999996154785,2|0,0:0|0:0,0:0:0:0:
148,236,61804,2,0,L|162:320,1,62.9999980773926,8|0,0:0|0:0,0:0:0:0:
66,214,62101,2,0,L|55:151,1,62.9999980773926,0|0,0:0|0:0,0:0:0:0:
200,151,62398,6,0,P|261:144|304:100,1,125.999996154785,2|0,0:0|0:0,0:0:0:0:
221,66,62844,1,0,0:0:0:0:
389,112,62993,2,0,P|382:63|360:41,1,62.9999980773926,8|2,0:0|0:0,0:0:0:0:
450,20,63290,2,0,L|519:20,1,62.9999980773926,0|0,0:0|0:0,0:0:0:0:
473,108,63587,5,2,0:0:0:0:
221,66,63884,1,2,0:0:0:0:
473,108,64181,2,0,L|485:249,1,125.999996154785,8|0,0:0|0:0,0:0:0:0:
439,302,64626,1,0,0:0:0:0:
339,228,64775,6,0,P|370:221|401:228,1,62.9999980773926,2|0,0:0|0:0,0:0:0:0:
349,316,65072,2,0,P|318:322|287:316,1,62.9999980773926,0|0,0:0|0:0,0:0:0:0:
166,264,65369,1,8,0:0:0:0:
205,335,65517,2,0,L|194:201,1,125.999996154785,2|0,0:0|0:0,0:0:0:0:
89,289,65963,5,2,0:0:0:0:
267,142,66260,1,0,0:0:0:0:
89,289,66557,1,8,0:0:0:0:
336,83,66854,6,0,P|280:55|188:177,1,224,6|0,0:0|0:0,0:0:0:0:
182,154,67745,5,8,0:0:0:0:
103,223,67893,2,0,P|161:202|219:226,1,125.999996154785,0|0,0:0|0:0,0:0:0:0:
313,294,68339,2,0,L|303:187,1,94.499997116089,8|0,0:0|0:0,0:0:0:0:
314,186,68636,2,0,L|355:176,1,31.4999990386963,2|0,0:0|0:0,0:0:0:0:
444,108,68785,2,0,L|434:215,1,94.499997116089,8|0,0:0|0:0,0:0:0:0:
445,216,69082,2,0,L|486:226,1,31.4999990386963,0|0,0:0|0:0,0:0:0:0:
359,89,69230,1,8,0:0:0:0:
269,113,69379,2,0,L|217:99,2,38.5000011749268,8|8|4,0:0|0:0|0:0,0:0:0:0:
368,12,71903,6,0,P|390:47|396:88,1,83.9999974365235,6|0,0:0|0:0,0:0:0:0:
273,311,72200,2,0,P|279:269|301:234,1,83.9999974365235,8|0,0:0|0:0,0:0:0:0:
448,169,72497,2,0,L|265:158,1,167.999994873047,2|8,0:0|0:0,0:0:0:0:
205,91,72943,1,0,0:0:0:0:
107,214,73092,6,0,P|149:210|186:190,1,83.9999974365235,2|0,0:0|0:0,0:0:0:0:
136,26,73389,2,0,P|112:75|114:118,1,83.9999974365235,8|0,0:0|0:0,0:0:0:0:
87,307,73686,2,0,P|30:263|29:168,1,167.999994873047,2|8,0:0|0:0,0:0:0:0:
191,302,74131,1,8,0:0:0:0:
191,302,74205,1,8,0:0:0:0:
191,302,74280,6,0,L|168:396,1,83.9999974365235,2|0,0:0|0:0,0:0:0:0:
262,223,74577,1,8,0:0:0:0:
87,307,74725,1,0,0:0:0:0:
275,363,74874,2,0,L|461:338,1,167.999994873047,2|10,0:0|0:0,0:0:0:0:
512,225,75319,1,8,0:0:0:0:
512,225,75393,1,8,0:0:0:0:
512,225,75468,6,0,L|427:220,1,83.9999974365235,2|0,0:0|0:0,0:0:0:0:
329,102,75765,1,8,0:0:0:0:
332,237,75913,2,0,L|345:166,1,41.9999987182618,8|8,0:0|0:0,0:0:0:0:
414,138,76062,1,8,0:0:0:0:
237,134,76210,2,0,L|250:205,1,41.9999987182618,8|8,0:0|0:0,0:0:0:0:
220,264,76359,1,8,0:0:0:0:
149,191,76507,1,8,0:0:0:0:
149,191,76582,1,8,0:0:0:0:
149,191,76656,6,0,P|94:156|-13:197,1,167.999994873047,6|8,0:0|0:0,0:0:0:0:
71,252,77101,1,0,0:0:0:0:
128,71,77250,2,0,P|183:106|290:65,1,167.999994873047,2|8,0:0|0:0,0:0:0:0:
331,166,77695,1,0,0:0:0:0:
463,81,77844,6,0,L|380:77,1,83.9999974365235,2|0,0:0|0:0,0:0:0:0:
406,237,78141,2,0,L|489:232,1,83.9999974365235,8|0,0:0|0:0,0:0:0:0:
331,166,78438,2,0,P|301:251|360:331,1,167.999994873047,2|8,0:0|0:0,0:0:0:0:
406,237,78884,1,0,0:0:0:0:
207,266,79032,6,0,L|123:254,1,83.9999974365235,6|0,0:0|0:0,0:0:0:0:
290,209,79329,1,8,0:0:0:0:
290,209,79478,1,0,0:0:0:0:
128,161,79626,2,0,L|211:149,1,83.9999974365235,6|0,0:0|0:0,0:0:0:0:
46,202,79923,2,0,P|34:162|60:106,1,83.9999974365235,8|0,0:0|0:0,0:0:0:0:
227,53,80220,5,4,0:0:0:0:
123,254,80369,1,0,0:0:0:0:
45,122,80517,1,8,0:0:0:0:
112,279,80666,2,0,P|182:291|250:216,1,167.999994873047,4|0,0:0|3:3,0:0:0:0:
317,66,81111,1,0,3:0:0:0:
441,146,81260,1,8,0:0:0:0:
441,146,81334,1,8,0:0:0:0:
441,146,81408,6,0,B|380:136|380:136|334:154|334:154|273:144,1,167.999994873047,6|8,0:0|0:0,0:0:0:0:
387,228,81854,6,0,B|343:244|343:244|261:229,1,125.999996154785,6|8,0:0|0:0,0:0:0:0:
164,231,82299,1,0,0:0:0:0:
71,359,82448,1,8,0:0:0:0:
71,359,82522,1,8,0:0:0:0:
71,359,82596,6,0,P|113:372|214:300,1,167.999994873047,6|8,0:0|0:0,0:0:0:0:
318,207,83042,6,0,P|265:175|249:115,1,125.999996154785,6|8,0:0|0:0,0:0:0:0:
259,101,83413,1,8,0:0:0:0:
273,91,83488,2,0,L|345:84,3,41.9999987182618,8|8|8|8,0:0|0:0|0:0|0:0,0:0:0:0:
383,29,83785,6,0,L|466:44,1,83.9999974365235,6|8,0:0|0:0,0:0:0:0:
389,165,84082,2,0,L|472:150,1,83.9999974365235,8|8,0:0|0:0,0:0:0:0:
455,253,84379,1,8,0:0:0:0:
455,253,84527,1,8,0:0:0:0:
413,69,84676,1,8,0:0:0:0:
413,69,84824,1,8,0:0:0:0:
306,179,84973,6,0,L|392:164,2,83.9999974365235,2|2|8,0:0|0:0|0:0,0:0:0:0:
93,174,85418,2,0,P|174:173|224:237,1,167.999994873047,6|0,0:0|0:0,0:0:0:0:
216,252,85790,1,0,0:0:0:0:
203,263,85864,2,0,P|172:272|144:264,3,41.9999987182618,8|8|8|8,0:0|0:0|0:0|0:0,0:0:0:0:
93,327,86161,6,0,P|51:305|5:308,1,83.9999974365235,6|0,0:0|0:0,0:0:0:0:
181,357,86458,2,0,P|222:355|258:335,1,83.9999974365235,8|0,0:0|0:0,0:0:0:0:
162,270,86755,2,0,L|147:90,1,167.999994873047,2|8,0:0|0:0,0:0:0:0:
69,165,87201,1,0,0:0:0:0:
204,22,87349,6,0,P|235:49|247:88,1,83.9999974365235,2|0,0:0|0:0,0:0:0:0:
51,86,87646,2,0,P|62:46|94:19,1,83.9999974365235,8|0,0:0|0:0,0:0:0:0:
220,170,87943,2,0,P|142:197|68:164,1,167.999994873047,2|8,0:0|0:0,0:0:0:0:
0,313,88389,1,8,0:0:0:0:
0,313,88463,1,8,0:0:0:0:
0,313,88537,6,0,B|66:310|103:277|103:277|124:296|166:298,1,167.999994873047,6|8,0:0|0:0,0:0:0:0:
43,197,88983,6,0,P|101:175|159:199,1,125.999996154785,6|0,0:0|0:0,0:0:0:0:
281,262,89428,2,0,L|272:115,1,125.999996154785,10|8,0:0|0:0,0:0:0:0:
285,119,89725,2,0,P|327:114|363:94,1,83.9999974365235,10|2,0:0|0:0,0:0:0:0:
298,17,90022,1,10,0:0:0:0:
416,159,90171,6,0,L|425:34,1,125.999996154785,6|8,0:0|0:0,0:0:0:0:
512,124,90616,1,8,0:0:0:0:
322,175,90765,2,0,L|337:225,1,41.9999987182618,8|8,0:0|0:0,0:0:0:0:
494,210,90913,1,6,0:0:0:0:
