osu file format v14

[General]
AudioFilename: moe.mp3
AudioLeadIn: 0
PreviewTime: 71582
Countdown: 0
SampleSet: Soft
StackLeniency: 0.4
Mode: 0
LetterboxInBreaks: 1
WidescreenStoryboard: 1

[Editor]
Bookmarks: 2811,12316,17142,19444,21821,31326,36152,40831,50335,55088,59840,69420,71722,81227,85979,90732,100236,131128,147761,194107,213117,229750,236285,239378
DistanceSpacing: 1.3
BeatDivisor: 4
GridSize: 32
TimelineZoom: 2.1

[Metadata]
Title:Sayonara Ryou Kataomoi
TitleUnicode:さよなら両片想
Artist:sana
ArtistUnicode:鎖那
Creator:Milan-
Version:Hard
Source:
Tags:moe appleeaterx honeyworks Suki ni Naru Sono Shunkan wo 好きになるその瞬間を utaite
BeatmapID:1184486
BeatmapSetID:508803

[Difficulty]
HPDrainRate:5
CircleSize:3.5
OverallDifficulty:6
ApproachRate:8
SliderMultiplier:1.3
SliderTickRate:2

[Events]
//Background and Video events
0,0,"b.jpg",0,0
//Break Periods
2,8093,9371
//Storyboard Layer 0 (Background)
//Storyboard Layer 1 (Fail)
//Storyboard Layer 2 (Pass)
//Storyboard Layer 3 (Foreground)
//Storyboard Sound Samples

[TimingPoints]
2993,297.029702970297,4,2,1,55,1,0
11012,-125,4,2,1,55,0,0
11606,-100,4,2,1,55,0,0
12497,-100,4,2,1,45,0,0
17250,-100,4,2,1,55,0,0
19626,-100,4,2,1,50,0,0
20814,-100,4,2,1,55,0,0
22002,-100,4,2,1,55,0,0
31953,-100,4,2,1,55,0,0
32053,-100,4,2,1,55,0,0
33141,-100,4,2,1,55,0,0
33241,-100,4,2,1,55,0,0
39082,-100,4,2,1,55,0,0
39182,-100,4,2,1,55,0,0
40270,-100,4,2,1,55,0,0
40370,-100,4,2,1,55,0,0
41012,-125,4,2,1,45,0,0
45171,-100,4,2,1,45,0,0
48141,-125,4,2,1,45,0,0
49329,-100,4,2,1,45,0,0
50517,-100,4,2,1,55,0,0
50963,-100,4,2,1,55,0,0
51063,-100,4,2,1,55,0,0
52151,-100,4,2,1,55,0,0
52251,-100,4,2,1,55,0,0
53339,-100,4,2,1,55,0,0
53439,-100,4,2,1,55,0,0
55270,-125,4,2,1,40,0,0
57646,-125,4,2,1,45,0,0
60022,-111.111111111111,4,2,1,45,0,0
66854,-142.857142857143,4,2,1,50,0,0
67448,-111.111111111111,4,2,1,45,0,0
69230,-111.111111111111,4,2,1,55,0,0
71903,-100,4,2,1,55,0,1
81854,-100,4,2,1,55,0,1
81954,-100,4,2,1,55,0,1
83042,-100,4,2,1,55,0,1
83142,-100,4,2,1,55,0,1
88983,-100,4,2,1,55,0,1
89083,-100,4,2,1,55,0,1
90171,-100,4,2,1,55,0,1
90271,-100,4,2,1,55,0,1
90913,-100,4,2,1,55,0,0

[Colours]
Combo1 : 168,196,159
Combo2 : 187,198,208
Combo3 : 226,215,173
Combo4 : 208,187,198

[HitObjects]
392,134,2993,5,4,0:0:0:0:
292,157,3141,1,4,0:0:0:0:
324,246,5369,5,4,0:0:0:0:
224,223,5517,1,4,0:0:0:0:
316,261,6260,5,4,0:0:0:0:
216,238,6408,1,4,0:0:0:0:
328,74,7745,5,4,0:0:0:0:
428,51,7893,1,4,0:0:0:0:
399,150,10121,5,4,0:0:0:0:
313,205,10270,2,0,L|195:183,1,97.5,4|0,0:0|0:0,0:0:0:0:
178,191,10567,2,0,P|148:217|157:318,1,130,4|0,0:0|3:0,0:0:0:0:
236,310,11012,5,8,0:0:0:0:
243,318,11606,5,0,3:0:0:0:
243,318,11681,1,0,0:0:0:0:
243,318,11755,2,0,L|257:357,2,32.5,0|0|0,3:0|0:0|3:0,0:0:0:0:
258,225,12052,1,0,3:0:0:0:
340,254,12200,2,0,P|347:211|328:177,1,65,2|0,3:0|0:0,0:0:0:0:
272,140,12497,6,0,L|183:142,1,65,4|0,0:0|0:0,0:0:0:0:
232,60,12794,2,0,L|143:62,1,65,4|0,0:3|0:0,0:0:0:0:
91,21,13092,2,0,P|127:72|96:143,1,130,4|4,0:3|0:3,0:0:0:0:
32,167,13537,1,0,0:0:0:0:
101,216,13686,6,0,L|231:208,1,130,4|4,0:3|0:3,0:0:0:0:
295,154,14131,1,0,0:0:0:0:
311,237,14280,2,0,L|303:318,1,65,4|8,0:3|0:0,0:0:0:0:
382,183,14577,2,0,L|375:118,1,65,4|8,0:3|0:0,0:0:0:0:
311,63,14874,6,0,P|272:73|187:31,1,130,4|4,0:0|0:3,0:0:0:0:
113,9,15319,1,0,0:0:0:0:
129,92,15468,2,0,P|129:124|119:155,1,65,4|0,0:3|0:0,0:0:0:0:
48,202,15765,2,0,P|111:193|166:226,1,130,6|4,0:3|0:3,0:0:0:0:
232,174,16210,2,0,B|251:226|251:226|223:316,1,130,2|0,0:0|0:0,0:0:0:0:
144,308,16656,2,0,L|64:298,1,65,8|4,0:3|0:3,0:0:0:0:
196,378,16953,2,0,L|276:368,1,65,8|0,0:0|0:0,0:0:0:0:
279,371,17176,1,8,0:0:0:0:
297,374,17250,5,4,0:0:0:0:
419,58,19626,5,6,0:0:0:0:
350,107,19775,1,0,0:0:0:0:
284,53,19923,1,0,0:0:0:0:
215,102,20072,2,0,P|190:108|128:87,1,65,0|8,0:0|0:0,0:0:0:0:
74,67,20369,2,0,L|62:20,2,32.5,0|0|8,0:0|0:0|0:0,0:0:0:0:
8,120,20666,2,0,L|0:88,2,32.5,0|0|8,0:0|0:0|0:0,0:0:0:0:
76,169,20963,2,0,L|84:200,2,32.5,8|8|8,0:0|0:0|0:0,0:0:0:0:
159,185,21260,2,0,L|167:216,2,32.5,8|8|8,0:0|0:0|0:0,0:0:0:0:
219,125,21557,2,0,L|260:111,2,32.5,8|8|8,0:0|0:0|0:0,0:0:0:0:
258,211,21854,1,8,0:0:0:0:
258,211,21928,1,8,0:0:0:0:
258,211,22002,6,0,P|325:224|391:175,1,130,6|8,0:0|0:0,0:0:0:0:
422,123,22448,1,0,0:0:0:0:
458,199,22596,2,0,L|445:342,1,130,2|8,0:0|0:0,0:0:0:0:
367,297,23042,1,0,0:0:0:0:
298,347,23191,6,0,P|283:301|283:274,1,65,2|0,0:0|0:0,0:0:0:0:
197,280,23488,2,0,P|218:236|238:217,1,65,8|0,0:0|0:0,0:0:0:0:
286,161,23785,2,0,L|267:92,1,65,2|0,0:0|0:0,0:0:0:0:
183,99,24082,2,0,L|202:30,1,65,10|0,0:0|0:0,0:0:0:0:
108,49,24379,6,0,P|143:115|107:183,1,130,2|8,0:0|0:0,0:0:0:0:
51,200,24824,1,0,0:0:0:0:
121,247,24973,2,0,L|269:228,1,130,2|8,0:0|0:0,0:0:0:0:
310,172,25418,1,0,0:0:0:0:
328,254,25567,6,0,P|330:287|322:338,1,65,2|0,0:0|0:0,0:0:0:0:
398,364,25864,2,0,P|410:330|410:250,1,97.5,8|8,0:0|0:0,0:0:0:0:
418,252,26161,2,0,L|495:237,1,65,2|0,0:0|0:0,0:0:0:0:
503,157,26458,2,0,L|490:121,3,32.5,8|0|8|8,0:0|0:0|0:0|0:0,0:0:0:0:
501,91,26755,6,0,P|445:118|373:89,1,130,6|8,0:0|0:0,0:0:0:0:
299,110,27200,1,0,0:0:0:0:
254,37,27349,2,0,P|193:17|136:44,1,130,2|8,0:0|0:0,0:0:0:0:
52,38,27794,1,0,0:0:0:0:
63,121,27943,6,0,P|29:120|-2:102,2,65,2|0|8,0:0|0:0|0:0,0:0:0:0:
147,131,28389,1,0,0:0:0:0:
96,199,28537,2,0,P|74:258|100:316,1,130,2|10,0:0|0:0,0:0:0:0:
159,255,28983,1,0,0:0:0:0:
214,191,29131,6,0,L|293:177,2,65,2|0|8,0:0|0:0|0:0,0:0:0:0:
247,281,29577,1,0,0:0:0:0:
247,281,29651,1,8,0:0:0:0:
247,281,29725,2,0,L|381:255,1,130,2|8,0:0|0:0,0:0:0:0:
486,48,30319,5,2,0:0:0:0:
404,25,30468,1,0,0:0:0:0:
321,39,30616,1,8,0:0:0:0:
257,94,30765,1,8,0:0:0:0:
257,94,30839,1,8,0:0:0:0:
257,94,30913,2,0,L|203:108,3,32.5,8|0|8|8,0:0|0:0|0:0|0:0,0:0:0:0:
184,112,31210,2,0,L|152:103,3,32.5,8|0|8|8,0:0|0:0|0:0|0:0,0:0:0:0:
121,74,31507,6,0,P|72:87|36:155,1,130,4|8,0:0|0:0,0:0:0:0:
30,237,31953,2,0,B|68:240|93:216|93:216|144:255|225:216,1,195,6|0,0:0|0:0,0:0:0:0:
279,160,32547,1,8,0:0:0:0:
279,160,32621,1,8,0:0:0:0:
279,160,32695,6,0,P|301:194|281:277,1,130,10|8,0:0|0:0,0:0:0:0:
220,334,33141,2,0,B|275:380|347:336|347:336|372:349|409:345,1,195,6|0,0:0|3:0,0:0:0:0:
463,285,33735,1,0,0:0:0:0:
392,237,33884,6,0,P|370:203|390:120,1,130,4|0,0:0|0:0,0:0:0:0:
458,72,34329,1,8,0:0:0:0:
379,38,34478,2,0,L|303:47,1,65,0|8,0:0|0:0,0:0:0:0:
262,144,34775,2,0,L|186:135,1,65,0|8,0:0|0:0,0:0:0:0:
116,56,35072,6,0,L|70:65,2,32.5,2|0|0,0:0|0:0|0:0,0:0:0:0:
116,140,35369,1,8,0:0:0:0:
32,129,35517,2,0,P|8:186|34:250,1,130,4|8,0:0|0:0,0:0:0:0:
110,276,35963,2,0,L|156:270,3,32.5,8|8|8|8,0:0|0:0|0:0|0:0,0:0:0:0:
181,289,36260,6,0,L|323:265,1,130,6|8,0:0|0:0,0:0:0:0:
357,198,36705,1,0,0:0:0:0:
391,275,36854,2,0,P|440:218|431:159,1,130,2|8,0:0|0:0,0:0:0:0:
455,85,37299,1,0,0:0:0:0:
391,28,37448,6,0,L|314:20,2,65,2|0|8,0:0|0:0|0:0,0:0:0:0:
368,112,37893,1,8,0:0:0:0:
368,112,37968,1,8,0:0:0:0:
368,112,38042,2,0,L|231:94,1,130,2|8,0:0|0:0,0:0:0:0:
197,21,38488,1,0,0:0:0:0:
114,38,38636,6,0,P|79:56|50:158,1,130,6|8,0:0|0:0,0:0:0:0:
121,172,39082,2,0,B|157:240|122:292|122:292|152:267|204:280,1,195,6|0,0:0|0:0,0:0:0:0:
174,371,39676,1,0,0:0:0:0:
174,371,39750,1,0,0:0:0:0:
174,371,39824,6,0,P|228:366|277:282,1,130,6|8,0:0|0:0,0:0:0:0:
359,316,40270,2,0,L|344:178,1,130,6|10,0:0|0:0,0:0:0:0:
380,110,40715,2,0,P|408:97|452:93,1,65,0|8,0:0|0:0,0:0:0:0:
302,74,41012,5,4,0:0:0:0:
222,115,41309,1,4,0:3:0:0:
140,79,41606,1,4,0:3:0:0:
60,120,41903,1,0,0:0:0:0:
52,275,42200,5,4,0:3:0:0:
52,275,42497,1,4,0:3:0:0:
52,275,42794,1,4,0:3:0:0:
52,275,43092,1,4,0:3:0:0:
113,202,43389,5,2,0:0:0:0:
18,353,43686,1,4,0:3:0:0:
188,256,43983,1,4,0:3:0:0:
106,339,44280,1,4,0:3:0:0:
265,315,44577,1,4,0:3:0:0:
190,358,44874,1,4,0:3:0:0:
345,353,45171,6,0,L|421:333,1,65,4|8,0:3|0:0,0:0:0:0:
374,220,45468,2,0,L|311:236,1,65,4|8,0:0|0:0,0:0:0:0:
265,315,45765,5,4,0:0:0:0:
203,251,46062,1,4,0:3:0:0:
247,172,46359,1,4,0:3:0:0:
185,108,46656,1,4,0:3:0:0:
361,131,46953,5,4,0:3:0:0:
361,131,47250,1,4,0:3:0:0:
361,131,47547,1,4,0:3:0:0:
361,131,47844,1,4,0:3:0:0:
246,269,48141,6,0,P|231:220|246:171,1,104,2|4,0:0|0:3,0:0:0:0:
444,238,48735,2,0,P|458:287|443:336,1,104,4|4,0:3|0:3,0:0:0:0:
371,286,49181,1,0,0:0:0:0:
303,368,49329,6,0,L|368:372,1,65,2|2,0:3|0:3,0:0:0:0:
297,182,49775,2,0,L|233:186,2,65,2|0|2,0:3|0:0|0:3,0:0:0:0:
310,167,50517,6,0,L|246:171,1,65,6|8,0:0|0:0,0:0:0:0:
182,114,50814,1,8,0:0:0:0:
182,114,50889,1,0,0:0:0:0:
182,114,50963,2,0,P|207:161|193:235,1,130,6|8,0:0|0:0,0:0:0:0:
129,287,51408,2,0,L|64:283,1,65,0|0,0:0|0:0,0:0:0:0:
213,317,51705,6,0,L|357:289,1,130,6|8,0:0|0:0,0:0:0:0:
412,336,52151,2,0,P|384:273|408:200,1,130,6|8,0:0|0:0,0:0:0:0:
461,161,52596,2,0,L|451:108,3,32.5,8|8|8|8,0:0|0:0|0:0|0:0,0:0:0:0:
454,95,52893,6,0,P|388:109|324:69,1,130,6|8,0:0|0:0,0:0:0:0:
317,0,53339,2,0,B|246:31|253:104|253:104|230:80|170:84,1,195,6|8,0:0|0:0,0:0:0:0:
196,168,53933,1,0,0:0:0:0:
124,121,54082,6,0,P|108:170|150:242,1,130,6|8,0:0|0:0,0:0:0:0:
224,252,54527,2,0,L|307:233,1,65,6|8,0:0|0:0,0:0:0:0:
318,316,54824,2,0,L|381:301,1,65,8|8,0:0|0:0,0:0:0:0:
458,361,55121,1,8,0:0:0:0:
458,361,55195,1,8,0:0:0:0:
458,361,55270,5,4,0:0:0:0:
441,220,55567,1,0,0:0:0:0:
287,235,55864,1,0,0:0:0:0:
304,94,56161,2,0,L|361:80,2,52,2|2|2,0:0|0:0|0:0,0:0:0:0:
148,151,56755,1,0,0:0:0:0:
287,235,57052,2,0,P|324:301|294:382,1,156,2|0,0:0|0:0,0:0:0:0:
220,338,57646,6,0,L|105:351,2,104,6|0|8,0:0|3:0|0:0,0:0:0:0:
367,208,58537,2,0,L|361:251,2,26,0|0|0,3:0|3:0|3:0,0:0:0:0:
409,137,58834,2,0,L|524:150,2,104,8|0|4,0:0|3:0|0:3,0:0:0:0:
409,137,59725,1,8,0:3:0:0:
222,71,60022,6,0,P|277:84|329:59,2,116.999996429443,6|0|8,0:0|0:0|0:0,0:0:0:0:
163,21,60765,2,0,L|179:141,1,116.999996429443,2|0,0:0|0:0,0:0:0:0:
222,202,61210,2,0,P|170:176|115:189,2,116.999996429443,2|0|8,0:0|0:0|0:0,0:0:0:0:
393,231,62101,1,0,0:0:0:0:
303,343,62398,6,0,P|283:290|306:238,2,116.999996429443,2|0|8,0:0|0:0|0:0,0:0:0:0:
378,356,63141,2,0,L|509:340,1,116.999996429443,2|0,0:0|0:0,0:0:0:0:
500,265,63587,1,2,0:0:0:0:
378,356,63884,1,2,0:0:0:0:
303,223,64181,2,0,P|244:191|188:212,1,116.999996429443,8|0,0:0|0:0,0:0:0:0:
141,253,64626,1,0,0:0:0:0:
158,327,64775,6,0,P|109:357|53:346,2,116.999996429443,2|0|8,0:0|0:0|0:0,0:0:0:0:
233,336,65517,2,0,L|366:318,1,116.999996429443,2|0,0:0|0:0,0:0:0:0:
418,351,65963,5,2,0:0:0:0:
337,221,66260,1,0,0:0:0:0:
474,156,66557,2,0,P|489:126|488:74,1,58.4999982147217,8|0,0:0|0:0,0:0:0:0:
391,145,66854,6,0,P|338:127|246:206,1,181.999994445801,6|0,0:0|0:0,0:0:0:0:
247,198,67745,6,0,P|209:167|173:162,1,58.4999982147217,8|0,0:0|0:0,0:0:0:0:
169,94,68042,2,0,P|120:98|91:120,1,58.4999982147217,2|0,0:0|0:0,0:0:0:0:
39,81,68339,2,0,P|75:140|72:197,1,116.999996429443,8|2,0:0|0:0,0:0:0:0:
43,255,68785,2,0,P|46:312|78:360,1,116.999996429443,8|0,0:0|0:0,0:0:0:0:
154,364,69230,2,0,L|228:350,1,58.4999982147217,8|8,0:0|0:0,0:0:0:0:
226,344,69453,1,8,0:0:0:0:
239,332,69527,1,4,0:0:0:0:
432,189,71903,6,0,L|423:119,2,65,6|0|8,0:0|0:0|0:0,0:0:0:0:
393,264,72349,1,0,0:0:0:0:
327,210,72497,2,0,P|284:187|191:210,1,130,2|8,0:0|0:0,0:0:0:0:
122,186,72943,1,0,0:0:0:0:
154,264,73092,6,0,L|152:332,1,65,2|0,0:0|0:0,0:0:0:0:
67,322,73389,2,0,L|65:257,1,65,8|0,0:0|0:0,0:0:0:0:
122,186,73686,2,0,P|135:122|85:55,1,130,2|8,0:0|0:0,0:0:0:0:
182,35,74131,1,8,0:0:0:0:
214,113,74280,6,0,L|301:90,1,65,2|0,0:0|0:0,0:0:0:0:
324,26,74577,2,0,L|411:49,1,65,8|0,0:0|0:0,0:0:0:0:
469,29,74874,2,0,P|504:83|494:146,1,130,2|10,0:0|0:0,0:0:0:0:
410,183,75319,1,8,0:0:0:0:
410,183,75393,1,8,0:0:0:0:
410,183,75468,6,0,P|375:236|385:299,1,130,2|8,0:0|0:0,0:0:0:0:
331,364,75913,2,0,L|299:383,2,32.5,8|8|8,0:0|0:0|0:0,0:0:0:0:
284,292,76210,2,0,L|286:244,2,32.5,8|8|8,0:0|0:0|0:0,0:0:0:0:
195,313,76507,1,8,0:0:0:0:
195,313,76582,1,8,0:0:0:0:
195,313,76656,6,0,P|148:315|87:235,1,130,6|8,0:0|0:0,0:0:0:0:
74,178,77101,1,0,0:0:0:0:
158,168,77250,2,0,P|205:170|266:90,1,130,2|8,0:0|0:0,0:0:0:0:
271,32,77695,1,0,0:0:0:0:
339,82,77844,6,0,L|358:166,1,65,2|0,0:0|0:0,0:0:0:0:
437,157,78141,2,0,L|418:241,1,65,8|0,0:0|0:0,0:0:0:0:
425,305,78438,2,0,P|383:256|320:252,1,130,2|8,0:0|0:0,0:0:0:0:
238,231,78884,1,0,0:0:0:0:
261,311,79032,6,0,P|219:359|156:363,1,130,6|8,0:0|0:0,0:0:0:0:
143,279,79478,1,0,0:0:0:0:
273,324,79626,6,0,P|231:372|168:376,1,130,6|8,0:0|0:0,0:0:0:0:
125,287,80072,1,0,0:0:0:0:
64,369,80220,6,0,L|-6:364,2,65,4|0|8,0:0|0:0|0:0,0:0:0:0:
125,287,80666,2,0,B|170:193|86:195|139:75,1,195,4|0,0:0|3:0,0:0:0:0:
200,28,81260,1,8,0:0:0:0:
200,28,81334,1,8,0:0:0:0:
200,28,81408,6,0,L|355:13,1,130,6|8,0:0|0:0,0:0:0:0:
352,97,81854,2,0,L|222:109,1,130,6|8,0:0|0:0,0:0:0:0:
168,174,82299,2,0,P|160:196|159:244,1,65,0|8,0:0|0:0,0:0:0:0:
240,218,82596,6,0,P|267:269|252:359,1,130,6|8,0:0|0:0,0:0:0:0:
179,358,83042,2,0,P|152:307|167:217,1,130,6|8,0:0|0:0,0:0:0:0:
87,188,83488,2,0,L|41:200,3,32.5,8|8|8|8,0:0|0:0|0:0|0:0,0:0:0:0:
32,181,83785,6,0,L|36:110,1,65,6|8,0:0|0:0,0:0:0:0:
128,105,84082,2,0,L|124:34,1,65,8|8,0:0|0:0,0:0:0:0:
226,143,84379,2,0,L|230:72,1,65,8|8,0:0|0:0,0:0:0:0:
322,93,84676,2,0,L|318:22,1,65,8|8,0:0|0:0,0:0:0:0:
420,82,84973,6,0,L|409:221,1,130,2|8,0:0|0:0,0:0:0:0:
447,286,85418,2,0,P|397:245|334:249,1,130,6|0,0:0|0:0,0:0:0:0:
257,283,85864,2,0,L|217:277,3,32.5,8|8|8|8,0:0|0:0|0:0|0:0,0:0:0:0:
198,282,86161,6,0,P|162:313|152:350,2,65,6|0|8,0:0|0:0|0:0,0:0:0:0:
187,198,86606,1,0,0:0:0:0:
111,235,86755,2,0,P|68:182|72:105,1,130,2|8,0:0|0:0,0:0:0:0:
127,65,87200,1,0,0:0:0:0:
199,108,87349,6,0,P|254:111|284:97,1,65,2|0,0:0|0:0,0:0:0:0:
345,90,87646,2,0,P|302:143|306:220,1,130,8|2,0:0|0:0,0:0:0:0:
383,191,88092,1,0,0:0:0:0:
440,252,88240,2,0,L|436:327,1,65,8|8,0:0|0:0,0:0:0:0:
341,375,88537,6,0,P|281:380|205:340,1,130,6|8,0:0|0:0,0:0:0:0:
136,374,88983,2,0,B|123:304|192:269|192:269|165:264|129:234,1,195,6|10,0:0|0:0,0:0:0:0:
200,184,89577,6,0,P|221:106|192:61,1,130,2|2,0:0|0:0,0:0:0:0:
116,46,90022,1,10,0:0:0:0:
198,66,90171,2,0,B|240:70|265:82|265:82|283:61|314:48|314:48|343:57|383:60,1,195,6|8,0:0|0:0,0:0:0:0:
456,137,90765,2,0,L|410:150,2,32.5,8|8|6,0:0|0:0|0:0,0:0:0:0:
