osu file format v14

[General]
AudioFilename: moe.mp3
AudioLeadIn: 0
PreviewTime: 71582
Countdown: 0
SampleSet: Soft
StackLeniency: 0.4
Mode: 0
LetterboxInBreaks: 1
WidescreenStoryboard: 1

[Editor]
Bookmarks: 2811,12316,17142,19444,21821,31326,36152,40831,50335,55088,59840,69420,71722,81227,85979,90732,100236,131128,147761,194107,213117,229750,236285,239378
DistanceSpacing: 1.8
BeatDivisor: 4
GridSize: 32
TimelineZoom: 3.099999

[Metadata]
Title:Sayonara Ryou Kataomoi
TitleUnicode:さよなら両片想
Artist:sana
ArtistUnicode:鎖那
Creator:Milan-
Version:Extra
Source:
Tags:moe appleeaterx honeyworks Suki ni Naru Sono Shunkan wo 好きになるその瞬間を utaite
BeatmapID:1179268
BeatmapSetID:508803

[Difficulty]
HPDrainRate:7
CircleSize:4
OverallDifficulty:8.6
ApproachRate:9.5
SliderMultiplier:1.4
SliderTickRate:2

[Events]
//Background and Video events
0,0,"b.jpg",0,0
//Break Periods
//Storyboard Layer 0 (Background)
//Storyboard Layer 1 (Fail)
//Storyboard Layer 2 (Pass)
//Storyboard Layer 3 (Foreground)
//Storyboard Sound Samples

[TimingPoints]
2993,297.029702970297,4,2,1,55,1,0
11012,-125,4,2,1,55,0,0
11606,-100,4,2,1,55,0,0
12497,-100,4,2,1,45,0,0
17250,-100,4,2,1,55,0,0
19626,-83.3333333333333,4,2,1,50,0,0
20814,-83.3333333333333,4,2,1,55,0,0
22002,-83.3333333333333,4,2,1,55,0,0
31953,-71.4285714285714,4,2,1,55,0,0
32053,-83.3333333333333,4,2,1,55,0,0
33141,-71.4285714285714,4,2,1,55,0,0
33241,-83.3333333333333,4,2,1,55,0,0
39082,-71.4285714285714,4,2,1,55,0,0
39182,-83.3333333333333,4,2,1,55,0,0
40270,-71.4285714285714,4,2,1,55,0,0
40370,-83.3333333333333,4,2,1,55,0,0
41012,-100,4,2,1,45,0,0
50517,-83.3333333333333,4,2,1,55,0,0
50963,-71.4285714285714,4,2,1,55,0,0
51063,-83.3333333333333,4,2,1,55,0,0
52151,-71.4285714285714,4,2,1,55,0,0
52251,-83.3333333333333,4,2,1,55,0,0
53339,-71.4285714285714,4,2,1,55,0,0
53439,-83.3333333333333,4,2,1,55,0,0
55270,-125,4,2,1,40,0,0
57646,-125,4,2,1,45,0,0
60022,-100,4,2,1,45,0,0
66854,-125,4,2,1,50,0,0
67448,-100,4,2,1,45,0,0
69230,-83.3333333333333,4,2,1,55,0,0
71903,-71.4285714285714,4,2,1,55,0,1
81854,-66.6666666666667,4,2,1,55,0,1
81954,-71.4285714285714,4,2,1,55,0,1
83042,-66.6666666666667,4,2,1,55,0,1
83142,-71.4285714285714,4,2,1,55,0,1
88983,-66.6666666666667,4,2,1,55,0,1
89083,-71.4285714285714,4,2,1,55,0,1
90171,-66.6666666666667,4,2,1,55,0,1
90271,-71.4285714285714,4,2,1,55,0,1
90913,-71.4285714285714,4,2,1,55,0,0

[Colours]
Combo1 : 168,196,159
Combo2 : 187,198,208
Combo3 : 226,215,173
Combo4 : 208,187,198

[HitObjects]
383,98,2993,5,4,0:0:0:0:
181,164,3141,1,4,0:0:0:0:
129,98,5369,5,4,0:0:0:0:
331,164,5517,1,4,0:0:0:0:
53,178,6260,5,4,0:0:0:0:
255,112,6408,1,4,0:0:0:0:
259,26,7745,5,4,0:0:0:0:
325,228,7893,1,4,0:0:0:0:
167,51,9973,6,0,L|173:101,1,35
73,127,10121,2,0,L|77:92,1,35,4|0,0:0|0:0,0:0:0:0:
161,178,10270,2,0,P|212:180|254:149,1,105,4|0,0:0|0:0,0:0:0:0:
404,96,10567,2,0,P|364:40|297:34,1,140,4|0,0:0|3:0,0:0:0:0:
167,279,11012,6,0,B|257:310|256:231|356:286,1,196,8|0,0:0|0:0,0:0:0:0:
434,276,11606,6,0,P|439:295|445:325,1,35,0|0,3:0|0:0,0:0:0:0:
395,201,11755,2,0,P|398:183|403:167,1,35,0|0,3:0|0:0,0:0:0:0:
512,342,11903,2,0,P|507:361|497:389,1,35,0|0,3:0|0:0,0:0:0:0:
331,126,12052,2,0,P|342:113|355:100,1,35,0|0,3:0|0:0,0:0:0:0:
489,204,12200,5,2,3:0:0:0:
489,204,12497,6,0,P|457:216|422:215,1,70,4|0,0:0|0:0,0:0:0:0:
261,211,12794,2,0,P|296:210|329:223,1,70,4|0,0:3|0:0,0:0:0:0:
390,359,13092,2,0,L|380:289,1,70,4|0,0:3|0:0,0:0:0:0:
198,157,13389,2,0,L|208:87,1,70,4|0,0:3|0:0,0:0:0:0:
177,241,13686,6,0,P|154:267|121:279,1,70,4|0,0:3|0:0,0:0:0:0:
41,159,13983,2,0,P|74:171|97:198,1,70,4|0,0:3|0:0,0:0:0:0:
41,260,14280,5,4,0:3:0:0:
261,211,14428,1,8,0:0:0:0:
177,241,14577,5,4,0:3:0:0:
285,20,14725,1,8,0:0:0:0:
332,88,14874,6,0,P|367:92|401:84,1,70,4|0,0:0|0:0,0:0:0:0:
200,18,15171,2,0,L|211:102,1,70,4|0,0:3|0:0,0:0:0:0:
282,226,15468,2,0,L|273:157,1,70,4|0,0:3|0:0,0:0:0:0:
112,58,15765,2,0,P|77:54|43:62,1,70,6|0,0:3|0:0,0:0:0:0:
209,87,16062,5,4,0:3:0:0:
73,215,16210,2,0,L|82:145,1,70,2|4,0:0|0:3,0:0:0:0:
164,162,16507,1,0,0:0:0:0:
4,271,16656,1,8,0:3:0:0:
194,244,16804,1,4,0:3:0:0:
95,371,16953,2,0,L|85:301,1,70,8|0,0:0|0:0,0:0:0:0:
73,215,17176,1,8,0:0:0:0:
80,194,17250,5,4,0:0:0:0:
219,333,19626,5,6,0:0:0:0:
301,278,19775,1,0,0:0:0:0:
213,234,19923,1,0,0:0:0:0:
313,372,20072,1,0,0:0:0:0:
313,372,20146,1,0,0:0:0:0:
313,372,20220,2,0,L|370:362,1,41.9999987182618,8|0,0:0|0:0,0:0:0:0:
441,270,20369,1,0,0:0:0:0:
441,270,20443,1,0,0:0:0:0:
441,270,20517,2,0,L|384:260,1,41.9999987182618,8|0,0:0|0:0,0:0:0:0:
220,241,20666,5,0,0:0:0:0:
220,241,20740,1,0,0:0:0:0:
220,241,20814,2,0,L|230:298,1,41.9999987182618,8|0,0:0|0:0,0:0:0:0:
376,157,20963,1,8,0:0:0:0:
376,157,21037,1,8,0:0:0:0:
376,157,21111,2,0,L|386:100,1,41.9999987182618,8|0,0:0|0:0,0:0:0:0:
179,113,21260,1,8,0:0:0:0:
179,113,21334,1,8,0:0:0:0:
179,113,21408,2,0,L|189:170,1,41.9999987182618,8|0,0:0|0:0,0:0:0:0:
430,43,21557,1,8,0:0:0:0:
430,43,21631,1,8,0:0:0:0:
430,43,21705,2,0,L|440:-14,1,41.9999987182618,8|0,0:0|0:0,0:0:0:0:
295,238,21854,1,8,0:0:0:0:
266,212,21928,1,8,0:0:0:0:
254,175,22002,5,6,0:0:0:0:
369,150,22151,1,0,0:0:0:0:
318,335,22299,2,0,P|276:335|238:316,1,83.9999974365235,8|0,0:0|0:0,0:0:0:0:
452,194,22596,2,0,B|473:231|473:231|447:336,1,125.999996154785,2|0,0:0|0:0,0:0:0:0:
396,372,22893,1,8,0:0:0:0:
295,238,23042,1,0,0:0:0:0:
147,353,23191,5,2,0:0:0:0:
136,335,23339,1,0,0:0:0:0:
176,181,23488,1,8,0:0:0:0:
163,205,23636,1,0,0:0:0:0:
13,179,23785,5,2,0:0:0:0:
219,285,23933,1,0,0:0:0:0:
10,213,24082,1,10,0:0:0:0:
242,263,24230,1,0,0:0:0:0:
105,62,24379,6,0,B|87:100|87:100|93:141,1,83.9999974365235,2|0,0:0|0:0,0:0:0:0:
335,256,24676,2,0,B|352:217|352:217|346:176,1,83.9999974365235,8|0,0:0|0:0,0:0:0:0:
182,111,24973,2,0,P|262:124|322:70,1,167.999994873047,2|8,0:0|0:0,0:0:0:0:
236,29,25418,1,0,0:0:0:0:
403,104,25567,5,2,0:0:0:0:
245,175,25715,1,0,0:0:0:0:
468,38,25864,2,0,P|494:96|452:177,1,125.999996154785,8|8,0:0|0:0,0:0:0:0:
403,184,26161,1,2,0:0:0:0:
322,69,26309,1,0,0:0:0:0:
290,259,26458,1,8,0:0:0:0:
495,266,26606,1,8,0:0:0:0:
495,266,26681,1,8,0:0:0:0:
495,266,26755,5,6,0:0:0:0:
403,184,26903,1,0,0:0:0:0:
350,353,27052,2,0,L|436:342,1,83.9999974365235,8|0,0:0|0:0,0:0:0:0:
242,174,27349,2,0,P|208:207|225:332,1,167.999994873047,2|8,0:0|0:0,0:0:0:0:
290,259,27794,1,0,0:0:0:0:
138,384,27943,6,0,P|116:349|115:287,1,83.9999974365235,2|0,0:0|0:0,0:0:0:0:
242,174,28240,1,8,0:0:0:0:
213,319,28389,1,0,0:0:0:0:
51,232,28537,2,0,B|89:210|89:210|136:211,1,83.9999974365235,2|0,0:0|0:0,0:0:0:0:
305,66,28834,2,0,B|264:66|264:66|226:44,1,83.9999974365235,10|0,0:0|0:0,0:0:0:0:
64,52,29131,5,2,0:0:0:0:
164,113,29280,1,0,0:0:0:0:
50,231,29428,2,0,P|35:193|38:151,1,83.9999974365235,8|0,0:0|0:0,0:0:0:0:
114,180,29651,1,8,0:0:0:0:
114,180,29725,2,0,P|192:194|249:111,1,167.999994873047,2|8,0:0|0:0,0:0:0:0:
164,113,30171,1,0,0:0:0:0:
240,264,30319,6,0,P|266:249|285:225,1,41.9999987182618,2|0,0:0|0:0,0:0:0:0:
340,112,30468,1,0,0:0:0:0:
340,112,30542,1,0,0:0:0:0:
340,112,30616,2,0,P|343:136|340:168,1,41.9999987182618,8|0,0:0|0:0,0:0:0:0:
94,254,30765,1,8,0:0:0:0:
94,254,30839,1,8,0:0:0:0:
94,254,30913,2,0,P|122:261|157:262,1,41.9999987182618,8|0,0:0|0:0,0:0:0:0:
375,21,31062,1,8,0:0:0:0:
375,21,31136,1,8,0:0:0:0:
375,21,31210,2,0,P|346:13|312:13,1,41.9999987182618,8|0,0:0|0:0,0:0:0:0:
76,59,31359,1,8,0:0:0:0:
76,59,31433,1,8,0:0:0:0:
76,59,31507,6,0,P|60:100|75:165,1,83.9999974365235,4|0,0:0|0:0,0:0:0:0:
161,25,31804,1,8,0:0:0:0:
10,223,31953,6,0,P|80:236|141:199,1,146.999995513916,6|0,0:0|0:0,0:0:0:0:
213,101,32250,2,0,L|226:168,1,41.9999987182618
310,200,32398,1,0,0:0:0:0:
447,158,32547,1,8,0:0:0:0:
447,158,32621,1,8,0:0:0:0:
447,158,32695,6,0,P|463:199|448:264,1,83.9999974365235,10|0,0:0|0:0,0:0:0:0:
362,124,32993,1,8,0:0:0:0:
512,322,33141,6,0,P|441:335|380:298,1,146.999995513916,6|0,0:0|0:0,0:0:0:0:
310,200,33438,2,0,L|297:267,1,41.9999987182618,0|0,3:3|3:0,0:0:0:0:
213,300,33587,2,0,L|197:199,1,83.9999974365235,0|0,3:0|0:0,0:0:0:0:
232,57,33884,5,4,0:0:0:0:
142,155,34032,1,0,0:0:0:0:
276,183,34181,1,0,0:0:0:0:
137,64,34329,5,8,0:0:0:0:
128,271,34478,1,0,0:0:0:0:
333,270,34626,1,8,0:0:0:0:
55,167,34775,5,0,0:0:0:0:
246,363,34923,1,8,0:0:0:0:
329,102,35072,5,2,0:0:0:0:
329,102,35146,1,0,0:0:0:0:
329,102,35220,2,0,L|271:97,1,41.9999987182618
161,173,35369,2,0,L|219:168,1,41.9999987182618,8|0,0:0|0:0,0:0:0:0:
417,163,35517,2,0,L|409:223,1,41.9999987182618,4|0,0:0|0:0,0:0:0:0:
305,299,35666,2,0,L|299:257,1,41.9999987182618
191,77,35814,1,8,0:0:0:0:
149,70,35889,1,8,0:0:0:0:
109,80,35963,1,8,0:0:0:0:
77,106,36037,1,8,0:0:0:0:
58,144,36111,1,8,0:0:0:0:
56,185,36186,1,8,0:0:0:0:
75,221,36260,6,0,B|174:236|139:177|237:196,1,167.999994873047,6|8,0:0|0:0,0:0:0:0:
434,330,36705,1,0,0:0:0:0:
460,232,36854,2,0,B|361:217|396:276|298:257,1,167.999994873047,2|8,0:0|0:0,0:0:0:0:
299,257,37299,1,0,0:0:0:0:
320,116,37448,5,2,0:0:0:0:
235,195,37596,1,0,0:0:0:0:
408,148,37745,1,8,0:0:0:0:
276,24,37893,1,8,0:0:0:0:
276,24,37968,1,8,0:0:0:0:
276,24,38042,2,0,L|92:17,1,167.999994873047,2|8,0:0|0:0,0:0:0:0:
15,81,38488,1,0,0:0:0:0:
131,257,38636,6,0,P|147:197|124:140,1,125.999996154785,6|8,0:0|0:0,0:0:0:0:
46,182,38933,2,0,L|50:243,1,41.9999987182618,8|0,0:0|0:0,0:0:0:0:
151,346,39082,6,0,B|179:337|195:319|195:319|241:341|305:322,1,146.999995513916,6|0,0:0|0:0,0:0:0:0:
376,240,39379,2,0,L|360:304,1,41.9999987182618
283,237,39527,2,0,L|272:196,1,41.9999987182618
403,128,39676,2,0,L|348:154,1,41.9999987182618
229,2,39824,6,0,P|276:41|283:102,1,125.999996154785,6|8,0:0|0:0,0:0:0:0:
203,85,40121,2,0,L|151:77,1,41.9999987182618,8|0,0:0|0:0,0:0:0:0:
12,203,40270,6,0,P|65:155|136:164,1,146.999995513916,6|0,0:0|0:0,0:0:0:0:
234,182,40567,2,0,L|227:223,1,41.9999987182618,10|0,0:0|0:0,0:0:0:0:
101,289,40715,2,0,L|94:248,1,41.9999987182618
295,108,40864,1,8,0:0:0:0:
199,332,41012,6,0,P|266:342|323:304,1,140,4|4,0:0|0:3,0:0:0:0:
456,201,41458,1,0,0:0:0:0:
505,270,41606,2,0,P|448:232|381:243,1,140,4|0,0:3|0:0,0:0:0:0:
233,168,42052,1,0,0:0:0:0:
277,95,42200,2,0,P|314:152|297:218,1,140,4|4,0:3|0:3,0:0:0:0:
193,90,42646,1,0,0:0:0:0:
239,19,42794,2,0,L|322:10,1,70,4|0,0:3|0:0,0:0:0:0:
150,168,43092,2,0,L|39:157,1,105,4|0,0:3|0:0,0:0:0:0:
27,173,43389,6,0,P|17:208|23:249,1,70,2|0,0:0|0:0,0:0:0:0:
177,345,43686,2,0,P|180:310|170:276,1,70,4|0,0:3|0:0,0:0:0:0:
23,324,43983,2,0,L|103:316,1,70,4|0,0:3|0:0,0:0:0:0:
225,207,44280,2,0,L|294:213,1,70,4|0,0:3|0:0,0:0:0:0:
150,168,44577,2,0,L|139:85,1,70,4|0,0:3|0:0,0:0:0:0:
335,290,44874,2,0,L|326:360,1,70,4|0,0:3|0:0,0:0:0:0:
382,220,45171,5,4,0:3:0:0:
170,276,45319,1,8,0:0:0:0:
225,207,45468,5,4,0:0:0:0:
433,376,45616,1,8,0:0:0:0:
481,307,45765,6,0,P|401:298|352:347,1,140,4|4,0:0|0:3,0:0:0:0:
225,207,46210,1,0,0:0:0:0:
154,252,46359,2,0,P|234:243|283:292,1,140,4|4,0:3|0:3,0:0:0:0:
421,164,46804,1,0,0:0:0:0:
367,98,46953,2,0,P|338:159|361:223,1,140,4|4,0:3|0:3,0:0:0:0:
451,88,47398,1,0,0:0:0:0:
400,20,47547,2,0,L|311:26,1,70,4|0,0:3|0:0,0:0:0:0:
237,135,47844,2,0,L|129:123,1,105,4|0,0:3|0:0,0:0:0:0:
117,143,48141,6,0,P|77:88|97:23,1,140,2|4,0:0|0:3,0:0:0:0:
187,213,48587,1,0,0:0:0:0:
112,260,48735,2,0,L|14:250,1,70,4|0,0:3|0:0,0:0:0:0:
237,135,49032,2,0,L|335:125,1,70,4|0,0:3|0:0,0:0:0:0:
203,311,49329,5,2,0:3:0:0:
117,143,49478,1,2,0:3:0:0:
203,311,49775,6,0,L|197:353,1,35,2|0,0:3|0:0,0:0:0:0:
117,143,49923,1,0,0:0:0:0:
291,334,50072,1,2,0:3:0:0:
291,334,50517,6,0,L|285:280,1,41.9999987182618,6|0,0:0|0:0,0:0:0:0:
375,175,50666,1,8,0:0:0:0:
375,175,50740,1,8,0:0:0:0:
375,175,50814,2,0,L|370:216,1,41.9999987182618,8|0,0:0|0:0,0:0:0:0:
181,285,50963,6,0,P|203:217|267:185,1,146.999995513916,6|0,0:0|0:0,0:0:0:0:
306,111,51260,1,8,0:0:0:0:
286,292,51408,1,0,0:0:0:0:
467,259,51557,1,0,0:0:0:0:
486,76,51705,6,0,L|352:53,1,125.999996154785,6|0,0:0|0:0,0:0:0:0:
277,25,52002,2,0,L|207:39,1,41.9999987182618,8|0,0:0|0:0,0:0:0:0:
60,0,52151,6,0,P|118:40|119:111,1,146.999995513916,6|0,0:0|0:0,0:0:0:0:
29,200,52448,2,0,L|80:188,1,41.9999987182618,8|0,0:0|0:0,0:0:0:0:
198,252,52596,1,8,0:0:0:0:
198,252,52671,1,8,0:0:0:0:
198,252,52745,2,0,L|147:240,1,41.9999987182618,8|8,0:0|0:0,0:0:0:0:
43,374,52893,6,0,L|170:347,1,125.999996154785,6|0,0:0|0:0,0:0:0:0:
262,323,53191,2,0,L|273:381,1,41.9999987182618,8|0,0:0|0:0,0:0:0:0:
403,384,53339,6,0,B|377:336|377:336|414:233,1,146.999995513916,6|0,0:0|0:0,0:0:0:0:
453,160,53636,2,0,L|501:154,1,41.9999987182618
369,74,53785,2,0,L|410:79,1,41.9999987182618,8|0,0:0|0:0,0:0:0:0:
280,13,53933,1,0,0:0:0:0:
280,13,54007,1,0,0:0:0:0:
280,13,54082,6,0,P|256:66|295:146,1,125.999996154785,6|0,0:0|0:0,0:0:0:0:
371,178,54379,2,0,L|358:227,1,41.9999987182618,8|0,0:0|0:0,0:0:0:0:
177,152,54527,5,6,0:0:0:0:
369,74,54676,1,8,0:0:0:0:
270,269,54824,1,8,0:0:0:0:
270,269,54898,1,8,0:0:0:0:
270,269,54973,2,0,L|257:220,1,41.9999987182618,8|0,0:0|0:0,0:0:0:0:
457,133,55121,1,8,0:0:0:0:
475,168,55195,1,8,0:0:0:0:
464,208,55270,5,4,0:0:0:0:
276,128,55567,1,0,0:0:0:0:
382,216,55864,1,0,0:0:0:0:
363,136,56161,5,2,0:0:0:0:
363,136,56309,1,2,0:0:0:0:
363,136,56458,1,2,0:0:0:0:
211,287,56755,1,0,0:0:0:0:
303,196,57052,2,0,L|312:317,1,112,2|0,0:0|0:0,0:0:0:0:
311,307,57497,1,0,0:0:0:0:
271,108,57646,6,0,P|231:135|147:122,1,112,6|0,0:0|3:0,0:0:0:0:
159,124,58017,1,0,3:0:0:0:
160,110,58092,1,0,3:3:0:0:
3,244,58240,6,0,P|43:217|127:230,1,112,8|0,0:0|3:0,0:0:0:0:
115,228,58611,1,0,3:0:0:0:
114,242,58686,1,0,3:0:0:0:
283,325,58834,6,0,P|243:352|159:339,1,112,8|0,0:0|3:0,0:0:0:0:
171,341,59205,1,0,3:0:0:0:
172,327,59280,1,0,3:0:0:0:
401,336,59428,5,4,0:3:0:0:
401,336,59725,1,8,0:3:0:0:
401,336,60022,6,0,P|412:301|409:253,1,70,6|0,0:0|0:0,0:0:0:0:
335,145,60319,2,0,P|336:180|347:214,1,70
240,246,60616,1,8,0:0:0:0:
306,297,60765,2,0,P|241:274|178:302,1,140,2|0,0:0|0:0,0:0:0:0:
77,379,61210,6,0,P|94:320|88:288,1,70,2|0,0:0|0:0,0:0:0:0:
180,139,61507,2,0,P|150:85|123:66,1,70
0,236,61804,2,0,L|152:223,1,140,8|0,0:0|0:0,0:0:0:0:
278,157,62250,1,0,0:0:0:0:
278,157,62324,1,0,0:0:0:0:
278,157,62398,6,0,P|261:203|261:233,1,70,2|0,0:0|0:0,0:0:0:0:
365,109,62695,2,0,L|447:96,1,70
285,20,62993,1,8,0:0:0:0:
224,77,63141,2,0,P|157:95|92:71,1,140,2|0,0:0|0:0,0:0:0:0:
278,157,63587,6,0,L|274:226,1,70,2|0,0:0|0:0,0:0:0:0:
140,188,63884,2,0,L|154:256,1,70,2|0,0:0|0:0,0:0:0:0:
415,195,64181,2,0,L|366:335,1,140,8|0,0:0|0:0,0:0:0:0:
368,111,64626,1,0,0:0:0:0:
368,111,64700,1,0,0:0:0:0:
368,111,64775,6,0,P|423:96|439:97,1,70,2|0,0:0|0:0,0:0:0:0:
278,157,65072,2,0,P|243:155|210:142,1,70
76,109,65369,1,8,0:0:0:0:
146,63,65517,2,0,P|113:104|120:190,1,140,2|0,0:0|0:0,0:0:0:0:
133,198,65889,1,0,0:0:0:0:
146,210,65963,6,0,P|160:243|158:277,1,70,2|0,0:0|0:0,0:0:0:0:
76,384,66260,2,0,P|74:349|87:317,1,70
247,384,66557,2,0,L|171:381,1,70,8|0,0:0|0:0,0:0:0:0:
19,245,66854,6,0,B|128:178|133:288|244:213,1,224,6|0,0:0|0:0,0:0:0:0:
232,220,67745,6,0,P|218:187|220:153,1,70,8|0,0:0|0:0,0:0:0:0:
353,38,68042,2,0,P|354:72|341:104,1,70,2|0,0:0|0:0,0:0:0:0:
157,60,68339,2,0,L|238:46,1,70,8|0,0:0|0:0,0:0:0:0:
347,206,68636,1,2,0:0:0:0:
347,206,68710,1,0,0:0:0:0:
347,206,68785,2,0,L|290:200,1,35,8|0,0:0|0:0,0:0:0:0:
118,146,68933,1,2,0:0:0:0:
118,146,69007,1,0,0:0:0:0:
118,146,69082,2,0,L|61:152,1,35
209,287,69230,6,0,L|207:230,1,41.9999987182618,8|0,0:0|0:0,0:0:0:0:
252,11,69379,1,8,0:0:0:0:
246,56,69453,1,8,0:0:0:0:
239,101,69527,1,4,0:0:0:0:
304,232,71903,5,6,0:0:0:0:
367,110,72052,1,0,0:0:0:0:
221,191,72200,1,8,0:0:0:0:
407,194,72349,1,0,0:0:0:0:
317,39,72497,2,0,B|206:9|237:84|115:52,1,195.999994018555,2|8,0:0|0:0,0:0:0:0:
127,54,72943,1,0,0:0:0:0:
26,203,73092,5,2,0:0:0:0:
152,151,73240,1,0,0:0:0:0:
11,103,73389,1,8,0:0:0:0:
128,261,73537,1,0,0:0:0:0:
270,114,73686,2,0,P|319:197|293:288,1,195.999994018555,2|8,0:0|0:0,0:0:0:0:
128,261,74131,1,8,0:0:0:0:
128,261,74205,1,8,0:0:0:0:
128,261,74280,5,2,0:0:0:0:
236,206,74428,1,0,0:0:0:0:
67,185,74577,1,8,0:0:0:0:
214,311,74725,1,0,0:0:0:0:
255,101,74874,2,0,L|233:6,1,97.9999970092774,2|0,0:0|0:0,0:0:0:0:
359,194,75171,2,0,L|336:289,1,97.9999970092774,10|8,0:0|0:0,0:0:0:0:
381,354,75393,1,8,0:0:0:0:
409,347,75468,5,2,0:0:0:0:
350,177,75616,1,0,0:0:0:0:
504,338,75765,1,8,0:0:0:0:
268,384,75913,1,8,0:0:0:0:
268,384,75988,1,8,0:0:0:0:
268,384,76062,2,0,L|259:315,1,48.9999985046387,8|0,0:0|0:0,0:0:0:0:
128,172,76210,1,8,0:0:0:0:
128,172,76285,1,8,0:0:0:0:
128,172,76359,2,0,L|168:199,1,48.9999985046387,8|0,0:0|0:0,0:0:0:0:
341,65,76507,1,8,0:0:0:0:
341,65,76582,1,8,0:0:0:0:
341,65,76656,5,6,0:0:0:0:
209,105,76804,1,0,0:0:0:0:
364,159,76953,1,8,0:0:0:0:
249,11,77101,1,0,0:0:0:0:
464,19,77250,2,0,B|423:124|499:107|465:213,1,195.999994018555,2|8,0:0|0:0,0:0:0:0:
466,208,77695,1,0,0:0:0:0:
258,250,77844,5,2,0:0:0:0:
364,159,77993,1,0,0:0:0:0:
191,169,78141,1,8,0:0:0:0:
372,289,78290,1,0,0:0:0:0:
174,384,78438,2,0,P|147:330|174:250,1,146.999995513916,2|0,0:0|0:0,0:0:0:0:
258,250,78735,1,8,0:0:0:0:
75,198,78884,1,0,0:0:0:0:
192,36,79032,6,0,P|218:102|190:168,1,146.999995513916,6|0,0:0|0:0,0:0:0:0:
118,129,79329,1,8,0:0:0:0:
258,250,79478,1,0,0:0:0:0:
204,39,79626,6,0,P|230:105|202:171,1,146.999995513916,6|0,0:0|0:0,0:0:0:0:
118,129,79923,2,0,L|126:73,1,48.9999985046387,8|0,0:0|0:0,0:0:0:0:
321,106,80072,2,0,L|313:162,1,48.9999985046387
169,252,80220,5,4,0:0:0:0:
378,206,80369,1,0,0:0:0:0:
88,211,80517,1,8,0:0:0:0:
313,382,80666,6,0,L|295:229,1,146.999995513916,4|0,0:0|0:0,0:0:0:0:
236,176,80963,2,0,L|181:169,1,48.9999985046387,2|0,3:2|0:0,0:0:0:0:
326,151,81111,2,0,L|374:144,1,48.9999985046387,2|0,3:2|0:0,0:0:0:0:
247,46,81260,2,0,L|257:93,1,48.9999985046387,10|8,0:2|0:0,0:0:0:0:
382,300,81408,6,0,B|439:308|439:308|522:265,1,146.999995513916,6|0,0:0|0:0,0:0:0:0:
470,190,81705,2,0,L|410:222,1,48.9999985046387,8|0,0:0|0:0,0:0:0:0:
302,365,81854,6,0,P|279:303|362:203,1,157.500006008148,6|0,0:0|0:0,0:0:0:0:
368,152,82151,1,8,0:0:0:0:
185,246,82299,1,0,0:0:0:0:
251,16,82448,1,8,0:0:0:0:
251,16,82522,1,8,0:0:0:0:
251,16,82596,6,0,P|287:83|268:155,1,146.999995513916,6|0,0:0|0:0,0:0:0:0:
183,155,82893,2,0,L|108:145,1,48.9999985046387,8|0,0:0|0:0,0:0:0:0:
0,286,83042,6,0,P|78:229|160:274,1,157.500006008148,6|0,0:0|0:0,0:0:0:0:
222,256,83339,2,0,L|210:303,1,48.9999985046387,8|8,0:0|0:0,0:0:0:0:
320,384,83488,1,8,0:0:0:0:
363,384,83562,1,8,0:0:0:0:
403,366,83636,1,8,0:0:0:0:
429,330,83710,1,8,0:0:0:0:
434,285,83785,5,6,0:0:0:0:
299,307,83933,1,8,0:0:0:0:
435,186,84082,5,8,0:0:0:0:
277,230,84230,1,8,0:0:0:0:
402,92,84379,5,8,0:0:0:0:
215,178,84527,1,8,0:0:0:0:
323,33,84676,5,8,0:0:0:0:
135,166,84824,1,8,0:0:0:0:
228,6,84973,6,0,L|246:74,1,48.9999985046387,2|2,0:0|0:0,0:0:0:0:
416,179,85121,2,0,L|398:247,1,48.9999985046387,2|2,0:0|0:0,0:0:0:0:
283,136,85270,2,0,L|367:116,1,48.9999985046387,8|8,0:0|0:0,0:0:0:0:
467,320,85418,6,0,L|298:311,1,146.999995513916,6|0,0:0|0:0,0:0:0:0:
235,263,85715,2,0,L|175:287,1,48.9999985046387
15,195,85864,1,8,0:0:0:0:
52,216,85938,1,8,0:0:0:0:
95,220,86012,1,8,0:0:0:0:
136,202,86087,1,8,0:0:0:0:
163,166,86161,6,0,L|147:58,1,97.9999970092774,6|0,0:0|0:0,0:0:0:0:
367,123,86458,2,0,L|352:219,1,97.9999970092774,8|0,0:0|0:0,0:0:0:0:
266,55,86755,2,0,P|343:0|434:25,1,195.999994018555,2|8,0:0|0:0,0:0:0:0:
434,25,87200,1,0,0:0:0:0:
499,159,87349,5,2,0:0:0:0:
367,123,87497,1,0,0:0:0:0:
337,260,87646,1,8,0:0:0:0:
474,164,87794,1,0,0:0:0:0:
263,92,87943,2,0,L|275:191,1,97.9999970092774,2|0,0:0|0:0,0:0:0:0:
427,297,88240,1,8,0:0:0:0:
206,368,88389,1,8,0:0:0:0:
206,368,88463,1,8,0:0:0:0:
206,368,88537,6,0,P|282:328|347:360,1,146.999995513916,6|0,0:0|0:0,0:0:0:0:
427,297,88834,2,0,L|422:366,1,48.9999985046387,8|0,0:0|0:0,0:0:0:0:
512,232,88983,6,0,P|443:250|369:195,1,157.500006008148,6|0,0:0|0:0,0:0:0:0:
354,99,89280,2,0,L|373:15,1,48.9999985046387
282,169,89428,2,0,L|221:164,1,48.9999985046387,10|0,0:0|0:0,0:0:0:0:
207,38,89577,1,2,0:0:0:0:
207,38,89651,1,8,0:0:0:0:
207,38,89725,6,0,L|268:33,1,48.9999985046387,10|2,0:0|0:0,0:0:0:0:
133,194,89874,2,0,L|114:110,1,48.9999985046387,2|2,0:0|0:0,0:0:0:0:
374,206,90022,2,0,L|363:253,1,48.9999985046387,10|0,0:0|0:0,0:0:0:0:
133,340,90171,6,0,P|191:291|266:305,1,157.500006008148,6|0,0:0|0:0,0:0:0:0:
349,339,90468,1,8,0:0:0:0:
157,215,90616,1,8,0:0:0:0:
365,116,90765,1,8,0:0:0:0:
369,161,90839,1,8,0:0:0:0:
374,206,90913,5,6,0:0:0:0:
