osu file format v14

[General]
AudioFilename: moe.mp3
AudioLeadIn: 0
PreviewTime: 71582
Countdown: 0
SampleSet: Soft
StackLeniency: 0.7
Mode: 0
LetterboxInBreaks: 1
WidescreenStoryboard: 1

[Editor]
Bookmarks: 2811,12316,17142,19444,21821,31326,36152,40831,50335,55088,59840,69420,71722,81227,85979,90732,100236,131128,147761,194107,213117,229750,236285,239378
DistanceSpacing: 1.4
BeatDivisor: 2
GridSize: 32
TimelineZoom: 1.7

[Metadata]
Title:Sayonara Ryou Kataomoi
TitleUnicode:さよなら両片想
Artist:sana
ArtistUnicode:鎖那
Creator:Milan-
Version:Easy
Source:
Tags:moe appleeaterx honeyworks Suki ni Naru Sono Shunkan wo 好きになるその瞬間を utaite
BeatmapID:1190633
BeatmapSetID:508803

[Difficulty]
HPDrainRate:2
CircleSize:2
OverallDifficulty:2
ApproachRate:3
SliderMultiplier:0.7
SliderTickRate:2

[Events]
//Background and Video events
0,0,"b.jpg",0,0
//Break Periods
//Storyboard Layer 0 (Background)
//Storyboard Layer 1 (Fail)
//Storyboard Layer 2 (Pass)
//Storyboard Layer 3 (Foreground)
//Storyboard Sound Samples

[TimingPoints]
2993,297.029702970297,4,2,1,55,1,0
11012,-100,4,2,1,55,0,0
11606,-100,4,2,1,55,0,0
12497,-100,4,2,1,45,0,0
17250,-100,4,2,1,55,0,0
19626,-100,4,2,1,50,0,0
20814,-100,4,2,1,55,0,0
22002,-100,4,2,1,55,0,0
31953,-100,4,2,1,55,0,0
32053,-100,4,2,1,55,0,0
33141,-100,4,2,1,55,0,0
33241,-100,4,2,1,55,0,0
39082,-100,4,2,1,55,0,0
39182,-100,4,2,1,55,0,0
40270,-100,4,2,1,55,0,0
40370,-100,4,2,1,55,0,0
41012,-100,4,2,1,45,0,0
45171,-100,4,2,1,45,0,0
48141,-100,4,2,1,45,0,0
49329,-100,4,2,1,45,0,0
50517,-100,4,2,1,55,0,0
50963,-100,4,2,1,55,0,0
51063,-100,4,2,1,55,0,0
52151,-100,4,2,1,55,0,0
52251,-100,4,2,1,55,0,0
53339,-100,4,2,1,55,0,0
53439,-100,4,2,1,55,0,0
55270,-100,4,2,1,40,0,0
57646,-100,4,2,1,45,0,0
60022,-100,4,2,1,45,0,0
66854,-100,4,2,1,50,0,0
67448,-100,4,2,1,45,0,0
69230,-100,4,2,1,55,0,0
71903,-100,4,2,1,55,0,1
81854,-100,4,2,1,55,0,1
81954,-100,4,2,1,55,0,1
83042,-100,4,2,1,55,0,1
83142,-100,4,2,1,55,0,1
88983,-100,4,2,1,55,0,1
89083,-100,4,2,1,55,0,1
90171,-100,4,2,1,55,0,1
90271,-100,4,2,1,55,0,1
90913,-100,4,2,1,55,0,0

[Colours]
Combo1 : 168,196,159
Combo2 : 187,198,208
Combo3 : 226,215,173
Combo4 : 208,187,198

[HitObjects]
409,220,10121,6,0,L|297:186,1,105,4|4,0:0|0:0,0:0:0:0:
234,62,11012,2,0,P|154:58|40:222,1,280,8|2,0:0|3:0,0:0:0:0:
81,289,12497,6,0,L|243:255,1,140,4|4,0:0|0:3,0:0:0:0:
306,216,13389,1,4,0:3:0:0:
389,164,13686,2,0,L|227:130,1,140,4|4,0:3|0:3,0:0:0:0:
56,122,14874,6,0,P|20:182|27:250,1,140,4|4,0:0|0:3,0:0:0:0:
75,334,15765,2,0,L|229:306,1,140,6|4,0:3|0:3,0:0:0:0:
287,245,16656,2,0,L|374:254,1,70,8|8,0:3|0:0,0:0:0:0:
442,299,17250,5,4,0:0:0:0:
439,70,19626,6,0,P|414:107|206:89,1,280,6|8,0:0|0:0,0:0:0:0:
112,71,21111,2,0,L|28:89,2,70,8|8|8,0:0|0:0|0:0,0:0:0:0:
134,166,22002,6,0,L|99:330,1,140,6|2,0:0|0:0,0:0:0:0:
291,242,23191,2,0,L|273:151,1,70,2|8,0:0|0:0,0:0:0:0:
368,136,23785,2,0,L|381:67,1,70,2|10,0:0|0:0,0:0:0:0:
296,18,24379,2,0,P|274:53|106:61,1,210,2|8,0:0|0:0,0:0:0:0:
37,19,25567,2,0,L|79:175,1,140,2|2,0:0|0:0,0:0:0:0:
265,113,26755,6,0,L|223:269,1,140,6|2,0:0|0:0,0:0:0:0:
80,376,27943,2,0,L|238:353,1,140,2|2,0:0|0:0,0:0:0:0:
305,310,28834,1,10,0:0:0:0:
387,256,29131,6,0,L|229:233,1,140,2|2,0:0|0:0,0:0:0:0:
57,279,30319,1,2,0:0:0:0:
57,279,31507,6,0,B|50:247|50:247|69:167,1,105,4|6,0:0|0:0,0:0:0:0:
275,57,32695,2,0,B|282:89|282:89|263:169,1,105,10|6,0:0|0:0,0:0:0:0:
133,362,33884,2,0,P|217:309|349:338,1,210,4|0,0:0|0:0,0:0:0:0:
415,353,35072,2,0,P|472:296|446:169,1,210,2|8,0:0|0:0,0:0:0:0:
426,82,36260,6,0,L|278:104,1,140,6|2,0:0|0:0,0:0:0:0:
206,47,37151,1,8,0:0:0:0:
144,123,37448,2,0,L|5:102,1,140,2|2,0:0|0:0,0:0:0:0:
10,199,38339,1,8,0:0:0:0:
105,221,38636,6,0,P|139:248|143:307,1,105,6|6,0:0|0:0,0:0:0:0:
376,381,39824,2,0,P|410:354|414:295,1,105,6|6,0:0|0:0,0:0:0:0:
308,74,41012,6,0,P|248:113|109:62,1,210,4|0,0:0|0:0,0:0:0:0:
31,39,42200,2,0,P|93:124|56:230,1,210,4|4,0:3|0:3,0:0:0:0:
10,298,43389,6,0,P|70:279|150:328,1,140,2|4,0:0|0:3,0:0:0:0:
319,238,44577,2,0,P|379:257|459:208,1,140,4|4,0:3|0:3,0:0:0:0:
423,28,45765,6,0,P|359:0|215:52,1,210,4|4,0:0|0:3,0:0:0:0:
132,21,46953,2,0,P|75:62|48:213,1,210,4|4,0:3|0:3,0:0:0:0:
140,185,48141,2,0,L|109:331,1,140,2|4,0:0|0:3,0:0:0:0:
306,336,49329,5,2,0:3:0:0:
423,178,49923,1,0,0:0:0:0:
306,336,50517,6,0,P|242:296|238:251,1,105,6|6,0:0|0:0,0:0:0:0:
207,28,51705,2,0,P|143:68|139:113,1,105,6|6,0:0|0:0,0:0:0:0:
15,305,52893,2,0,B|50:311|50:311|139:286,1,105,6|6,0:0|0:0,0:0:0:0:
284,112,54082,2,0,B|319:106|319:106|408:131,1,105,6|6,0:0|0:0,0:0:0:0:
508,337,55270,5,4,0:0:0:0:
508,337,57646,6,0,P|440:290|378:303,1,140,6|8,0:0|0:0,0:0:0:0:
203,229,58834,2,0,P|134:233|82:190,1,140,8|4,0:0|0:3,0:0:0:0:
124,101,59725,1,8,0:3:0:0:
216,67,60022,6,0,L|376:58,2,140,6|8|2,0:0|0:0|0:0,0:0:0:0:
57,181,61804,2,0,L|68:266,1,70,8|0,0:0|0:0,0:0:0:0:
139,315,62398,2,0,L|-21:306,2,140,2|8|2,0:0|0:0|0:0,0:0:0:0:
220,259,63884,1,2,0:0:0:0:
302,311,64181,6,0,P|394:309|430:258,2,140,8|2|8,0:0|0:0|0:0,0:0:0:0:
177,159,65963,2,0,L|206:18,1,140,2|8,0:0|0:0,0:0:0:0:
292,67,66854,1,6,0:0:0:0:
0,102,67745,6,0,L|9:175,1,70,8|2,0:0|0:0,0:0:0:0:
52,258,68339,2,0,P|104:257|172:109,1,210,8|8,0:0|0:0,0:0:0:0:
269,96,69527,1,4,0:0:0:0:
375,145,71903,6,0,L|340:309,1,140,6|2,0:0|0:0,0:0:0:0:
163,210,73092,2,0,L|185:292,2,70,2|8|2,0:0|0:0|0:0,0:0:0:0:
78,160,73983,1,8,0:0:0:0:
129,76,74280,6,0,L|282:71,1,140,2|2,0:0|0:0,0:0:0:0:
348,129,75171,1,10,0:0:0:0:
429,74,75468,2,0,L|398:238,1,140,2|8,0:0|0:0,0:0:0:0:
262,348,76656,6,0,P|210:369|121:344,1,140,6|2,0:0|0:0,0:0:0:0:
71,164,77844,2,0,L|-7:152,2,70,2|8|2,0:0|0:0|0:0,0:0:0:0:
165,136,78735,1,8,0:0:0:0:
251,181,79032,5,6,0:0:0:0:
374,29,79626,1,6,0:0:0:0:
441,213,80220,2,0,P|421:180|331:152,1,105,4|4,0:0|0:0,0:0:0:0:
147,31,81408,6,0,B|155:70|155:70|140:138,1,105,6|6,0:0|0:0,0:0:0:0:
166,375,82596,2,0,B|158:336|158:336|173:268,1,105,6|6,0:0|0:0,0:0:0:0:
271,55,83785,6,0,P|368:161|364:-2,1,385,6|6,0:0|0:0,0:0:0:0:
436,241,86161,6,0,P|369:266|299:258,1,140,6|2,0:0|0:0,0:0:0:0:
114,201,87349,2,0,L|35:242,2,70,2|8|2,0:0|0:0|0:0,0:0:0:0:
166,118,88240,1,8,0:0:0:0:
263,124,88537,6,0,L|390:104,1,105,6|6,0:0|0:0,0:0:0:0:
190,277,89725,2,0,L|293:293,1,105,10|6,0:0|0:0,0:0:0:0:
61,371,90913,5,6,0:0:0:0:
