osu file format v14

[General]
AudioFilename: moe.mp3
AudioLeadIn: 0
PreviewTime: 71582
Countdown: 0
SampleSet: Soft
StackLeniency: 0.7
Mode: 0
LetterboxInBreaks: 1
WidescreenStoryboard: 1

[Editor]
Bookmarks: 2811,12316,17142,19444,21821,31326,36152,40831,50335,55088,59840,69420,71722,81227,85979,90732,100236,131128,147761,194107,213117,229750,236285,239378
DistanceSpacing: 1
BeatDivisor: 2
GridSize: 32
TimelineZoom: 1.7

[Metadata]
Title:Sayonara Ryou Kataomoi
TitleUnicode:さよなら両片想
Artist:sana
ArtistUnicode:鎖那
Creator:Milan-
Version:Normal
Source:
Tags:moe appleeaterx honeyworks Suki ni Naru Sono Shunkan wo 好きになるその瞬間を utaite
BeatmapID:1190634
BeatmapSetID:508803

[Difficulty]
HPDrainRate:4
CircleSize:3
OverallDifficulty:4
ApproachRate:5
SliderMultiplier:1
SliderTickRate:2

[Events]
//Background and Video events
0,0,"b.jpg",0,0
//Break Periods
//Storyboard Layer 0 (Background)
//Storyboard Layer 1 (Fail)
//Storyboard Layer 2 (Pass)
//Storyboard Layer 3 (Foreground)
//Storyboard Sound Samples

[TimingPoints]
2993,297.029702970297,4,2,1,55,1,0
11012,-100,4,2,1,55,0,0
11606,-100,4,2,1,55,0,0
12497,-100,4,2,1,45,0,0
17250,-100,4,2,1,55,0,0
19626,-100,4,2,1,50,0,0
20814,-100,4,2,1,55,0,0
22002,-100,4,2,1,55,0,0
31953,-100,4,2,1,55,0,0
32053,-100,4,2,1,55,0,0
33141,-100,4,2,1,55,0,0
33241,-100,4,2,1,55,0,0
39082,-100,4,2,1,55,0,0
39182,-100,4,2,1,55,0,0
40270,-100,4,2,1,55,0,0
40370,-100,4,2,1,55,0,0
41012,-125,4,2,1,45,0,0
45171,-125,4,2,1,45,0,0
48141,-125,4,2,1,45,0,0
49329,-125,4,2,1,45,0,0
50517,-100,4,2,1,55,0,0
50963,-100,4,2,1,55,0,0
51063,-100,4,2,1,55,0,0
52151,-100,4,2,1,55,0,0
52251,-100,4,2,1,55,0,0
53339,-100,4,2,1,55,0,0
53439,-100,4,2,1,55,0,0
55270,-125,4,2,1,40,0,0
57646,-125,4,2,1,45,0,0
60022,-111.111111111111,4,2,1,45,0,0
66854,-111.111111111111,4,2,1,50,0,0
67448,-111.111111111111,4,2,1,45,0,0
69230,-111.111111111111,4,2,1,55,0,0
71903,-100,4,2,1,55,0,1
81854,-100,4,2,1,55,0,1
81954,-100,4,2,1,55,0,1
83042,-100,4,2,1,55,0,1
83142,-100,4,2,1,55,0,1
88983,-100,4,2,1,55,0,1
89083,-100,4,2,1,55,0,1
90171,-100,4,2,1,55,0,1
90271,-100,4,2,1,55,0,1
90913,-100,4,2,1,55,0,0

[Colours]
Combo1 : 168,196,159
Combo2 : 187,198,208
Combo3 : 226,215,173
Combo4 : 208,187,198

[HitObjects]
438,79,2993,6,0,L|432:145,1,50,4|4,0:0|0:0,0:0:0:0:
333,96,5369,6,0,L|327:162,1,50,4|4,0:0|0:0,0:0:0:0:
507,320,6260,2,0,L|511:270,1,50,4|4,0:0|0:0,0:0:0:0:
438,79,7745,6,0,L|432:145,1,50,4|4,0:0|0:0,0:0:0:0:
512,271,10121,5,4,0:0:0:0:
474,303,10270,2,0,P|425:311|379:293,1,100,4|4,0:0|0:0,0:0:0:0:
281,277,10864,2,0,L|287:365,1,50,0|8,3:0|0:0,0:0:0:0:
87,289,11606,2,0,B|93:249|116:225|116:225|82:173|82:173|115:152|127:111,1,200,0|2,3:0|3:0,0:0:0:0:
80,31,12497,5,4,0:0:0:0:
179,34,12794,1,4,0:3:0:0:
251,103,13092,1,4,0:3:0:0:
350,100,13389,1,4,0:3:0:0:
440,57,13686,6,0,L|428:192,1,100,4|4,0:3|0:3,0:0:0:0:
351,217,14280,2,0,L|357:293,1,50,4|8,0:3|0:0,0:0:0:0:
394,298,14577,2,0,L|377:363,1,50,4|8,0:3|0:0,0:0:0:0:
335,365,14874,6,0,P|286:371|235:342,1,100,4|4,0:0|0:3,0:0:0:0:
150,307,15468,1,4,0:3:0:0:
86,230,15765,2,0,L|87:122,1,100,6|4,0:3|0:3,0:0:0:0:
113,87,16210,2,0,P|157:65|206:71,1,100,2|0,0:0|0:0,0:0:0:0:
245,101,16656,2,0,L|304:79,2,50,8|4|8,0:3|0:3|0:0,0:0:0:0:
206,193,17250,5,4,0:0:0:0:
437,175,19626,6,0,B|397:204|341:178|341:178|312:189|326:220,2,150,6|0|8,0:0|0:0|0:0,0:0:0:0:
389,86,20814,2,0,L|379:36,2,50,8|8|8,0:0|0:0|0:0,0:0:0:0:
289,82,21408,2,0,L|279:32,2,50,8|8|8,0:0|0:0|0:0,0:0:0:0:
214,147,22002,6,0,P|167:164|118:155,1,100,6|8,0:0|0:0,0:0:0:0:
23,124,22596,2,0,L|38:242,1,100,2|8,0:0|0:0,0:0:0:0:
21,322,23191,1,2,0:0:0:0:
113,283,23488,1,8,0:0:0:0:
201,329,23785,2,0,L|197:381,2,50,2|0|10,0:0|0:0|0:0,0:0:0:0:
253,243,24379,6,0,P|313:212|375:213,1,100,2|8,0:0|0:0,0:0:0:0:
439,240,24973,2,0,L|455:98,1,100,2|8,0:0|0:0,0:0:0:0:
492,49,25567,1,2,0:0:0:0:
392,57,25864,1,8,0:0:0:0:
298,21,26161,1,2,0:0:0:0:
209,61,26458,2,0,L|135:46,1,50,8|8,0:0|0:0,0:0:0:0:
114,29,26755,6,0,P|85:72|95:137,1,100,6|8,0:0|0:0,0:0:0:0:
71,217,27349,2,0,L|206:200,1,100,2|8,0:0|0:0,0:0:0:0:
252,147,27943,2,0,L|280:84,2,50,2|0|8,0:0|0:0|0:0,0:0:0:0:
258,246,28537,1,2,0:0:0:0:
352,213,28834,1,10,0:0:0:0:
441,258,29131,6,0,P|462:327|446:369,1,100,2|8,0:0|0:0,0:0:0:0:
359,379,29725,2,0,L|253:368,1,100,2|8,0:0|0:0,0:0:0:0:
181,306,30319,2,0,P|134:302|57:328,1,100,2|8,0:0|0:0,0:0:0:0:
7,247,30913,2,0,P|24:228|45:214,1,50,8|8,0:0|0:0,0:0:0:0:
65,168,31210,2,0,P|89:166|114:171,1,50,8|8,0:0|0:0,0:0:0:0:
158,194,31507,6,0,P|210:187|267:139,1,100,4|8,0:0|0:0,0:0:0:0:
264,113,31953,1,6,0:0:0:0:
400,51,32398,2,0,L|399:128,1,50,0|8,0:0|0:0,0:0:0:0:
370,142,32695,2,0,P|422:149|479:197,1,100,10|8,0:0|0:0,0:0:0:0:
474,222,33141,1,6,0:0:0:0:
328,258,33587,2,0,L|338:329,1,50,0|0,3:0|0:0,0:0:0:0:
349,355,33884,6,0,P|285:362|223:347,1,100,4|0,0:0|0:0,0:0:0:0:
205,377,34329,2,0,L|187:239,1,100,8|8,0:0|0:0,0:0:0:0:
197,228,34775,1,0,0:0:0:0:
200,178,34923,2,0,P|137:226|36:215,1,150,8|8,0:0|0:0,0:0:0:0:
25,202,35517,2,0,P|10:142|65:48,1,150,4|8,0:0|0:0,0:0:0:0:
147,69,36260,6,0,L|261:85,1,100,6|8,0:0|0:0,0:0:0:0:
254,182,36854,2,0,L|368:166,1,100,2|8,0:0|0:0,0:0:0:0:
452,179,37448,2,0,P|479:228|471:281,1,100,2|8,0:0|0:0,0:0:0:0:
429,288,37893,1,8,0:0:0:0:
379,281,38042,2,0,P|352:330|360:383,1,100,2|8,0:0|0:0,0:0:0:0:
256,362,38636,6,0,L|142:346,1,100,6|8,0:0|0:0,0:0:0:0:
111,370,39082,1,6,0:0:0:0:
64,227,39527,2,0,L|55:162,1,50,8|0,0:0|0:0,0:0:0:0:
34,132,39824,2,0,L|148:116,1,100,6|8,0:0|0:0,0:0:0:0:
179,140,40270,2,0,P|208:99|213:40,2,100,6|10|8,0:0|0:0|0:0,0:0:0:0:
181,189,41012,6,0,P|245:166|328:210,1,160,4|4,0:0|0:3,0:0:0:0:
473,324,42200,2,0,P|404:361|330:339,1,160,4|4,0:3|0:3,0:0:0:0:
151,267,43389,5,2,0:0:0:0:
266,113,43983,1,4,0:3:0:0:
99,17,44577,2,0,P|52:91|72:179,1,160,4|4,0:3|0:3,0:0:0:0:
104,177,45319,2,0,L|159:161,2,40,8|4|8,0:0|0:0|0:0,0:0:0:0:
66,207,45765,6,0,P|113:281|93:369,1,160,4|4,0:0|0:3,0:0:0:0:
199,341,46656,1,4,0:3:0:0:
291,365,46953,2,0,P|349:372|446:288,1,160,4|4,0:3|0:3,0:0:0:0:
481,134,48141,5,2,0:0:0:0:
297,78,48735,1,4,0:3:0:0:
186,235,49329,6,0,L|140:218,1,40,2|2,0:3|0:3,0:0:0:0:
216,152,49775,2,0,L|179:139,2,40,2|0|2,0:3|0:0|0:3,0:0:0:0:
329,254,50517,6,0,L|449:234,1,100,6|8,0:0|0:0,0:0:0:0:
476,250,50963,2,0,P|503:177|465:98,1,150,6|0,0:0|0:0,0:0:0:0:
413,36,51705,2,0,L|292:55,1,100,6|8,0:0|0:0,0:0:0:0:
266,40,52151,2,0,P|239:113|277:192,1,150,6|8,0:0|0:0,0:0:0:0:
198,253,52893,6,0,L|77:233,1,100,6|8,0:0|0:0,0:0:0:0:
51,249,53339,2,0,P|24:176|62:97,1,150,6|8,0:0|0:0,0:0:0:0:
114,35,54081,2,0,L|234:54,1,100,6|8,0:0|0:0,0:0:0:0:
261,39,54527,2,0,P|288:112|262:167,1,100,6|8,0:0|0:0,0:0:0:0:
253,171,54973,2,0,L|274:221,1,50,8|8,0:0|0:0,0:0:0:0:
274,267,55270,5,4,0:0:0:0:
457,155,56309,2,0,L|447:213,1,40,2|2,0:0|0:0,0:0:0:0:
132,83,57497,5,0,0:0:0:0:
132,83,57646,2,0,L|158:271,1,160,6|8,0:0|0:0,0:0:0:0:
271,324,58686,1,0,3:0:0:0:
271,324,58835,2,0,L|297:136,1,160,8|0,0:0|0:0,0:0:0:0:
356,94,59725,1,8,0:3:0:0:
434,156,60022,6,0,P|455:92|394:3,1,179.999994506836,6|8,0:0|0:0,0:0:0:0:
346,7,60765,1,2,0:0:0:0:
261,128,61210,2,0,L|78:95,1,179.999994506836,2|8,0:0|0:0,0:0:0:0:
4,155,62101,1,0,0:0:0:0:
37,248,62398,6,0,L|214:279,1,179.999994506836,2|8,0:0|0:0,0:0:0:0:
240,322,63141,1,2,0:0:0:0:
374,258,63587,2,0,P|430:260|469:294,2,89.9999972534181,2|2|8,0:0|0:0|0:0,0:0:0:0:
187,191,64775,6,0,P|168:119|231:28,1,179.999994506836,2|8,0:0|0:0,0:0:0:0:
268,44,65517,1,2,0:0:0:0:
371,151,65963,2,0,P|390:223|327:314,1,179.999994506836,2|8,0:0|0:0,0:0:0:0:
242,336,66854,2,0,B|139:349|181:291|54:315,1,179.999994506836,6|0,0:0|0:0,0:0:0:0:
24,223,67745,1,8,0:0:0:0:
67,200,67893,2,0,P|89:133|61:69,1,134.999995880127,0|8,0:0|0:0,0:0:0:0:
215,83,68785,2,0,L|362:49,1,134.999995880127,8|8,0:0|0:0,0:0:0:0:
392,71,69379,2,0,L|386:126,1,44.999998626709,8|4,0:0|0:0,0:0:0:0:
119,273,71903,6,0,L|101:159,1,100,6|8,0:0|0:0,0:0:0:0:
67,80,72497,2,0,P|136:79|181:42,1,100,2|8,0:0|0:0,0:0:0:0:
253,24,73092,2,0,P|322:25|367:62,2,100,2|8|2,0:0|0:0|0:0,0:0:0:0:
241,123,73983,1,8,0:0:0:0:
183,204,74280,6,0,L|134:186,2,50,2|0|8,0:0|0:0|0:0,0:0:0:0:
281,222,74874,2,0,P|312:298|280:348,1,100,2|10,0:0|0:0,0:0:0:0:
270,343,75319,1,8,0:0:0:0:
225,366,75468,2,0,L|120:350,1,100,2|8,0:0|0:0,0:0:0:0:
78,364,75913,1,8,0:0:0:0:
35,336,76062,2,0,L|25:260,1,50,8|8,0:0|0:0,0:0:0:0:
59,247,76359,2,0,L|58:181,1,50,8|8,0:0|0:0,0:0:0:0:
41,149,76656,6,0,L|146:133,1,100,6|8,0:0|0:0,0:0:0:0:
231,173,77250,2,0,P|265:109|243:43,1,100,2|8,0:0|0:0,0:0:0:0:
356,47,77844,2,0,L|341:-13,2,50,2|0|8,0:0|0:0|0:0,0:0:0:0:
455,57,78438,2,0,P|489:121|467:187,1,100,2|8,0:0|0:0,0:0:0:0:
451,239,79032,6,0,L|342:220,1,100,6|8,0:0|0:0,0:0:0:0:
290,143,79626,2,0,L|181:162,1,100,6|8,0:0|0:0,0:0:0:0:
107,215,80220,2,0,L|67:164,2,50,4|0|8,0:0|0:0|0:0,0:0:0:0:
111,264,80666,1,4,0:0:0:0:
343,354,81408,6,0,P|366:282|345:228,1,100,6|8,0:0|0:0,0:0:0:0:
313,246,81854,2,0,P|290:174|311:120,1,100,6|8,0:0|0:0,0:0:0:0:
330,117,82299,1,0,0:0:0:0:
249,57,82596,2,0,L|124:69,1,100,6|8,0:0|0:0,0:0:0:0:
100,57,83042,2,0,P|48:96|48:193,1,150,6|8,0:0|0:0,0:0:0:0:
256,192,83785,12,6,85418,0:0:0:0:
346,294,86161,6,0,L|447:269,2,100,6|8|2,0:0|0:0|0:0,0:0:0:0:
263,350,87052,1,8,0:0:0:0:
177,298,87349,2,0,L|103:315,2,50,2|0|8,0:0|0:0|0:0,0:0:0:0:
226,211,87943,2,0,P|232:160|207:91,1,100,2|8,0:0|0:0,0:0:0:0:
186,75,88389,1,8,0:0:0:0:
202,27,88537,6,0,B|310:13,1,100,6|8,0:0|0:0,0:0:0:0:
343,41,88983,1,6,0:0:0:0:
460,133,89428,2,0,L|455:186,1,50,10|2,0:0|0:0,0:0:0:0:
423,221,89725,2,0,B|315:207,1,100,10|10,0:0|0:0,0:0:0:0:
282,235,90171,1,6,0:0:0:0:
141,183,90616,2,0,L|146:236,1,50,8|8,0:0|0:0,0:0:0:0:
126,278,90913,5,6,0:0:0:0:
