osu file format v14

[General]
AudioFilename: Sana - Packet Hero.mp3
AudioLeadIn: 0
PreviewTime: 64400
Countdown: 0
SampleSet: Soft
StackLeniency: 0.3
Mode: 0
LetterboxInBreaks: 0
EpilepsyWarning: 1
WidescreenStoryboard: 1

[Editor]
Bookmarks: 5353,13489,21751,25819,33955,38023,46158,52133,60395,64463,72599,76667,94972,111116,126497,135523,143785,147853,158023,166158,174294,182429,198701,214972,223107,239251,255650,271921
DistanceSpacing: 2
BeatDivisor: 3
GridSize: 8
TimelineZoom: 3.299999

[Metadata]
Title:Packet Hero
TitleUnicode:パケットヒーロー
Artist:sana
ArtistUnicode:鎖那
Creator:Fuccho
Version:Broccoly's Extra
Source:
Tags:Broccoly -Tochi [_Joey_] Joey VINXIS Rokkea Mikii toybot EvilElvis Pho Len Fast deetz さな maretu 極悪P Gokuaku-P paketto hiirou utaite vocaloid hatsune miku 初音ミク (un)sentimental unsentimental spica
BeatmapID:944864
BeatmapSetID:404910

[Difficulty]
HPDrainRate:6
CircleSize:4.2
OverallDifficulty:9.1
ApproachRate:9.7
SliderMultiplier:1.87
SliderTickRate:1

[Events]
//Background and Video events
0,0,"PacketBG.jpg",0,0
//Break Periods
2,170426,173799
//Storyboard Layer 0 (Background)
Sprite,Background,Centre,"PacketBG.jpg",320,240
//Storyboard Layer 1 (Fail)
//Storyboard Layer 2 (Pass)
//Storyboard Layer 3 (Foreground)
//Storyboard Sound Samples

[TimingPoints]
396,254.237288135593,4,2,3,10,1,0
3446,-200,4,2,3,10,0,0
3701,-166.666666666667,4,2,3,15,0,0
3955,-142.857142857143,4,2,3,20,0,0
4209,-125,4,2,3,25,0,0
4463,-111.111111111111,4,2,3,30,0,0
4590,-111.111111111111,4,2,3,35,0,0
4718,-100,4,2,3,40,0,0
4845,-100,4,2,3,45,0,0
4972,-100,4,2,3,50,0,0
5099,-100,4,2,1,50,0,0
5353,-100,4,2,1,70,0,0
20989,-100,4,2,1,60,0,0
21243,-100,4,2,1,50,0,0
21751,-111.111111111111,4,2,1,60,0,0
25819,-100,4,2,1,70,0,0
29887,-111.111111111111,4,2,1,60,0,0
33955,-100,4,2,1,70,0,0
38023,-133.333333333333,4,2,1,70,0,0
38277,-133.333333333333,4,2,2,60,0,0
43870,-133.333333333333,4,2,1,60,0,0
46412,-133.333333333333,4,2,2,60,0,0
49209,-133.333333333333,4,2,1,60,0,0
49749,-133.333333333333,4,2,1,5,0,0
49972,-200,4,2,1,40,0,0
50353,-200,4,2,1,5,0,0
50480,-200,4,2,1,40,0,0
51751,-100,4,2,1,40,0,0
51879,-100,4,2,1,70,0,0
58489,-100,4,2,1,45,0,0
58743,-100,4,2,1,70,0,0
59506,-100,4,2,1,60,0,0
59633,-100,4,2,1,30,0,0
59760,-100,4,2,1,60,0,0
59887,-100,4,2,1,30,0,0
60395,-111.111111111111,4,2,1,50,0,0
64463,-100,4,2,1,70,0,0
68531,-111.111111111111,4,2,1,70,0,0
72599,-100,4,2,1,70,0,0
76667,-133.333333333333,4,2,1,70,0,0
76921,-133.333333333333,4,2,2,50,0,0
82514,-133.333333333333,4,2,1,50,0,0
85057,-133.333333333333,4,2,2,50,0,0
86836,-133.333333333333,4,2,1,50,0,0
87090,-133.333333333333,4,2,2,50,0,0
87853,-133.333333333333,4,2,1,60,0,0
88616,-200,4,2,1,40,0,0
90904,-133.333333333333,4,2,1,40,0,0
91158,-111.111111111111,4,2,1,40,0,0
91349,-111.111111111111,4,2,1,40,0,0
91412,-83.3333333333333,4,2,2,45,0,0
91603,-83.3333333333333,4,2,2,45,0,0
91667,-111.111111111111,4,2,1,50,0,0
91857,-111.111111111111,4,2,1,50,0,0
91921,-83.3333333333333,4,2,1,50,0,0
92112,-83.3333333333333,4,2,1,50,0,0
92175,-100,4,2,1,50,0,0
92366,-100,4,2,1,50,0,0
92429,-76.9230769230769,4,2,2,55,0,0
92620,-76.9230769230769,4,2,2,55,0,0
92684,-66.6666666666667,4,2,1,55,0,0
92938,-90.9090909090909,4,2,3,40,0,0
93065,-90.9090909090909,4,2,3,45,0,0
93192,-76.9230769230769,4,2,3,50,0,0
93319,-76.9230769230769,4,2,3,55,0,0
93446,-76.9230769230769,4,2,3,60,0,0
93573,-76.9230769230769,4,2,3,65,0,0
93701,-76.9230769230769,4,2,3,70,0,0
94209,-76.9230769230769,4,2,1,40,0,0
94972,-83.3333333333333,4,2,1,70,0,1
97006,-100,4,2,1,70,0,1
98023,-83.3333333333333,4,2,1,70,0,1
101073,-133.333333333333,4,2,1,70,0,1
101328,-100,4,2,1,70,0,1
101582,-80,4,2,1,70,0,1
101836,-66.6666666666667,4,2,1,70,0,1
102090,-100,4,2,1,70,0,1
103107,-83.3333333333333,4,2,1,70,0,1
105141,-100,4,2,1,70,0,1
106158,-83.3333333333333,4,2,1,70,0,1
108446,-111.111111111111,4,2,1,70,0,1
108701,-100,4,2,1,70,0,1
108955,-83.3333333333333,4,2,1,70,0,1
110989,-100,4,2,1,70,0,0
111116,-90.9090909090909,4,2,1,80,0,1
119379,-66.6666666666667,4,2,1,40,0,1
119506,-66.6666666666667,4,2,1,5,0,1
119633,-90.9090909090909,4,2,1,70,0,1
121285,-100,4,2,1,70,0,1
123701,-133.333333333333,4,2,1,60,0,1
123955,-90.9090909090909,4,2,1,60,0,1
124209,-66.6666666666667,4,2,1,60,0,1
124463,-83.3333333333333,4,2,1,60,0,1
125480,-83.3333333333333,4,2,1,70,0,1
126497,-83.3333333333333,4,2,1,60,0,1
126751,-83.3333333333333,4,2,3,40,0,1
127387,-100,4,2,1,70,0,0
135523,-125,4,2,1,70,0,0
136158,-100,4,2,1,70,0,0
136667,-111.111111111111,4,2,1,70,0,0
137938,-90.9090909090909,4,2,1,70,0,0
138192,-111.111111111111,4,2,1,70,0,0
138446,-100,4,2,1,70,0,0
142895,-83.3333333333333,4,2,1,60,0,0
143023,-83.3333333333333,4,2,1,30,0,0
143150,-74.0740740740741,4,2,1,60,0,0
143277,-74.0740740740741,4,2,1,30,0,0
143404,-100,4,2,1,30,0,0
143785,-142.857142857143,4,2,1,50,0,0
147853,-100,4,2,1,70,0,0
152429,-111.111111111111,4,2,1,70,0,0
155989,-100,4,2,1,70,0,0
158023,-133.333333333333,4,2,1,60,0,0
174294,-200,4,2,10,50,0,0
175311,-200,4,2,14,50,0,0
176582,-200,4,2,19,50,0,0
176836,-200,4,2,11,50,0,0
177090,-200,4,2,15,50,0,0
177345,-200,4,2,16,50,0,0
177599,-200,4,2,15,50,0,0
177853,-200,4,2,17,50,0,0
178107,-200,4,2,18,50,0,0
178362,-200,4,2,1,38,0,0
178616,-200,4,2,3,20,0,0
179887,-200,4,2,3,30,0,0
180904,-125,4,2,3,40,0,0
181158,-100,4,2,3,40,0,0
181412,-100,4,2,1,50,0,0
182429,-166.666666666667,4,2,1,30,0,0
182938,-166.666666666667,4,2,3,30,0,0
183701,-166.666666666667,4,2,1,30,0,0
183955,-166.666666666667,4,2,3,30,0,0
185862,-166.666666666667,4,2,1,30,0,0
185989,-166.666666666667,4,2,3,30,0,0
186879,-166.666666666667,4,2,1,30,0,0
187006,-166.666666666667,4,2,3,30,0,0
187768,-166.666666666667,4,2,1,30,0,0
188023,-166.666666666667,4,2,3,30,0,0
188404,-166.666666666667,4,2,1,30,0,0
188531,-166.666666666667,4,2,3,30,0,0
189040,-166.666666666667,4,2,1,30,0,0
189802,-166.666666666667,4,2,3,30,0,0
190438,-166.666666666667,4,2,1,30,0,0
191073,-166.666666666667,4,2,3,30,0,0
191836,-166.666666666667,4,2,1,30,0,0
192090,-166.666666666667,4,2,3,30,0,0
193997,-166.666666666667,4,2,1,30,0,0
194124,-166.666666666667,4,2,3,30,0,0
195014,-166.666666666667,4,2,1,30,0,0
195141,-166.666666666667,4,2,3,30,0,0
196285,-166.666666666667,4,2,3,22,0,0
196349,-166.666666666667,4,2,3,14,0,0
196412,-166.666666666667,4,2,3,30,0,0
198701,-166.666666666667,4,2,1,50,0,0
203150,-166.666666666667,4,2,1,10,0,0
203277,-166.666666666667,4,2,1,50,0,0
205057,-100,4,2,1,60,0,0
206836,-100,4,2,1,10,0,0
207345,-142.857142857143,4,2,1,50,0,0
213955,-142.857142857143,4,2,1,60,0,0
215480,-142.857142857143,4,2,2,60,0,0
215989,-142.857142857143,4,2,1,60,0,0
216497,-142.857142857143,4,2,2,60,0,0
216751,-142.857142857143,4,2,1,60,0,0
217133,-142.857142857143,4,2,3,35,0,0
217514,-142.857142857143,4,2,2,60,0,0
217641,-142.857142857143,4,2,3,40,0,0
218023,-142.857142857143,4,2,1,60,0,0
218150,-142.857142857143,4,2,3,45,0,0
218531,-142.857142857143,4,2,1,60,0,0
218658,-142.857142857143,4,2,3,50,0,0
219040,-125,4,2,1,50,0,0
219294,-100,4,2,2,55,0,0
219548,-111.111111111111,4,2,2,55,0,0
219802,-83.3333333333333,4,2,2,55,0,0
220057,-90.9090909090909,4,2,2,60,0,0
220311,-111.111111111111,4,2,2,60,0,0
220565,-76.9230769230769,4,2,2,65,0,0
220819,-83.3333333333333,4,2,2,65,0,0
221073,-90.9090909090909,4,2,3,40,0,0
221328,-76.9230769230769,4,2,3,45,0,0
221582,-76.9230769230769,4,2,3,50,0,0
221709,-76.9230769230769,4,2,3,55,0,0
221836,-76.9230769230769,4,2,3,60,0,0
221963,-76.9230769230769,4,2,3,65,0,0
222345,-76.9230769230769,4,2,1,40,0,0
223107,-83.3333333333333,4,2,1,70,0,1
225141,-100,4,2,1,70,0,1
226158,-83.3333333333333,4,2,1,70,0,1
229209,-133.333333333333,4,2,1,70,0,1
229463,-100,4,2,1,70,0,1
229718,-80,4,2,1,70,0,1
229972,-66.6666666666667,4,2,1,70,0,1
230226,-100,4,2,1,70,0,1
231243,-83.3333333333333,4,2,1,70,0,1
233277,-100,4,2,1,70,0,1
235565,-100,4,2,1,60,0,1
236582,-111.111111111111,4,2,1,60,0,1
236836,-100,4,2,1,60,0,1
237090,-83.3333333333333,4,2,1,60,0,1
239124,-100,4,2,1,60,0,0
239251,-90.9090909090909,4,2,1,80,0,1
247514,-66.6666666666667,4,2,1,40,0,1
247641,-66.6666666666667,4,2,1,5,0,1
247768,-90.9090909090909,4,2,1,70,0,1
249548,-100,4,2,1,70,0,1
254633,-133.333333333333,4,2,1,70,0,1
255650,-142.857142857143,4,2,1,60,0,0
270395,-100,4,2,1,60,0,0
270650,-74.0740740740741,4,2,1,60,0,0
270904,-66.6666666666667,4,2,1,60,0,0
271158,-50,4,2,1,60,0,0
271412,-100,4,2,1,60,0,0

[Colours]
Combo1 : 235,224,224
Combo2 : 226,201,124
SliderBorder : 240,240,255
SliderTrackOverride : 40,50,70

[HitObjects]
19,206,3446,6,0,L|19:173,3,23.375,0|0|0|0,0:0|0:0|0:0|0:0,0:0:0:0:
91,195,3701,6,0,L|131:195,3,28.049999143982,0|0|0|0,0:0|0:0|0:0|0:0,0:0:0:0:
188,209,3955,6,0,L|188:164,3,32.7249990013123,0|0|0|0,0:0|0:0|0:0|0:0,0:0:0:0:
259,193,4209,6,0,L|304:192,3,37.4,0|0|0|0,0:0|0:0|0:0|0:0,0:0:0:0:
367,213,4463,6,0,L|367:170,3,42.0749987159729,0|0|0|0,0:0|0:0|0:0|0:0,0:0:0:0:
447,193,4718,6,0,L|495:193,3,46.75,0|0|0|0,0:0|0:0|0:0|0:0,0:0:0:0:
256,113,4972,5,8,0:0:0:0:
256,329,5099,1,2,1:3:0:0:
126,82,5353,6,0,P|68:86|59:204,1,187,4|0,1:0|1:0,0:0:0:0:
139,354,5734,2,0,B|134:302|134:302|152:249,1,93.5,10|0,0:0|0:0,0:0:0:0:
379,165,5989,1,8,0:0:0:0:
248,54,6116,2,0,L|266:161,1,93.5,2|0,1:2|0:0,0:0:0:0:
239,311,6370,1,0,1:0:0:0:
446,247,6497,5,10,0:0:0:0:
263,146,6624,1,0,1:0:0:0:
351,344,6751,1,10,0:0:0:0:
472,136,6879,1,0,1:0:0:0:
355,247,7006,5,2,1:3:0:0:
308,234,7133,1,0,1:0:0:0:
261,221,7260,2,0,L|270:270,1,46.75,8|0,0:0|0:0,0:0:0:0:
177,348,7387,6,0,B|81:363|81:363|107:267,1,187,4|0,1:0|1:0,0:0:0:0:
215,31,7768,2,0,P|239:64|228:130,1,93.5,10|0,0:0|0:0,0:0:0:0:
16,262,8023,1,8,0:0:0:0:
180,204,8150,1,2,1:2:0:0:
64,79,8277,1,0,0:0:0:0:
296,287,8404,5,0,1:0:0:0:
296,287,8468,1,0,1:0:0:0:
296,287,8531,2,0,L|395:274,1,93.5,10|0,0:0|1:0,0:0:0:0:
87,191,8785,2,0,L|203:207,1,93.5,10|0,0:0|1:0,0:0:0:0:
400,97,9040,1,2,1:3:0:0:
296,287,9167,1,0,1:0:0:0:
227,94,9294,2,0,L|163:82,1,46.75,8|0,0:0|0:0,0:0:0:0:
270,192,9421,6,0,B|251:71|251:71|283:-4,1,187,4|0,1:0|1:0,0:0:0:0:
270,192,9802,2,0,P|228:196|185:147,1,93.5,10|0,0:0|0:0,0:0:0:0:
424,51,10057,1,8,0:0:0:0:
494,181,10184,2,0,L|487:274,1,93.5,2|0,1:2|0:0,0:0:0:0:
271,336,10438,1,0,1:0:0:0:
271,336,10501,1,0,1:0:0:0:
271,336,10565,1,10,0:0:0:0:
357,157,10692,1,0,1:0:0:0:
481,318,10819,6,0,B|436:331|436:331|390:308,1,93.5,10|0,0:0|1:0,0:0:0:0:
151,156,11073,1,2,1:3:0:0:
81,291,11201,1,0,1:0:0:0:
256,263,11328,2,0,L|201:254,1,46.75,0|0,1:0|0:0,0:0:0:0:
81,291,11455,6,0,B|164:248|164:248|280:268,1,187,4|0,1:0|1:0,0:0:0:0:
362,279,11836,1,10,0:0:0:0:
256,46,11963,5,0,1:0:0:0:
256,46,12027,1,0,1:0:0:0:
256,46,12090,1,10,0:0:0:0:
256,263,12218,1,8,0:0:0:0:
104,106,12345,5,8,0:0:0:0:
408,106,12472,1,8,0:0:0:0:
104,106,12599,1,2,1:2:0:0:
248,42,13362,5,0,0:0:0:0:
104,106,13489,2,0,L|120:305,1,187,4|0,1:0|0:0,0:0:0:0:
240,354,13870,2,0,P|277:358|323:322,1,93.5,8|0,0:0|0:0,0:0:0:0:
361,85,14124,1,0,0:0:0:0:
456,227,14251,1,0,1:0:0:0:
456,227,14379,2,0,P|384:216|309:213,1,140.25,8|0,0:0|0:0,0:0:0:0:
256,143,14633,6,0,P|204:141|216:230,1,140.25,2|0,1:2|0:0,0:0:0:0:
357,178,14887,2,0,P|357:130|360:85,1,93.5,8|0,0:0|0:0,0:0:0:0:
465,306,15141,2,0,P|468:235|470:164,1,140.25,0|0,1:0|0:0,0:0:0:0:
470,166,15395,1,8,0:0:0:0:
367,301,15523,6,0,B|322:308|322:308|275:284,1,93.5,4|0,1:0|0:0,0:0:0:0:
65,160,15777,1,0,1:0:0:0:
161,80,15904,2,0,L|174:211,1,93.5,8|0,0:0|0:0,0:0:0:0:
116,324,16158,1,0,0:0:0:0:
339,205,16285,1,0,1:0:0:0:
339,205,16412,2,0,L|330:310,1,93.5,8|0,0:0|0:0,0:0:0:0:
170,173,16667,6,0,P|119:168|127:244,1,140.25,2|0,1:2|0:0,0:0:0:0:
116,324,16921,2,0,P|158:330|210:313,1,93.5,8|0,0:0|0:0,0:0:0:0:
307,128,17175,1,0,1:0:0:0:
425,314,17302,1,8,0:0:0:0:
512,51,17557,6,0,B|402:26|402:26|320:46,1,187,4|0,1:0|1:0,0:0:0:0:
134,13,17938,2,0,P|124:38|157:114,1,93.5,8|0,0:0|0:0,0:0:0:0:
114,245,18192,1,0,0:0:0:0:
266,146,18319,1,0,1:0:0:0:
320,327,18446,2,0,L|216:315,1,93.5,8|0,0:0|0:0,0:0:0:0:
44,179,18701,2,0,B|92:168|92:168|119:140|119:140|190:126,1,140.25,2|0,1:2|0:0,0:0:0:0:
266,146,18955,2,0,P|276:171|243:247,1,93.5,8|0,0:0|0:0,0:0:0:0:
46,93,19209,1,0,1:0:0:0:
102,337,19336,2,0,L|116:227,1,93.5,0|8,0:0|0:0,0:0:0:0:
416,62,19590,6,0,B|403:137|403:137|415:177|415:177|401:260,1,187,4|0,1:0|1:0,0:0:0:0:
171,134,19972,5,8,0:0:0:0:
327,182,20099,1,0,1:0:0:0:
256,261,20226,5,8,0:0:0:0:
416,62,20353,1,0,1:0:0:0:
448,311,20480,5,8,0:0:0:0:
270,115,20607,1,0,1:0:0:0:
184,336,20734,5,10,0:0:0:0:
184,336,20862,1,8,0:3:0:0:
67,267,20989,5,8,0:3:0:0:
198,240,21116,1,8,0:3:0:0:
66,161,21243,5,8,0:3:0:0:
153,167,21370,1,8,0:3:0:0:
34,87,21497,5,4,0:3:0:0:
192,62,21624,1,4,0:3:0:0:
37,2,21751,6,0,L|33:102,1,84.1499974319459,2|0,1:2|0:0,0:0:0:0:
255,153,22006,1,8,0:0:0:0:
91,308,22133,1,0,1:0:0:0:
91,308,22260,2,0,L|95:224,1,84.1499974319459,0|0,1:0|0:0,0:0:0:0:
185,86,22514,1,8,0:0:0:0:
237,260,22641,6,0,B|336:276|301:213|409:228,1,168.299994863892,0|0,1:0|1:0,0:0:0:0:
484,284,23023,1,8,0:0:0:0:
263,162,23150,1,0,0:0:0:0:
263,162,23277,2,0,P|264:111|342:99,1,126.224996147919,0|0,1:0|0:0,0:0:0:0:
409,120,23531,1,8,0:0:0:0:
237,260,23658,6,0,B|145:276|145:276|173:205,1,168.299994863892,2|0,1:3|1:0,0:0:0:0:
74,43,24040,2,0,L|185:56,1,84.1499974319459,8|0,0:0|0:0,0:0:0:0:
388,107,24294,2,0,L|251:122,1,126.224996147919,0|0,1:0|0:0,0:0:0:0:
262,120,24548,1,8,0:0:0:0:
465,162,24675,6,0,P|459:88|388:106,1,168.299994863892,0|0,1:0|1:0,0:0:0:0:
354,298,25057,2,0,L|359:191,1,84.1499974319459,8|0,0:0|0:0,0:0:0:0:
279,33,25311,1,0,1:0:0:0:
227,201,25438,1,0,1:0:0:0:
51,166,25565,2,0,P|92:147|158:167,1,84.1499974319459,8|4,0:0|0:3,0:0:0:0:
317,137,25819,5,4,1:0:0:0:
108,258,25946,1,2,0:3:0:0:
349,318,26073,1,8,0:0:0:0:
209,78,26201,2,0,L|227:223,1,140.25,2|0,1:2|0:0,0:0:0:0:
232,267,26455,1,0,1:0:0:0:
394,213,26582,2,0,P|434:212|466:169,1,93.5,8|0,0:0|0:0,0:0:0:0:
322,35,26836,5,4,1:0:0:0:
193,170,26963,1,2,0:3:0:0:
394,213,27090,1,8,0:0:0:0:
145,327,27218,2,0,B|238:309|238:309|293:338,1,140.25,2|0,1:2|0:0,0:0:0:0:
278,330,27472,1,0,1:0:0:0:
317,214,27599,2,0,L|305:121,1,93.5,8|0,0:0|0:0,0:0:0:0:
395,326,27853,5,0,1:0:0:0:
395,326,27980,1,0,1:0:0:0:
131,326,28107,2,0,P|136:274|174:268,1,93.5,10|0,0:0|0:0,0:0:0:0:
332,120,28362,1,0,1:0:0:0:
254,312,28489,1,0,1:0:0:0:
76,143,28616,2,0,L|173:152,1,93.5,8|0,0:0|1:0,0:0:0:0:
410,227,28870,5,0,1:0:0:0:
283,101,28997,1,0,1:0:0:0:
430,35,29124,1,8,0:0:0:0:
283,101,29251,2,0,L|296:251,1,140.25,0|0,1:0|0:0,0:0:0:0:
297,284,29506,1,0,1:0:0:0:
483,341,29633,2,0,L|490:248,1,93.5,8|0,0:0|0:0,0:0:0:0:
288,157,29887,6,0,P|245:143|194:238,1,168.299994863892,2|8,1:2|0:0,0:0:0:0:
65,122,30268,1,0,1:0:0:0:
68,300,30395,2,0,B|118:309|118:309|141:330|141:330|192:342,1,126.224996147919,0|0,1:0|0:0,0:0:0:0:
266,293,30650,1,8,0:0:0:0:
379,347,30777,6,0,L|371:245,1,84.1499974319459,0|0,1:0|0:0,0:0:0:0:
201,50,31031,2,0,L|197:158,1,84.1499974319459,0|8,1:0|0:0,0:0:0:0:
189,252,31285,1,0,0:0:0:0:
367,122,31412,2,0,B|476:100|476:100|452:160,1,168.299994863892,0|8,1:0|0:0,0:0:0:0:
201,50,31794,6,0,P|147:48|146:116,1,126.224996147919,2|0,1:3|0:0,0:0:0:0:
192,200,32048,1,0,1:0:0:0:
367,122,32175,2,0,L|362:212,1,84.1499974319459,8|0,0:0|0:0,0:0:0:0:
403,327,32429,1,0,1:0:0:0:
201,327,32557,2,0,P|251:306|286:314,1,84.1499974319459,0|8,0:0|0:0,0:0:0:0:
480,187,32811,6,0,B|396:192|396:192|308:163,1,168.299994863892,0|0,1:0|1:0,0:0:0:0:
156,52,33192,2,0,L|166:158,1,84.1499974319459,8|0,0:0|0:0,0:0:0:0:
81,302,33446,1,0,1:0:0:0:
81,302,33573,1,0,1:0:0:0:
223,216,33701,1,10,0:0:0:0:
73,83,33828,2,0,L|31:76,1,42.0749987159729,4|0,0:3|0:0,0:0:0:0:
156,52,33955,6,0,P|208:57|239:101,1,93.5,4|2,1:0|0:3,0:0:0:0:
271,289,34209,1,8,0:0:0:0:
66,175,34336,1,2,1:2:0:0:
185,338,34463,5,2,0:3:0:0:
303,152,34590,1,0,1:0:0:0:
431,282,34718,5,8,0:0:0:0:
375,85,34845,1,0,0:0:0:0:
182,240,34972,6,0,B|167:190|167:190|174:150,1,93.5,4|2,1:0|1:3,0:0:0:0:
299,30,35226,1,8,0:0:0:0:
458,217,35353,1,2,1:2:0:0:
270,184,35480,5,2,0:3:0:0:
440,94,35607,1,0,1:0:0:0:
357,332,35734,5,8,0:0:0:0:
374,187,35862,1,0,1:0:0:0:
450,322,35989,6,0,L|344:333,1,93.5,8|0,0:0|0:0,0:0:0:0:
78,198,36243,2,0,L|171:188,1,93.5,8|0,0:0|1:0,0:0:0:0:
482,287,36497,6,0,L|376:298,1,93.5,8|0,0:0|1:0,0:0:0:0:
35,166,36751,2,0,L|128:156,1,93.5,8|0,0:0|1:0,0:0:0:0:
194,77,36943,1,0,1:0:0:0:
194,77,37006,5,10,0:0:0:0:
300,275,37133,1,0,1:0:0:0:
305,42,37260,5,10,0:0:0:0:
231,335,37387,1,0,1:0:0:0:
390,101,37514,5,10,0:0:0:0:
402,310,37641,1,8,0:0:0:0:
506,66,37768,5,8,0:0:0:0:
487,243,37895,1,8,0:0:0:0:
372,153,38023,6,0,B|290:130|311:190|212:144,1,140.250005350113,2|8,1:2|0:0,0:0:0:0:
73,325,38531,1,0,1:0:0:0:
161,46,38785,1,8,0:0:0:0:
318,283,39040,6,0,P|281:282|249:267,1,70.1250026750566,0|0,1:0|0:0,0:0:0:0:
54,189,39294,2,0,P|88:188|127:171,1,70.1250026750566,8|0,0:0|0:0,0:0:0:0:
273,61,39548,1,0,1:0:0:0:
461,300,39802,6,0,P|466:229|469:160,1,140.250005350113,8|0,0:0|1:0,0:0:0:0:
165,45,40311,1,8,0:0:0:0:
260,326,40565,2,0,P|261:293|264:256,1,70.1250026750566,0|0,1:0|0:0,0:0:0:0:
87,140,40819,2,0,P|85:175|82:209,1,70.1250026750566,8|0,0:0|0:0,0:0:0:0:
59,336,41073,6,0,P|96:339|137:308,1,70.1250026750566,0|0,1:0|0:0,0:0:0:0:
235,212,41328,2,0,P|272:210|310:232,1,70.1250026750566,8|0,0:0|0:0,0:0:0:0:
426,318,41582,1,0,1:0:0:0:
307,65,41836,1,8,0:0:0:0:
245,328,42090,5,0,1:0:0:0:
499,196,42345,2,0,L|428:191,1,70.1250026750566,8|0,0:0|0:0,0:0:0:0:
207,93,42599,2,0,L|347:80,1,140.250005350113,0|8,1:0|0:0,0:0:0:0:
68,52,43107,5,0,1:0:0:0:
234,309,43362,1,8,0:0:0:0:
346,80,43616,1,0,1:0:0:0:
28,183,43870,6,0,L|275:196,1,245.437509362698,4|0,1:0|0:0,0:0:0:0:
273,195,44379,1,0,1:0:0:0:
485,285,44633,2,0,P|434:281|396:355,1,140.250005350113,10|0,0:0|0:0,0:0:0:0:
139,76,45141,6,0,L|157:215,1,140.250005350113,4|0,1:2|0:0,0:0:0:0:
62,360,45650,1,10,0:0:0:0:
290,311,45904,2,0,L|302:238,1,70.1250026750566,0|0,1:0|0:0,0:0:0:0:
472,170,46158,5,2,1:2:0:0:
408,123,46412,1,8,0:0:0:0:
329,120,46667,1,0,1:0:0:0:
261,159,46921,1,8,0:0:0:0:
184,178,47175,1,0,1:0:0:0:
106,167,47429,1,8,0:0:0:0:
45,116,47684,2,0,L|53:40,1,70.1250026750566,0|0,1:0|0:0,0:0:0:0:
243,111,47938,2,0,L|253:269,1,140.250005350113,8|0,0:0|1:0,0:0:0:0:
68,349,48446,5,8,0:0:0:0:
282,185,48701,1,0,1:0:0:0:
376,306,48955,2,0,P|410:308|460:268,1,70.1250026750566,8|0,0:0|0:0,0:0:0:0:
180,40,49209,5,2,1:2:0:0:
266,367,49463,1,2,1:2:0:0:
486,130,49972,6,0,B|357:144|357:144|310:91,1,187,2|0,1:2|0:0,0:0:0:0:
61,40,50734,2,0,L|74:142,1,93.5,0|0,0:0|0:0,0:0:0:0:
50,338,51243,1,0,0:0:0:0:
245,181,51497,1,0,0:0:0:0:
383,313,51751,1,0,0:0:0:0:
383,313,51879,2,0,L|392:220,1,93.5,0|8,1:0|0:0,0:0:0:0:
192,39,52133,6,0,B|207:117|207:117|200:148|200:148|219:227,1,187,4|0,1:0|0:0,0:0:0:0:
123,330,52514,2,0,P|61:320|39:275,1,93.5,8|0,0:0|0:0,0:0:0:0:
94,116,52768,1,0,0:0:0:0:
44,298,52895,1,0,1:0:0:0:
217,221,53023,2,0,B|291:221|291:221|370:268,1,140.25,8|0,0:0|0:0,0:0:0:0:
436,208,53277,6,0,B|500:191|500:191|470:258,1,140.25,2|0,1:2|0:0,0:0:0:0:
339,348,53531,2,0,L|347:255,1,93.5,8|0,0:0|0:0,0:0:0:0:
222,35,53785,2,0,B|206:79|206:79|214:128,1,93.5,0|0,1:0|0:0,0:0:0:0:
119,270,54040,1,8,0:0:0:0:
213,125,54167,6,0,L|324:104,1,93.5,4|0,1:0|0:0,0:0:0:0:
100,34,54421,1,0,1:0:0:0:
46,236,54548,2,0,L|196:257,1,140.25,8|0,0:0|0:0,0:0:0:0:
263,209,54802,1,0,0:0:0:0:
418,57,54929,1,0,1:0:0:0:
418,57,55057,2,0,L|429:176,1,93.5,8|0,0:0|0:0,0:0:0:0:
460,340,55311,6,0,P|449:286|360:303,1,140.25,2|0,1:2|0:0,0:0:0:0:
267,298,55565,2,0,B|275:240|275:240|302:204,1,93.5,8|0,0:0|0:0,0:0:0:0:
213,90,55819,1,0,1:0:0:0:
94,343,55946,1,8,0:0:0:0:
35,83,56201,6,0,B|160:60|160:60|226:97,1,187,4|0,1:0|1:0,0:0:0:0:
432,65,56582,2,0,L|425:163,1,93.5,8|0,0:0|0:0,0:0:0:0:
211,266,56836,1,0,0:0:0:0:
323,66,56963,1,0,1:0:0:0:
457,265,57090,2,0,P|400:263|371:234,1,93.5,8|0,0:0|0:0,0:0:0:0:
108,85,57345,6,0,B|122:176|122:176|107:227,1,140.25,2|0,1:2|0:0,0:0:0:0:
15,182,57599,2,0,B|-17:171|-17:171|5:242,1,93.5,8|0,0:0|0:0,0:0:0:0:
231,233,57853,1,0,1:0:0:0:
39,329,57980,1,0,1:0:0:0:
108,85,58107,1,8,0:0:0:0:
183,324,58234,6,0,L|288:333,1,93.5,4|0,1:0|0:0,0:0:0:0:
457,222,58489,5,8,0:0:0:0:
470,182,58552,1,8,0:0:0:0:
456,141,58616,1,8,0:0:0:0:
182,200,58743,5,8,0:3:0:0:
264,18,58870,2,0,P|295:19|333:34,2,62.3333333333333,2|0|0,0:3|1:0|1:0,0:0:0:0:
110,139,59124,2,0,P|79:138|41:123,2,62.3333333333333,2|0|0,0:3|1:0|1:0,0:0:0:0:
363,130,59379,5,8,0:0:0:0:
161,31,59506,2,0,L|172:115,1,46.75,2|0,1:3|0:0,0:0:0:0:
182,200,59633,1,0,0:0:0:0:
394,60,59760,2,0,L|383:165,1,93.5,2|0,1:3|0:0,0:0:0:0:
330,315,60014,5,0,0:0:0:0:
263,140,60141,1,0,0:0:0:0:
461,248,60268,1,0,0:0:0:0:
191,273,60395,6,0,L|183:228,1,42.0749987159729,2|0,1:2|0:0,0:0:0:0:
423,67,60650,2,0,L|408:139,1,42.0749987159729,0|0,1:0|0:0,0:0:0:0:
110,51,60904,6,0,L|59:45,1,42.0749987159729,0|0,1:0|0:0,0:0:0:0:
183,347,61158,2,0,L|236:339,1,42.0749987159729,0|0,1:0|0:0,0:0:0:0:
440,244,61412,6,0,L|450:311,1,42.0749987159729,0|0,1:0|0:0,0:0:0:0:
286,51,61667,2,0,L|282:117,1,42.0749987159729,0|0,1:0|0:0,0:0:0:0:
53,314,61921,6,0,L|119:321,1,42.0749987159729,0|0,1:0|0:0,0:0:0:0:
450,202,62175,2,0,L|402:210,1,42.0749987159729,0|0,1:0|0:0,0:0:0:0:
120,51,62429,5,2,1:2:0:0:
309,368,62684,2,0,L|315:327,1,42.0749987159729,0|0,1:0|0:0,0:0:0:0:
428,85,62938,5,2,1:2:0:0:
95,279,63192,2,0,L|90:238,1,42.0749987159729,0|0,1:0|0:0,0:0:0:0:
63,57,63446,5,2,1:2:0:0:
474,181,63701,1,2,1:2:0:0:
218,231,63955,5,2,1:2:0:0:
263,45,64082,1,0,1:0:0:0:
371,279,64209,1,8,0:0:0:0:
141,329,64336,2,0,L|133:288,1,42.0749987159729,4|0,0:3|0:0,0:0:0:0:
218,231,64463,6,0,L|230:134,1,93.5,4|2,1:0|0:3,0:0:0:0:
139,29,64718,1,8,0:0:0:0:
344,24,64845,2,0,P|387:22|432:104,1,140.25,2|0,1:2|0:0,0:0:0:0:
369,150,65099,1,0,0:0:0:0:
218,231,65226,2,0,B|240:264|240:264|236:317,1,93.5,8|0,0:0|0:0,0:0:0:0:
23,149,65480,5,4,1:0:0:0:
78,354,65607,1,2,0:3:0:0:
218,231,65734,1,8,0:0:0:0:
337,322,65862,2,0,L|445:331,1,93.5,2|2,1:2|0:3,0:0:0:0:
352,100,66116,1,0,1:0:0:0:
140,178,66243,2,0,P|123:224|147:288,1,93.5,8|0,0:0|0:0,0:0:0:0:
64,49,66497,5,0,1:0:0:0:
64,49,66624,1,0,1:0:0:0:
23,296,66751,2,0,B|101:324|87:273|160:297,1,140.25,10|0,0:0|0:0,0:0:0:0:
247,345,67006,1,0,1:0:0:0:
329,142,67133,1,0,1:0:0:0:
468,282,67260,2,0,L|364:270,1,93.5,8|0,0:0|1:0,0:0:0:0:
218,71,67514,5,0,1:0:0:0:
159,296,67641,1,0,1:0:0:0:
308,191,67768,1,8,0:0:0:0:
101,111,67895,2,0,L|114:211,1,93.5,0|0,1:0|0:0,0:0:0:0:
53,328,68150,1,0,1:0:0:0:
257,350,68277,2,0,P|336:315|351:238,1,140.25,8|0,0:0|0:0,0:0:0:0:
440,325,68531,5,2,1:2:0:0:
363,87,68912,6,0,L|404:81,1,42.0749987159729,0|0,0:0|0:0,0:0:0:0:
134,45,69040,2,0,L|148:170,1,126.224996147919,4|0,1:0|0:0,0:0:0:0:
148,170,69294,1,0,0:0:0:0:
32,316,69421,6,0,B|86:326|86:326|130:297|130:297|164:312|191:346,1,168.299994863892,2|0,1:2|1:0,0:0:0:0:
365,227,69802,2,0,P|324:223|287:250,1,84.1499974319459,8|0,0:0|0:0,0:0:0:0:
434,344,70057,1,0,1:0:0:0:
289,246,70184,2,0,L|298:143,1,84.1499974319459,0|8,0:0|0:0,0:0:0:0:
456,28,70438,6,0,L|475:166,1,126.224996147919,0|0,1:0|0:0,0:0:0:0:
473,153,70692,1,0,1:0:0:0:
261,75,70819,5,8,0:0:0:0:
349,56,70946,1,0,0:0:0:0:
408,234,71073,1,0,1:0:0:0:
220,193,71201,1,0,0:0:0:0:
314,165,71328,6,0,L|321:215,1,42.0749987159729,8|0,0:0|0:0,0:0:0:0:
242,339,71455,2,0,L|377:316,1,126.224996147919,0|0,1:0|0:0,0:0:0:0:
448,277,71709,2,0,P|461:311|449:362,1,84.1499974319459,0|8,1:0|0:0,0:0:0:0:
242,339,71963,1,0,0:0:0:0:
314,165,72090,5,0,1:0:0:0:
366,317,72218,1,0,1:0:0:0:
203,98,72345,1,8,0:0:0:0:
159,264,72472,1,4,0:3:0:0:
159,264,72599,6,0,L|66:270,1,93.5,4|2,1:0|0:3,0:0:0:0:
314,165,72853,1,8,0:0:0:0:
85,67,72980,2,0,L|230:90,1,140.25,2|0,1:2|0:0,0:0:0:0:
296,35,73234,1,0,1:0:0:0:
389,254,73362,2,0,B|349:276|349:276|298:272,1,93.5,8|0,0:0|0:0,0:0:0:0:
165,168,73616,5,4,1:0:0:0:
389,254,73743,2,0,L|375:155,1,93.5,2|8,1:3|0:0,0:0:0:0:
148,352,73997,2,0,L|155:256,1,93.5,2|2,1:2|0:3,0:0:0:0:
256,111,74251,1,0,1:0:0:0:
51,197,74379,1,8,0:0:0:0:
254,325,74506,1,4,0:3:0:0:
141,66,74633,6,0,P|95:61|54:82,1,93.5,8|0,0:0|0:0,0:0:0:0:
370,317,74887,2,0,P|416:322|458:302,1,93.5,8|0,0:0|1:0,0:0:0:0:
53,82,75141,6,0,L|60:175,1,93.5,8|0,0:0|1:0,0:0:0:0:
458,301,75395,2,0,L|450:207,1,93.5,8|0,0:0|1:0,0:0:0:0:
439,117,75586,1,0,1:0:0:0:
439,117,75650,1,10,0:0:0:0:
161,246,75777,1,0,1:0:0:0:
453,298,75904,5,10,0:0:0:0:
235,139,76031,1,0,1:0:0:0:
312,351,76158,5,10,0:0:0:0:
315,342,76285,1,8,0:0:0:0:
322,341,76412,1,8,0:0:0:0:
328,346,76540,1,8,0:0:0:0:
327,352,76667,6,0,P|250:340|254:286,1,140.250005350113,2|8,1:2|0:0,0:0:0:0:
454,135,77175,1,2,0:0:0:0:
80,65,77429,1,8,0:0:0:0:
45,324,77684,6,0,L|132:316,1,70.1250026750566,2|0,0:0|0:0,0:0:0:0:
324,204,77938,2,0,L|237:196,1,70.1250026750566,8|0,0:0|0:0,0:0:0:0:
304,356,78192,1,2,0:0:0:0:
408,99,78446,6,0,P|472:118|487:184,1,140.250005350113,8|2,0:0|0:0,0:0:0:0:
253,352,78955,2,0,P|254:315|258:277,1,70.1250026750566,8|0,0:0|0:0,0:0:0:0:
87,133,79209,2,0,P|85:168|82:202,1,70.1250026750566,2|0,0:0|0:0,0:0:0:0:
50,326,79463,2,0,P|88:322|124:350,1,70.1250026750566,8|0,0:0|0:0,0:0:0:0:
355,284,79718,5,2,0:0:0:0:
189,77,79972,1,8,0:0:0:0:
465,80,80226,2,0,L|456:164,1,70.1250026750566,2|0,0:0|0:0,0:0:0:0:
270,335,80480,2,0,L|256:231,1,105.187504012585,8|0,0:0|0:0,0:0:0:0:
247,184,80734,5,2,0:0:0:0:
340,132,80989,5,8,0:0:0:0:
438,238,81243,5,2,0:0:0:0:
293,356,81497,5,8,0:0:0:0:
90,284,81751,5,2,0:0:0:0:
158,29,82006,5,8,0:0:0:0:
438,238,82260,5,2,0:0:0:0:
158,29,82514,6,0,L|183:278,1,245.437509362698,2|0,1:2|0:0,0:0:0:0:
182,273,83023,1,0,1:0:0:0:
444,324,83277,2,0,P|491:310|494:228,1,140.250005350113,10|0,0:0|0:0,0:0:0:0:
59,120,83785,6,0,L|199:135,1,140.250005350113,2|0,1:3|0:0,0:0:0:0:
451,36,84294,1,8,0:0:0:0:
344,273,84548,2,0,L|340:203,1,70.1250026750566,0|0,1:0|0:0,0:0:0:0:
52,135,84802,5,2,1:2:0:0:
107,71,85057,1,8,0:0:0:0:
190,61,85311,1,2,0:0:0:0:
263,101,85565,1,8,0:0:0:0:
318,164,85819,1,2,0:0:0:0:
395,197,86073,1,8,0:0:0:0:
470,159,86328,2,0,L|463:83,1,70.1250026750566,2|0,0:0|0:0,0:0:0:0:
268,23,86582,6,0,P|224:26|191:113,1,140.250005350113,8|2,0:0|1:2,0:0:0:0:
332,312,87090,1,8,0:0:0:0:
45,264,87345,2,0,L|195:254,1,140.250005350113,2|8,0:0|0:0,0:0:0:0:
404,28,87853,5,2,1:2:0:0:
476,335,88107,1,2,1:2:0:0:
77,196,88616,6,0,P|102:118|210:130,1,187,2|0,1:2|0:0,0:0:0:0:
453,232,89379,1,0,0:0:0:0:
220,335,89633,1,0,0:0:0:0:
357,52,89887,2,0,L|363:151,1,93.5,0|0,0:0|0:0,0:0:0:0:
111,88,90395,1,0,0:0:0:0:
220,335,90650,2,0,L|228:288,1,46.75,0|0,0:0|0:0,0:0:0:0:
212,98,90904,6,0,B|165:80|165:80|83:91,1,105.187504012585,0|0,1:0|0:0,0:0:0:0:
110,87,91158,6,0,B|65:76|65:76|92:183,1,126.224996147919,4|0,0:3|0:0,0:0:0:0:
84,153,91412,6,0,P|56:215|143:193,1,168.299994863892,8|0,1:2|0:0,0:0:0:0:
132,225,91667,6,0,L|114:364,1,126.224996147919,8|0,0:3|0:0,0:0:0:0:
115,351,91921,6,0,B|231:324|231:324|283:345,1,168.299994863892,0|0,1:0|0:0,0:0:0:0:
277,342,92175,6,0,B|289:272|289:272|351:311,1,140.25,4|0,0:3|0:0,0:0:0:0:
347,308,92429,6,0,B|358:234|358:234|380:210|380:210|392:127,1,182.324991653824,8|0,1:2|0:0,0:0:0:0:
390,136,92684,6,0,P|437:97|405:169,1,210.37500802517,8|0,0:3|0:0,0:0:0:0:
273,157,92938,6,0,L|216:146,3,51.4250015693665,8|0|0|0,0:0|0:0|0:0|0:0,0:0:0:0:
209,34,93192,6,0,L|148:41,3,60.7749972179414,0|0|0|0,0:0|0:0|0:0|0:0,0:0:0:0:
75,112,93446,5,8,0:0:0:0:
78,136,93510,1,0,0:0:0:0:
81,159,93573,1,0,0:0:0:0:
84,183,93637,1,0,0:0:0:0:
56,230,93701,5,0,0:0:0:0:
99,209,93764,1,0,0:0:0:0:
146,222,93828,1,0,0:0:0:0:
177,258,93891,1,0,0:0:0:0:
186,306,93955,1,8,0:0:0:0:
487,167,94209,5,0,0:0:0:0:
104,288,94463,1,0,0:0:0:0:
487,167,94718,1,0,0:0:0:0:
200,14,94972,6,0,L|213:167,1,112.199996575928,4|0,1:0|0:0,0:0:0:0:
415,338,95226,2,0,B|362:322|362:322|293:340,1,112.199996575928,10|0,0:0|0:0,0:0:0:0:
59,202,95480,2,0,P|97:238|157:227,1,112.199996575928,0|0,1:0|0:0,0:0:0:0:
436,87,95734,2,0,L|422:219,1,112.199996575928,10|0,0:0|0:0,0:0:0:0:
163,333,95989,5,0,1:0:0:0:
164,334,96243,2,0,B|138:285|138:285|152:229,1,112.199996575928,10|0,0:0|0:0,0:0:0:0:
352,26,96497,1,0,1:0:0:0:
283,204,96624,1,0,0:0:0:0:
134,78,96751,2,0,P|80:77|46:119,1,112.199996575928,10|0,0:0|0:0,0:0:0:0:
57,346,97006,6,0,B|170:327|170:327|204:299|204:299|324:279,1,280.5,4|0,1:0|1:0,0:0:0:0:
388,108,97514,6,0,P|455:76|396:120,1,187,8|0,0:0|0:0,0:0:0:0:
110,174,97895,1,0,1:0:0:0:
216,52,98023,5,2,1:2:0:0:
324,279,98192,2,0,B|381:286|381:286|449:254,1,112.199996575928,0|0,1:0|0:0,0:0:0:0:
456,171,98404,1,0,1:0:0:0:
324,279,98531,2,0,P|309:240|356:265,1,112.199996575928,8|0,0:0|0:0,0:0:0:0:
196,343,98785,2,0,B|137:332|137:332|105:281,1,112.199996575928,0|0,1:0|0:0,0:0:0:0:
35,90,99040,6,0,P|104:92|138:34,1,112.199996575928,4|0,1:0|0:0,0:0:0:0:
404,38,99294,2,0,L|396:164,1,112.199996575928,10|0,0:0|0:0,0:0:0:0:
196,343,99548,2,0,L|180:171,1,168.299994863892,0|0,1:0|0:0,0:0:0:0:
180,175,99802,2,0,P|249:173|283:231,1,112.199996575928,10|0,0:0|0:0,0:0:0:0:
470,296,100057,6,0,B|419:319|419:319|357:309,1,112.199996575928,0|0,1:0|0:0,0:0:0:0:
78,146,100311,2,0,L|88:257,1,112.199996575928,10|0,0:0|0:0,0:0:0:0:
406,221,100565,1,0,1:0:0:0:
273,36,100692,1,0,0:0:0:0:
273,36,100819,2,0,L|264:147,1,112.199996575928,10|0,0:0|0:0,0:0:0:0:
88,257,101073,6,0,P|82:227|103:248,1,70.1250026750566,0|0,1:0|0:0,0:0:0:0:
214,287,101328,6,0,P|198:254|230:269,1,93.5,10|0,0:0|0:0,0:0:0:0:
353,311,101582,6,0,P|326:277|366:293,1,116.875,0|0,1:0|0:0,0:0:0:0:
494,337,101836,6,0,P|468:292|511:320,1,140.250005350113,10|0,0:0|0:0,0:0:0:0:
494,337,102090,6,0,L|476:58,1,280.5,2|0,1:2|0:0,0:0:0:0:
214,287,102599,1,2,1:2:0:0:
475,57,103107,6,0,P|438:23|377:32,1,112.199996575928,4|0,1:0|0:0,0:0:0:0:
214,287,103362,2,0,B|220:223|220:223|202:178,1,112.199996575928,10|0,0:0|0:0,0:0:0:0:
475,57,103616,2,0,L|465:169,1,112.199996575928,0|0,1:0|0:0,0:0:0:0:
412,342,103870,2,0,B|356:349|356:349|304:312,1,112.199996575928,10|0,0:0|0:0,0:0:0:0:
203,47,104124,5,0,1:0:0:0:
34,323,104379,2,0,L|149:303,1,112.199996575928,10|0,0:0|0:0,0:0:0:0:
412,342,104633,1,0,1:0:0:0:
279,200,104760,1,0,1:0:0:0:
412,342,104887,2,0,B|432:295|432:295|416:160,1,168.299994863892,10|0,0:0|0:0,0:0:0:0:
86,114,105141,6,0,P|44:197|184:254,1,280.5,4|0,1:0|1:0,0:0:0:0:
452,71,105650,6,0,B|403:74|341:45|341:45|345:94|345:94|298:64|216:70,1,280.5,8|0,0:0|1:0,0:0:0:0:
451,282,106158,5,2,1:2:0:0:
217,318,106328,2,0,B|192:272|192:272|209:181,1,112.199996575928,0|0,1:0|0:0,0:0:0:0:
123,81,106540,2,0,L|131:143,1,56.0999982879639,0|0,1:0|0:0,0:0:0:0:
79,226,106667,2,0,P|45:227|2:162,1,112.199996575928,8|0,0:0|0:0,0:0:0:0:
217,318,106921,2,0,B|277:303|277:303|303:275|303:275|380:258,1,168.299994863892,0|0,1:0|0:0,0:0:0:0:
369,260,107175,5,4,1:0:0:0:
116,66,107429,6,0,L|118:38,1,28.049999143982,0|0,0:0|0:0,0:0:0:0:
217,347,107684,6,0,L|219:319,1,28.049999143982,0|0,1:0|0:0,0:0:0:0:
464,200,107938,6,0,L|467:173,1,28.049999143982,0|0,0:0|0:0,0:0:0:0:
99,216,108192,5,0,1:0:0:0:
99,216,108446,2,0,B|162:202|162:202|226:228,1,126.224996147919,8|0,0:3|0:0,0:0:0:0:
219,225,108701,6,0,L|230:123,1,93.5,0|0,1:0|0:0,0:0:0:0:
433,336,108955,6,0,L|420:189,1,112.199996575928,8|0,0:3|0:0,0:0:0:0:
160,32,109209,5,2,1:2:0:0:
160,32,109463,5,2,1:2:0:0:
219,225,109590,1,2,0:3:0:0:
375,123,109718,5,2,1:2:0:0:
85,160,109845,1,0,0:0:0:0:
265,31,109972,1,8,0:0:0:0:
233,322,110099,6,0,B|166:300|166:300|36:325,1,168.299994863892,4|0,1:0|0:0,0:0:0:0:
69,318,110353,1,8,0:0:0:0:
256,128,110480,1,8,0:0:0:0:
442,318,110607,1,8,0:0:0:0:
256,128,110734,1,8,0:0:0:0:
422,89,110989,5,0,0:0:0:0:
150,39,111116,2,0,B|134:135|134:135|160:200,1,154.2750047081,4|0,1:0|0:0,0:0:0:0:
155,187,111370,1,0,0:0:0:0:
68,321,111497,5,8,0:0:0:0:
261,260,111624,1,0,1:0:0:0:
135,134,111751,5,8,0:0:0:0:
343,200,111879,1,0,1:0:0:0:
166,287,112006,5,8,0:0:0:0:
261,69,112133,1,0,1:0:0:0:
415,267,112260,6,0,P|438:222|432:171,1,102.850003138733,10|0,0:0|1:0,0:0:0:0:
135,134,112514,1,8,0:0:0:0:
272,334,112641,1,0,1:0:0:0:
48,253,112768,5,8,0:0:0:0:
247,172,112895,1,0,1:0:0:0:
75,88,113023,2,0,L|69:36,1,51.4250015693665,8|0,0:0|0:0,0:0:0:0:
154,186,113150,6,0,L|130:343,1,154.2750047081,2|0,1:2|0:0,0:0:0:0:
130,338,113404,1,0,1:0:0:0:
333,266,113531,5,8,0:0:0:0:
154,186,113658,1,0,1:0:0:0:
386,69,113785,5,8,0:0:0:0:
109,88,113912,1,0,1:0:0:0:
286,2,114040,5,8,0:0:0:0:
255,229,114167,1,0,1:0:0:0:
459,214,114294,5,10,0:0:0:0:
225,105,114421,1,0,1:0:0:0:
425,71,114548,5,8,0:0:0:0:
354,276,114675,1,0,1:0:0:0:
140,190,114802,5,8,0:0:0:0:
234,354,114929,1,0,1:0:0:0:
234,354,114993,1,0,1:0:0:0:
234,354,115057,1,8,0:0:0:0:
36,271,115184,6,0,B|26:212|26:212|53:116,1,154.2750047081,4|0,1:0|0:0,0:0:0:0:
51,121,115438,1,0,1:0:0:0:
267,199,115565,5,8,0:0:0:0:
139,30,115692,1,0,1:0:0:0:
124,212,115819,5,8,0:0:0:0:
310,71,115946,1,0,1:0:0:0:
352,296,116073,5,8,0:0:0:0:
202,118,116201,1,0,1:0:0:0:
129,346,116328,6,0,L|241:332,1,102.850003138733,10|0,0:0|1:0,0:0:0:0:
491,220,116582,2,0,L|386:202,1,102.850003138733,8|0,0:0|1:0,0:0:0:0:
187,34,116836,5,8,0:0:0:0:
140,249,116963,1,0,1:0:0:0:
290,140,117090,1,8,0:0:0:0:
65,72,117218,6,0,B|58:129|58:129|82:178,1,102.850003138733,0|10,1:0|0:0,0:0:0:0:
38,340,117472,1,0,1:0:0:0:
298,346,117599,2,0,B|317:305|317:305|310:248,1,102.850003138733,8|0,0:0|1:0,0:0:0:0:
224,63,117853,5,8,0:0:0:0:
161,275,117980,1,0,1:0:0:0:
421,323,118107,5,8,0:0:0:0:
355,148,118234,1,0,1:0:0:0:
161,275,118362,6,0,P|115:279|96:186,1,154.2750047081,10|0,0:0|0:0,0:0:0:0:
56,98,118616,6,0,B|157:83|157:83|206:121,1,154.2750047081,2|0,1:2|0:0,0:0:0:0:
305,87,118870,6,0,L|294:204,1,102.850003138733,2|0,1:2|0:0,0:0:0:0:
397,332,119124,5,2,1:2:0:0:
397,332,119379,6,0,P|451:321|399:342,1,140.250005350113,0|0,0:0|0:0,0:0:0:0:
294,321,119633,6,0,L|396:331,1,102.850003138733,4|0,1:0|0:0,0:0:0:0:
483,93,119887,2,0,B|387:103|387:103|344:151,1,154.2750047081,0|0,0:0|0:0,0:0:0:0:
277,64,120141,2,0,B|215:57|215:57|182:23,1,102.850003138733,0|0,1:0|0:0,0:0:0:0:
14,283,120395,6,0,L|177:274,1,154.2750047081,10|0,0:0|0:0,0:0:0:0:
251,224,120650,2,0,P|294:230|322:291,1,102.850003138733,0|0,0:0|0:0,0:0:0:0:
84,162,120904,2,0,L|94:55,1,102.850003138733,10|0,0:0|0:0,0:0:0:0:
150,323,121158,1,0,1:0:0:0:
150,323,121412,6,0,B|247:298|247:298|308:320|308:320|367:295|367:295|431:312,1,280.5,2|0,1:2|0:0,0:0:0:0:
317,24,121921,6,0,L|308:223,1,187,2|0,1:2|0:0,0:0:0:0:
413,302,122302,1,0,1:0:0:0:
150,323,122429,5,10,0:0:0:0:
150,323,122557,2,0,P|108:279|151:201,1,140.25,2|0,0:3|0:0,0:0:0:0:
191,134,122811,1,2,0:3:0:0:
308,210,122938,2,0,L|428:223,1,93.5,8|0,0:0|0:0,0:0:0:0:
110,97,123192,2,0,L|251:75,1,140.25,2|0,1:2|0:0,0:0:0:0:
338,54,123446,1,4,1:0:0:0:
338,54,123701,6,0,L|332:147,1,70.1250026750566,2|0,0:3|0:0,0:0:0:0:
365,43,123955,6,0,L|359:160,1,102.850003138733,8|0,0:0|0:0,0:0:0:0:
393,33,124209,6,0,L|385:183,1,140.250005350113,2|0,0:3|0:0,0:0:0:0:
462,339,124463,6,0,P|442:310|352:317,1,112.199996575928,0|0,1:0|0:0,0:0:0:0:
59,264,124718,2,0,P|79:235|169:242,1,112.199996575928,2|0,0:3|0:0,0:0:0:0:
389,134,124972,5,8,0:0:0:0:
238,46,125099,2,0,L|257:285,1,224.399993151856,0|0,1:0|0:0,0:0:0:0:
153,328,125480,5,2,1:2:0:0:
369,201,125607,1,0,1:0:0:0:
369,201,125734,1,0,1:0:0:0:
238,46,125862,2,0,P|156:31|132:153,1,224.399993151856,10|0,0:0|1:0,0:0:0:0:
57,341,126243,5,8,0:0:0:0:
381,234,126370,1,0,1:0:0:0:
186,102,126497,1,10,0:0:0:0:
186,102,126751,6,0,L|198:201,1,74.7999977172852,8|0,0:0|0:0,0:0:0:0:
300,148,126921,1,0,0:0:0:0:
381,234,127006,2,0,B|422:181|422:181|433:22,1,224.399993151856,8|8,0:0|0:0,0:0:0:0:
186,102,127387,6,0,P|130:120|98:17,1,187,4|0,1:0|0:0,0:0:0:0:
322,352,127768,2,0,L|435:342,1,93.5,8|0,0:0|0:0,0:0:0:0:
171,319,128023,1,0,0:0:0:0:
262,188,128150,1,0,1:0:0:0:
262,188,128277,2,0,L|412:210,1,140.25,8|0,0:0|0:0,0:0:0:0:
480,139,128531,6,0,B|489:94|489:94|464:40,1,93.5,2|0,1:2|0:0,0:0:0:0:
262,188,128785,2,0,B|253:233|253:233|273:276,1,93.5,8|0,0:0|0:0,0:0:0:0:
64,129,129040,2,0,P|89:70|177:84,1,140.25,0|0,1:0|0:0,0:0:0:0:
253,83,129294,1,8,0:0:0:0:
152,329,129421,6,0,L|45:319,1,93.5,4|0,1:0|0:0,0:0:0:0:
154,183,129675,1,0,1:0:0:0:
277,252,129802,2,0,L|417:243,1,140.25,8|0,0:0|0:0,0:0:0:0:
416,243,130057,1,0,0:0:0:0:
317,71,130184,1,0,1:0:0:0:
317,71,130311,2,0,B|273:60|273:60|217:87,1,93.5,8|0,0:0|0:0,0:0:0:0:
85,252,130565,6,0,P|37:220|67:139,1,140.25,2|0,1:2|0:0,0:0:0:0:
134,79,130819,2,0,L|151:190,1,93.5,8|0,0:0|0:0,0:0:0:0:
81,344,131073,1,0,1:0:0:0:
243,263,131201,1,0,1:0:0:0:
243,263,131265,1,0,1:0:0:0:
243,263,131328,1,8,0:0:0:0:
371,336,131455,6,0,B|388:281|388:281|374:231|374:231|395:145,1,187,4|0,1:0|1:0,0:0:0:0:
392,155,131836,2,0,P|438:159|461:200,1,93.5,10|0,0:0|0:0,0:0:0:0:
275,69,132090,1,2,0:0:0:0:
432,23,132218,1,0,1:0:0:0:
275,69,132345,2,0,P|228:72|206:113,1,93.5,10|0,0:0|0:0,0:0:0:0:
98,318,132599,6,0,B|202:335|202:335|173:284,1,140.25,2|0,1:2|0:0,0:0:0:0:
105,228,132853,2,0,B|86:172|86:172|114:79,1,140.25,10|0,0:0|0:0,0:0:0:0:
105,228,133107,1,10,0:0:0:0:
383,50,133362,5,8,0:0:0:0:
456,201,133489,2,0,L|351:192,1,93.5,2|0,1:2|0:0,0:0:0:0:
211,32,133743,1,8,0:0:0:0:
105,228,133870,2,0,P|92:263|101:291,2,62.3333333333333,2|0|0,1:2|1:0|1:0,0:0:0:0:
67,117,134124,6,0,L|129:112,1,62.3333333333333,2|0,1:2|1:0,0:0:0:0:
236,150,134294,1,0,1:0:0:0:
352,94,134379,2,0,L|340:237,1,140.25,10|0,0:0|0:0,0:0:0:0:
254,281,134633,6,0,L|267:343,1,46.75,8|0,0:0|0:0,0:0:0:0:
67,117,134887,5,8,0:0:0:0:
440,30,135141,5,8,0:0:0:0:
340,233,135268,1,2,1:2:0:0:
67,117,135523,6,0,L|233:108,1,149.6,2|0,1:2|0:0,0:0:0:0:
316,70,135904,2,0,B|361:51|361:51|343:128,1,112.2,2|0,0:3|0:0,0:0:0:0:
398,185,136158,2,0,B|382:259|382:259|411:333,1,140.25,8|0,0:0|0:0,0:0:0:0:
304,322,136412,2,0,P|264:315|263:248,1,93.5,2|0,0:3|0:0,0:0:0:0:
82,75,136667,6,0,L|94:219,1,126.224996147919,0|0,1:0|0:0,0:0:0:0:
68,300,136921,2,0,B|121:295|121:295|157:262,1,84.1499974319459,2|0,0:3|0:0,0:0:0:0:
326,76,137175,1,8,0:0:0:0:
453,348,137429,5,2,1:2:0:0:
256,331,137557,2,0,B|243:223|243:223|278:161,1,168.299994863892,2|0,1:2|0:0,0:0:0:0:
165,141,137938,2,0,P|117:131|115:229,1,154.2750047081,2|0,0:3|0:0,0:0:0:0:
165,141,138192,2,0,L|154:51,1,84.1499974319459,8|0,0:0|0:0,0:0:0:0:
361,247,138446,2,0,L|379:108,1,140.25,2|0,0:3|0:0,0:0:0:0:
393,17,138701,5,0,1:0:0:0:
68,322,138955,2,0,B|114:304|114:304|160:311,1,93.5,2|0,0:3|0:0,0:0:0:0:
361,247,139209,1,8,0:0:0:0:
155,202,139336,1,8,0:0:0:0:
268,352,139463,1,8,0:0:0:0:
404,133,139590,6,0,B|287:148|287:148|222:115,1,187,4|0,1:0|0:0,0:0:0:0:
41,86,139972,2,0,L|56:201,1,93.5,10|0,0:0|0:0,0:0:0:0:
258,288,140226,1,2,0:0:0:0:
53,178,140353,1,0,1:0:0:0:
135,332,140480,2,0,L|147:240,1,93.5,10|0,0:0|0:0,0:0:0:0:
317,61,140734,6,0,P|366:59|386:162,1,140.25,2|0,1:2|0:0,0:0:0:0:
467,210,140989,2,0,B|446:243|446:243|457:314,1,93.5,10|0,0:0|0:0,0:0:0:0:
198,214,141243,2,0,L|351:197,1,140.25,2|0,1:2|0:0,0:0:0:0:
403,132,141497,1,8,0:0:0:0:
112,163,141624,6,0,B|98:217|98:217|117:308,1,140.25,4|0,1:0|0:0,0:0:0:0:
115,299,141879,1,0,1:0:0:0:
273,290,142006,5,8,0:0:0:0:
20,136,142133,1,0,1:0:0:0:
264,89,142260,5,8,0:0:0:0:
99,218,142387,1,0,1:0:0:0:
325,219,142514,5,8,0:0:0:0:
123,27,142641,1,0,1:0:0:0:
86,323,142768,5,8,0:0:0:0:
86,323,142895,2,0,B|173:308|173:308|249:344,1,168.299994863892,2|0,1:3|0:0,0:0:0:0:
343,289,143150,2,0,B|364:207|364:207|324:219,1,126.22500048151,2|0,1:3|0:0,0:0:0:0:
184,31,143404,5,0,0:0:0:0:
130,228,143531,1,0,0:0:0:0:
304,128,143658,1,0,0:0:0:0:
89,134,143785,6,0,B|71:96|71:96|87:9,1,130.899996005249,4|0,1:0|0:0,0:0:0:0:
237,201,144167,1,0,0:0:0:0:
164,311,144294,2,0,L|18:297,1,130.899996005249,8|0,0:0|0:0,0:0:0:0:
284,362,144675,6,0,P|321:357|349:274,1,130.899996005249,0|0,1:0|0:0,0:0:0:0:
230,135,145057,2,0,L|236:200,1,65.4499980026246,0|0,1:0|0:0,0:0:0:0:
443,145,145311,1,8,0:0:0:0:
328,30,145438,2,0,L|334:95,1,65.4499980026246,0|0,0:0|0:0,0:0:0:0:
236,200,145692,6,0,P|186:204|140:119,1,130.899996005249,0|0,1:0|0:0,0:0:0:0:
367,342,146073,2,0,L|449:332,1,65.4499980026246,0|0,1:0|0:0,0:0:0:0:
236,200,146328,1,8,0:0:0:0:
184,329,146455,2,0,L|266:319,1,65.4499980026246,0|0,0:0|0:0,0:0:0:0:
404,106,146709,6,0,B|398:192|398:192|422:235,1,130.899996005249,0|0,1:0|0:0,0:0:0:0:
219,104,147090,2,0,L|223:38,1,65.4499980026246,0|0,1:0|0:0,0:0:0:0:
115,241,147345,5,8,0:0:0:0:
219,104,147472,1,8,0:0:0:0:
284,197,147599,5,8,0:0:0:0:
76,71,147726,1,8,0:0:0:0:
31,314,147853,5,4,1:0:0:0:
274,290,147980,2,0,L|283:197,1,93.5,2|8,0:3|0:0,0:0:0:0:
370,81,148234,1,2,1:2:0:0:
156,214,148362,5,2,0:3:0:0:
403,280,148489,1,0,0:0:0:0:
264,83,148616,2,0,P|235:63|167:78,1,93.5,8|0,0:0|0:0,0:0:0:0:
55,300,148870,5,4,1:0:0:0:
285,201,148997,1,2,0:3:0:0:
80,91,149124,1,8,0:0:0:0:
156,214,149251,1,2,1:2:0:0:
156,214,149379,2,0,L|150:315,1,93.5,2|0,0:3|1:0,0:0:0:0:
435,109,149633,2,0,L|429:210,1,93.5,8|0,0:0|0:0,0:0:0:0:
429,202,149887,5,0,1:0:0:0:
264,83,150014,1,0,1:0:0:0:
264,329,150141,2,0,B|316:307|316:307|411:322,1,140.25,10|0,0:0|0:0,0:0:0:0:
398,320,150395,5,0,1:0:0:0:
262,193,150523,1,0,1:0:0:0:
138,342,150650,2,0,B|141:284|141:284|118:249,1,93.5,8|0,0:0|1:0,0:0:0:0:
135,35,150904,5,2,1:3:0:0:
28,152,151031,2,0,L|149:143,1,93.5,0|8,1:0|0:0,0:0:0:0:
429,185,151285,1,2,1:3:0:0:
286,70,151412,1,0,0:0:0:0:
241,291,151540,1,0,1:0:0:0:
412,272,151667,2,0,B|409:214|409:214|432:179,1,93.5,8|0,0:0|0:0,0:0:0:0:
193,45,151921,5,0,1:0:0:0:
89,325,152090,5,0,1:0:0:0:
320,228,152260,5,0,1:0:0:0:
147,157,152429,6,0,L|9:177,1,126.224996147919,4|0,1:0|0:0,0:0:0:0:
22,175,152684,1,0,0:0:0:0:
190,339,152811,2,0,B|201:291|201:291|188:241,1,84.1499974319459,2|0,1:2|0:0,0:0:0:0:
470,265,153065,1,0,1:0:0:0:
347,137,153192,2,0,B|336:185|336:185|344:218,1,84.1499974319459,8|0,0:0|0:0,0:0:0:0:
311,354,153446,1,0,1:0:0:0:
217,159,153573,2,0,P|179:138|135:147,1,84.1499974319459,0|8,0:0|0:0,0:0:0:0:
24,306,153828,6,0,L|160:286,1,126.224996147919,0|0,1:0|0:0,0:0:0:0:
198,279,154082,1,0,1:0:0:0:
39,184,154209,2,0,B|32:135|32:135|44:102,1,84.1499974319459,8|0,0:0|0:0,0:0:0:0:
327,250,154463,2,0,B|334:299|334:299|322:332,1,84.1499974319459,0|0,1:0|0:0,0:0:0:0:
450,147,154718,1,8,0:0:0:0:
316,65,154845,6,0,P|266:52|227:168,1,168.299994863892,0|0,1:0|1:0,0:0:0:0:
114,291,155226,2,0,L|220:275,1,84.1499974319459,8|0,0:0|0:0,0:0:0:0:
419,334,155480,5,0,1:0:0:0:
346,181,155607,1,0,1:0:0:0:
197,278,155734,5,8,0:0:0:0:
256,76,155862,1,4,0:3:0:0:
345,180,155989,6,0,P|391:179|426:149,1,93.5,4|2,1:0|0:3,0:0:0:0:
189,2,156243,1,8,0:0:0:0:
49,112,156370,2,0,L|64:303,1,187,2|0,1:2|1:0,0:0:0:0:
250,340,156751,2,0,L|242:246,1,93.5,8|0,0:0|1:0,0:0:0:0:
358,97,157006,5,4,1:0:0:0:
147,171,157133,1,2,0:3:0:0:
392,280,157260,1,8,0:0:0:0:
237,83,157387,2,0,B|191:50|191:50|49:74,1,187,2|0,1:2|1:0,0:0:0:0:
42,309,157768,1,8,0:0:0:0:
273,193,157895,1,0,1:0:0:0:
125,156,158023,6,0,L|148:379,1,210.37500802517,4|0,1:0|0:0,0:0:0:0:
146,365,158531,1,0,0:0:0:0:
451,230,158785,1,0,1:0:0:0:
323,58,159040,6,0,B|261:40|261:40|196:58|196:58|103:36,2,210.37500802517,8|2|0,0:0|0:3|0:0,0:0:0:0:
453,245,160057,6,0,P|439:298|341:312,1,140.250005350113,0|0,1:0|0:0,0:0:0:0:
119,39,160565,1,0,0:0:0:0:
166,331,160819,2,0,L|177:246,1,70.1250026750566,0|0,1:0|0:0,0:0:0:0:
439,140,161073,6,0,L|453:251,2,105.187504012585,8|2|0,0:0|0:3|1:0,0:0:0:0:
156,82,161582,1,10,0:0:0:0:
338,337,161836,1,2,1:2:0:0:
50,296,162090,6,0,P|76:245|156:241,1,140.250005350113,2|0,1:2|0:0,0:0:0:0:
449,185,162599,2,0,P|423:134|343:130,1,140.250005350113,0|0,1:0|0:0,0:0:0:0:
81,32,163107,6,0,B|103:102|103:102|86:256,1,210.37500802517,10|0,0:0|0:0,0:0:0:0:
138,327,163616,1,0,0:0:0:0:
342,108,163870,1,0,1:0:0:0:
454,307,164124,5,2,1:2:0:0:
134,170,164379,5,0,1:0:0:0:
479,79,164633,5,2,1:2:0:0:
246,327,164887,5,0,1:0:0:0:
50,73,165141,5,10,0:0:0:0:
299,215,165395,2,0,L|288:133,1,70.1250026750566,0|0,1:0|0:0,0:0:0:0:
116,305,165650,5,10,0:0:0:0:
420,332,165904,2,0,L|436:256,1,70.1250026750566,0|0,1:0|0:0,0:0:0:0:
256,46,166158,5,4,1:0:0:0:
256,192,166190,12,0,170226,0:0:0:0:
477,329,174294,5,0,0:0:0:0:
39,247,175311,5,0,0:0:0:0:
424,75,176582,5,0,0:0:0:0:
264,41,176836,2,0,L|276:149,1,93.5,0|0,0:0|0:0,0:0:0:0:
62,290,177345,5,0,0:0:0:0:
139,237,177599,1,0,0:0:0:0:
231,250,177853,1,0,0:0:0:0:
297,315,178107,1,0,0:0:0:0:
388,335,178362,5,0,1:0:0:0:
465,282,178616,1,0,0:0:0:0:
334,225,178870,5,0,0:0:0:0:
384,103,179124,1,0,0:0:0:0:
218,262,179379,5,0,0:0:0:0:
181,63,179633,1,0,0:0:0:0:
26,334,179887,5,0,0:0:0:0:
82,11,180141,1,0,0:0:0:0:
269,283,180395,6,0,L|299:276,2,31.1666666666667,0|0|0,0:0|0:0|0:0,0:0:0:0:
60,167,180650,2,0,L|29:159,2,31.1666666666667,0|0|0,0:0|0:0|0:0,0:0:0:0:
138,310,180904,6,0,L|145:258,1,49.8666666666667,8|0,0:0|0:0,0:0:0:0:
169,97,181073,1,0,0:0:0:0:
378,220,181158,6,0,L|367:152,1,62.3333333333333,0|0,0:0|0:0,0:0:0:0:
343,46,181328,1,0,0:0:0:0:
256,151,181412,5,2,1:2:0:0:
465,343,182429,6,0,B|388:320|388:320|291:325,1,168.299994863892,2|0,1:2|0:0,0:0:0:0:
63,346,182938,5,8,0:0:0:0:
91,267,183065,1,0,0:0:0:0:
167,231,183192,1,0,0:0:0:0:
248,256,183319,1,0,0:0:0:0:
299,324,183446,5,8,0:0:0:0:
387,82,183701,1,0,0:0:0:0:
106,145,183955,5,8,0:0:0:0:
476,227,184209,1,8,0:0:0:0:
237,33,184463,6,0,B|222:78|222:78|236:155,1,112.199996575928,0|0,1:0|0:0,0:0:0:0:
304,252,184845,1,0,0:0:0:0:
304,252,184908,1,0,0:0:0:0:
304,252,184972,1,8,0:0:0:0:
106,145,185099,1,0,0:0:0:0:
106,145,185226,1,0,0:0:0:0:
106,145,185353,2,0,L|100:102,1,28.049999143982,0|0,0:0|0:0,0:0:0:0:
151,239,185480,6,0,B|118:353|118:353|176:317,1,168.299994863892,8|0,0:0|0:0,0:0:0:0:
45,258,185989,1,8,0:0:0:0:
448,186,186243,1,8,0:0:0:0:
311,55,186497,6,0,P|260:54|251:160,1,168.299994863892,0|0,1:0|0:0,0:0:0:0:
337,306,187006,5,8,0:0:0:0:
240,150,187133,1,0,0:0:0:0:
149,270,187260,1,0,0:0:0:0:
103,278,187387,1,0,0:0:0:0:
57,287,187514,2,0,L|80:169,1,112.199996575928,8|0,0:0|0:0,0:0:0:0:
427,84,188023,1,0,0:0:0:0:
315,340,188277,2,0,L|303:271,1,56.0999982879639,0|0,0:0|0:0,0:0:0:0:
252,41,188531,5,8,0:0:0:0:
170,308,188785,2,0,B|63:324|63:324|87:264,1,168.299994863892,0|0,1:0|0:0,0:0:0:0:
294,206,189294,2,0,B|401:222|401:222|377:162,1,168.299994863892,0|0,1:0|0:0,0:0:0:0:
443,56,189802,1,8,0:0:0:0:
147,107,190057,2,0,L|104:100,6,28.049999143982,8|0|0|0|0|0|0,0:0|0:0|0:0|0:0|0:0|0:0|0:0,0:0:0:0:
242,54,190565,6,0,B|253:165|253:165|301:213,1,168.299994863892,2|0,1:2|0:0,0:0:0:0:
250,330,191073,1,8,0:0:0:0:
293,205,191201,1,0,0:0:0:0:
429,251,191328,1,0,0:0:0:0:
360,107,191455,1,0,0:0:0:0:
360,107,191582,6,0,L|471:93,1,112.199996575928,8|0,0:0|0:0,0:0:0:0:
209,263,192090,2,0,L|96:248,1,112.199996575928,8|8,0:0|0:0,0:0:0:0:
60,77,192599,5,0,1:0:0:0:
97,260,192853,1,0,0:0:0:0:
97,257,192917,1,0,0:0:0:0:
97,254,192980,1,0,0:0:0:0:
97,251,193044,1,0,0:0:0:0:
97,248,193107,2,0,L|86:304,2,37.3999988586426,8|0|0,0:0|0:0|0:0,0:0:0:0:
231,150,193362,2,0,L|224:99,2,37.3999988586426,8|0|8,0:0|0:0|0:0,0:0:0:0:
325,287,193616,6,0,P|370:303|440:211,1,168.299994863892,8|0,0:0|0:0,0:0:0:0:
396,44,194124,1,8,0:0:0:0:
92,148,194379,1,8,0:0:0:0:
222,43,194633,6,0,L|236:229,1,168.299994863892,0|0,1:0|0:0,0:0:0:0:
184,312,195141,2,0,L|189:363,2,37.3999988586426,8|0|0,0:0|0:0|0:0,0:0:0:0:
58,231,195395,2,0,L|54:193,2,37.3999988586426,0|0|8,0:0|0:0|0:0,0:0:0:0:
94,107,195650,5,8,0:0:0:0:
135,76,195734,1,0,0:0:0:0:
186,87,195819,1,0,0:0:0:0:
226,120,195904,5,0,0:0:0:0:
278,123,195989,1,0,0:0:0:0:
320,92,196073,1,0,0:0:0:0:
406,74,196158,6,0,L|396:33,3,28.049999143982,8|8|0|0,0:0|0:0|0:0|0:0,0:0:0:0:
471,157,196412,2,0,L|484:108,2,37.3999988586426,0|0|0,0:0|0:0|0:0,0:0:0:0:
276,227,196667,5,8,0:0:0:0:
475,308,196794,1,8,0:0:0:0:
475,308,196921,1,0,1:0:0:0:
179,311,197175,5,8,0:0:0:0:
378,207,197302,1,8,0:0:0:0:
378,207,197429,2,0,L|372:286,1,56.0999982879639,0|0,1:0|1:0,0:0:0:0:
291,143,197684,5,8,0:0:0:0:
268,132,197747,1,0,0:0:0:0:
242,134,197811,1,0,0:0:0:0:
221,148,197874,1,0,0:0:0:0:
205,168,197938,1,0,0:0:0:0:
187,185,198001,1,0,0:0:0:0:
162,192,198065,1,0,0:0:0:0:
136,188,198129,1,0,0:0:0:0:
114,174,198192,5,8,0:0:0:0:
51,290,198319,1,8,0:0:0:0:
51,290,198446,1,8,0:0:0:0:
51,290,198573,1,8,0:0:0:0:
164,350,198701,6,0,B|212:317|212:317|278:326,1,112.199996575928,2|0,1:2|0:0,0:0:0:0:
481,177,199209,2,0,B|433:210|433:210|315:193,1,168.299994863892,2|0,0:0|0:0,0:0:0:0:
401,83,199718,5,10,0:0:0:0:
160,42,199972,2,0,L|166:98,1,56.0999982879639,0|0,0:0|0:0,0:0:0:0:
71,301,200226,1,2,0:0:0:0:
342,180,200480,2,0,L|348:242,1,56.0999982879639,0|0,0:0|0:0,0:0:0:0:
437,345,200734,5,2,1:2:0:0:
133,169,200989,1,0,0:0:0:0:
437,99,201243,5,2,0:0:0:0:
229,315,201497,1,0,0:0:0:0:
155,53,201751,6,0,B|252:75|252:75|317:50,1,168.299994863892,10|0,0:0|0:0,0:0:0:0:
463,138,202260,2,0,L|451:263,1,112.199996575928,2|0,1:2|0:0,0:0:0:0:
196,349,202768,6,0,L|178:171,1,168.299994863892,2|0,1:2|0:0,0:0:0:0:
79,250,203277,2,0,B|-9:218|-9:218|13:296,1,168.299994863892,2|0,0:0|0:0,0:0:0:0:
78,109,203785,5,10,0:0:0:0:
334,199,204040,1,0,0:0:0:0:
158,348,204294,5,2,0:0:0:0:
461,250,204548,1,0,0:0:0:0:
249,63,204802,1,0,1:0:0:0:
365,344,205057,6,0,B|348:277|348:277|369:140,1,187,10|0,0:0|0:0,0:0:0:0:
147,40,205438,2,0,B|164:107|164:107|143:244,1,187,2|0,1:2|0:0,0:0:0:0:
51,343,205819,6,0,L|149:332,1,93.5,10|0,0:0|0:0,0:0:0:0:
249,239,206073,1,0,0:0:0:0:
79,111,206201,2,0,L|279:134,1,187,2|0,1:2|0:0,0:0:0:0:
372,116,206582,2,0,L|365:177,1,46.75,2|0,1:2|0:0,0:0:0:0:
249,239,206709,2,0,L|265:346,1,93.5,0|0,0:0|0:0,0:0:0:0:
512,100,207345,6,0,P|465:79|416:187,1,196.349994007874,2|0,1:2|0:0,0:0:0:0:
145,76,207853,2,0,L|211:80,1,65.4499980026246,10|0,0:0|0:0,0:0:0:0:
341,273,208107,2,0,L|275:268,1,65.4499980026246,0|0,0:0|0:0,0:0:0:0:
53,330,208362,2,0,L|118:333,1,65.4499980026246,2|0,0:0|0:0,0:0:0:0:
221,177,208616,1,0,1:0:0:0:
445,315,208870,5,2,1:2:0:0:
315,50,209124,2,0,L|329:246,1,196.349994007874,0|0,1:0|0:0,0:0:0:0:
118,333,209633,1,0,1:0:0:0:
60,87,209887,6,0,B|133:106|133:106|205:88,1,130.899996005249,10|0,0:0|0:0,0:0:0:0:
455,168,210395,1,2,1:2:0:0:
266,337,210650,2,0,L|274:251,1,65.4499980026246,0|0,0:0|0:0,0:0:0:0:
157,146,210904,6,0,P|108:128|76:249,1,196.349994007874,2|0,1:2|0:0,0:0:0:0:
78,334,211412,2,0,P|113:329|155:315,1,65.4499980026246,2|0,1:2|0:0,0:0:0:0:
419,255,211667,2,0,P|376:248|336:233,1,65.4499980026246,0|0,1:0|0:0,0:0:0:0:
190,59,211921,5,10,0:0:0:0:
297,350,212175,1,0,1:0:0:0:
407,79,212429,6,0,P|402:116|398:149,1,65.4499980026246,2|0,1:2|0:0,0:0:0:0:
198,203,212684,2,0,P|202:235|209:268,1,65.4499980026246,0|0,1:0|0:0,0:0:0:0:
69,77,212938,6,0,P|108:48|166:51,1,98.1749970039369,0|0,1:0|0:0,0:0:0:0:
201,67,213192,1,2,1:2:0:0:
104,321,213446,5,0,1:0:0:0:
301,237,213573,1,2,0:0:0:0:
170,152,213701,2,0,L|183:245,1,65.4499980026246,0|0,0:0|0:0,0:0:0:0:
199,337,213955,5,8,0:0:0:0:
456,179,214209,1,2,1:2:0:0:
83,69,214463,5,8,0:0:0:0:
375,328,214718,1,2,1:2:0:0:
105,328,214972,6,0,B|86:330|58:340|58:340|112:258|112:258|98:231|102:197,1,196.349994007874,4|0,1:0|0:0,0:0:0:0:
271,115,215480,6,0,P|307:84|332:191,1,196.349994007874,8|0,0:0|0:0,0:0:0:0:
434,348,215989,6,0,B|377:316|377:316|308:322,1,130.899996005249,4|0,1:0|0:0,0:0:0:0:
131,191,216370,1,0,0:0:0:0:
197,345,216497,6,0,P|192:305|210:265,1,65.4499980026246,8|0,0:0|0:0,0:0:0:0:
444,80,216751,2,0,L|434:189,1,98.1749970039369,2|0,1:2|0:0,0:0:0:0:
348,229,217006,6,0,P|297:229|273:158,1,130.899996005249,4|0,1:0|0:0,0:0:0:0:
104,62,217387,1,0,0:0:0:0:
40,199,217514,2,0,L|114:189,1,65.4499980026246,8|0,0:0|0:0,0:0:0:0:
348,229,217768,1,0,0:0:0:0:
190,342,217895,1,0,0:0:0:0:
190,342,218023,6,0,P|183:300|193:264,1,65.4499980026246,4|0,1:0|0:0,0:0:0:0:
371,77,218277,2,0,P|378:119|368:155,1,65.4499980026246,0|0,0:0|0:0,0:0:0:0:
176,72,218531,5,2,1:2:0:0:
311,237,218658,1,0,0:0:0:0:
109,221,218785,5,0,0:0:0:0:
283,113,218912,1,0,0:0:0:0:
196,345,219040,6,0,L|307:331,1,112.2,4|0,1:0|0:0,0:0:0:0:
307,331,219294,6,0,B|320:275|320:275|299:184,1,140.25,2|0,0:0|0:0,0:0:0:0:
301,194,219548,6,0,L|450:219,1,126.224996147919,8|0,1:2|0:0,0:0:0:0:
425,215,219802,6,0,P|450:170|364:117,1,168.299994863892,2|0,0:0|0:0,0:0:0:0:
371,113,220057,6,0,B|325:91|325:91|193:121,1,154.2750047081,0|0,1:0|0:0,0:0:0:0:
224,113,220311,6,0,B|182:137|182:137|195:47,1,126.224996147919,2|0,0:0|0:0,0:0:0:0:
193,59,220565,6,0,P|134:26|74:120,1,182.324991653824,8|0,1:2|0:0,0:0:0:0:
68,99,220819,6,0,B|88:212|88:212|68:267,1,168.299994863892,2|0,0:0|0:0,0:0:0:0:
145,339,221073,6,0,L|221:319,3,51.4250015693665,8|0|0|0,0:0|0:0|0:0|0:0,0:0:0:0:
266,250,221328,6,0,L|339:263,3,60.7749972179414,0|0|0|0,0:0|0:0|0:0|0:0,0:0:0:0:
413,196,221582,5,8,0:0:0:0:
447,171,221645,1,0,0:0:0:0:
457,129,221709,1,0,0:0:0:0:
445,87,221773,1,0,0:0:0:0:
409,64,221836,5,0,0:0:0:0:
384,68,221900,1,0,0:0:0:0:
360,72,221963,1,0,0:0:0:0:
335,76,222027,1,0,0:0:0:0:
257,44,222090,5,8,0:0:0:0:
256,352,222345,1,0,0:0:0:0:
256,43,222599,1,0,0:0:0:0:
256,352,222853,1,0,0:0:0:0:
36,118,223107,6,0,L|153:126,1,112.199996575928,4|0,1:0|0:0,0:0:0:0:
463,346,223362,2,0,B|434:313|434:313|427:231,1,112.199996575928,10|0,0:0|0:0,0:0:0:0:
245,42,223616,2,0,L|257:175,1,112.199996575928,0|0,1:0|0:0,0:0:0:0:
52,327,223870,2,0,P|96:291|163:302,1,112.199996575928,10|0,0:0|0:0,0:0:0:0:
331,347,224124,5,0,1:0:0:0:
331,347,224379,2,0,L|340:235,1,112.199996575928,10|0,0:0|0:0,0:0:0:0:
245,42,224633,1,0,1:0:0:0:
196,220,224760,1,0,0:0:0:0:
396,112,224887,2,0,P|447:117|477:179,1,112.199996575928,10|0,0:0|0:0,0:0:0:0:
331,347,225141,6,0,B|275:332|237:348|237:348|205:312|205:312|141:339|56:308,1,280.5,4|0,1:0|1:0,0:0:0:0:
44,166,225650,6,0,B|67:112|59:53|59:53|77:94|101:109,1,187,8|0,0:0|0:0,0:0:0:0:
254,52,226031,1,0,1:0:0:0:
318,225,226158,5,2,1:2:0:0:
423,205,226328,2,0,B|368:198|368:198|308:232,1,112.199996575928,0|0,1:0|0:0,0:0:0:0:
389,296,226540,1,0,1:0:0:0:
188,341,226667,2,0,L|199:226,1,112.199996575928,8|0,0:0|0:0,0:0:0:0:
408,55,226921,2,0,B|470:39|470:39|454:94,1,112.199996575928,0|0,1:0|0:0,0:0:0:0:
198,229,227175,6,0,P|150:216|133:138,1,112.199996575928,4|0,1:0|0:0,0:0:0:0:
344,314,227429,2,0,L|465:291,1,112.199996575928,10|0,0:0|0:0,0:0:0:0:
293,183,227684,2,0,L|126:162,1,168.299994863892,0|0,1:0|0:0,0:0:0:0:
53,222,227938,2,0,B|38:272|38:272|58:340,1,112.199996575928,10|0,0:0|0:0,0:0:0:0:
293,183,228192,6,0,B|308:133|308:133|288:65,1,112.199996575928,0|0,1:0|0:0,0:0:0:0:
479,307,228446,2,0,P|431:344|373:330,1,112.199996575928,10|0,0:0|0:0,0:0:0:0:
153,264,228701,1,0,1:0:0:0:
76,155,228828,1,0,0:0:0:0:
153,264,228955,2,0,L|264:277,1,112.199996575928,10|0,0:0|0:0,0:0:0:0:
409,76,229209,6,0,B|449:60|449:60|437:105,1,70.1250026750566,0|0,1:0|0:0,0:0:0:0:
256,110,229463,6,0,B|204:92|204:92|222:142,1,93.5,10|0,0:0|0:0,0:0:0:0:
452,243,229718,6,0,B|512:218|512:218|495:274,1,116.875,0|0,1:0|0:0,0:0:0:0:
239,293,229972,6,0,B|164:266|164:266|184:325,1,140.250005350113,10|0,0:0|0:0,0:0:0:0:
358,333,230226,6,0,L|337:47,1,280.5,2|0,1:2|0:0,0:0:0:0:
358,333,230734,1,2,1:2:0:0:
59,123,231243,6,0,P|98:80|167:83,1,112.199996575928,4|0,1:0|0:0,0:0:0:0:
258,339,231497,2,0,P|203:333|167:291,1,112.199996575928,10|0,0:0|0:0,0:0:0:0:
474,167,231751,2,0,L|462:278,1,112.199996575928,0|0,1:0|0:0,0:0:0:0:
277,137,232006,2,0,L|266:19,1,112.199996575928,10|0,0:0|0:0,0:0:0:0:
167,291,232260,5,0,1:0:0:0:
167,291,232514,2,0,B|121:320|121:320|63:312,1,112.199996575928,10|0,0:0|0:0,0:0:0:0:
277,137,232768,1,0,1:0:0:0:
331,327,232895,1,0,1:0:0:0:
93,218,233023,2,0,P|80:187|111:115,1,112.199996575928,10|0,0:0|0:0,0:0:0:0:
393,46,233277,6,0,B|436:242|436:242|367:184,1,280.5,4|0,1:0|1:0,0:0:0:0:
182,345,233785,6,0,B|170:281|170:281|219:155,1,187,8|0,0:0|0:0,0:0:0:0:
285,282,234167,1,0,1:0:0:0:
100,94,234294,5,2,1:2:0:0:
100,94,234463,2,0,P|117:46|166:21,1,93.5,0|0,1:0|0:0,0:0:0:0:
218,112,234675,2,0,L|271:120,1,46.75,0|0,1:0|0:0,1:0:0:0:
131,216,234802,2,0,L|18:230,1,93.5,8|0,0:0|0:0,0:0:0:0:
238,91,235057,2,0,L|397:117,1,140.25,0|0,1:0|0:0,0:0:0:0:
428,126,235311,5,4,1:0:0:0:
271,362,235565,6,0,L|294:365,1,23.375,0|0,0:0|0:0,0:0:0:0:
118,153,235819,6,0,L|141:156,1,23.375,0|0,1:0|0:0,0:0:0:0:
428,126,236073,6,0,L|451:129,1,23.375,0|0,0:0|0:0,0:0:0:0:
105,308,236328,5,0,1:0:0:0:
105,308,236582,2,0,L|119:175,1,126.224996147919,4|0,0:3|0:0,0:0:0:0:
118,182,236836,6,0,P|177:189|195:233,1,93.5,0|0,1:0|0:0,0:0:0:0:
460,247,237090,6,0,P|399:249|378:309,1,112.199996575928,8|0,0:3|0:0,0:0:0:0:
250,344,237345,5,2,1:2:0:0:
298,139,237599,5,2,1:2:0:0:
250,344,237726,1,2,0:3:0:0:
375,251,237853,5,2,1:2:0:0:
140,279,237980,1,0,0:0:0:0:
206,72,238107,1,8,0:0:0:0:
140,279,238234,6,0,B|48:300|48:300|89:148,1,224.399993151856,4|8,1:0|0:0,0:0:0:0:
386,95,238616,1,8,0:0:0:0:
202,198,238743,1,8,0:0:0:0:
437,322,238870,1,8,0:0:0:0:
202,198,239124,5,0,0:0:0:0:
319,348,239251,2,0,L|331:193,1,154.2750047081,4|0,1:0|0:0,0:0:0:0:
330,194,239506,1,0,0:0:0:0:
140,71,239633,1,8,0:0:0:0:
399,34,239760,1,0,1:0:0:0:
220,177,239887,5,8,0:0:0:0:
440,234,240014,1,0,1:0:0:0:
159,348,240141,5,8,0:0:0:0:
358,303,240268,1,0,1:0:0:0:
133,208,240395,6,0,P|101:214|79:293,1,102.850003138733,10|0,0:0|1:0,0:0:0:0:
350,149,240650,1,8,0:0:0:0:
75,52,240777,1,0,1:0:0:0:
133,208,240904,5,8,0:0:0:0:
360,32,241031,1,0,1:0:0:0:
423,284,241158,1,8,0:0:0:0:
237,361,241285,6,0,B|227:308|227:308|253:202,1,154.2750047081,2|0,1:2|0:0,0:0:0:0:
278,124,241540,1,0,1:0:0:0:
52,255,241667,1,8,0:0:0:0:
331,315,241794,1,0,1:0:0:0:
164,145,241921,5,8,0:0:0:0:
133,355,242048,1,0,1:0:0:0:
333,51,242175,5,8,0:0:0:0:
403,235,242302,1,0,1:0:0:0:
229,241,242429,5,10,0:0:0:0:
450,98,242557,1,0,1:0:0:0:
483,329,242684,5,8,0:0:0:0:
336,168,242811,1,0,1:0:0:0:
222,330,242938,5,8,0:0:0:0:
381,264,243065,1,0,1:0:0:0:
381,264,243129,1,0,1:0:0:0:
381,264,243192,1,8,0:0:0:0:
220,159,243319,6,0,P|163:155|122:247,1,154.2750047081,4|0,1:0|0:0,0:0:0:0:
117,230,243573,1,0,1:0:0:0:
58,65,243701,1,8,0:0:0:0:
296,109,243828,1,0,1:0:0:0:
200,298,243955,5,8,0:0:0:0:
421,171,244082,1,0,1:0:0:0:
355,289,244209,5,8,0:0:0:0:
166,118,244336,1,0,1:0:0:0:
411,71,244463,6,0,B|427:112|427:112|419:179,1,102.850003138733,10|0,0:0|1:0,0:0:0:0:
143,263,244718,1,8,0:0:0:0:
209,25,244845,1,0,1:0:0:0:
331,286,244972,5,8,0:0:0:0:
101,135,245099,1,0,1:0:0:0:
45,361,245226,1,8,0:0:0:0:
236,235,245353,6,0,L|217:90,1,102.850003138733,0|10,1:0|0:0,0:0:0:0:
206,7,245607,1,0,1:0:0:0:
110,249,245734,1,8,0:0:0:0:
349,130,245862,1,0,1:0:0:0:
57,95,245989,5,8,0:0:0:0:
295,304,246116,1,0,1:0:0:0:
50,368,246243,5,8,0:0:0:0:
216,76,246370,1,0,1:0:0:0:
376,295,246497,6,0,B|305:262|305:262|223:278,1,154.2750047081,10|0,0:2|0:0,0:0:0:0:
131,296,246751,6,0,L|148:141,1,154.2750047081,2|0,1:2|0:0,0:0:0:0:
216,76,247006,6,0,P|271:81|295:138,1,102.850003138733,2|0,1:2|0:0,0:0:0:0:
131,296,247260,1,2,1:2:0:0:
131,296,247514,6,0,P|77:285|129:306,1,140.250005350113,0|0,0:0|0:0,0:0:0:0:
287,351,247768,6,0,B|291:308|291:308|267:245,1,102.850003138733,8|0,0:0|0:0,0:0:0:0:
437,31,248023,2,0,B|425:97|425:97|452:195,1,154.2750047081,0|0,1:0|0:0,0:0:0:0:
509,252,248277,2,0,P|454:279|406:260,1,102.850003138733,8|0,0:0|0:0,0:0:0:0:
53,146,248531,6,0,L|227:124,1,154.2750047081,0|0,1:0|0:0,0:0:0:0:
275,60,248785,2,0,L|377:47,1,102.850003138733,8|0,0:0|0:0,0:0:0:0:
332,335,249040,2,0,L|230:348,1,102.850003138733,0|0,1:0|0:0,0:0:0:0:
4,70,249294,1,8,0:0:0:0:
47,354,249548,6,0,P|47:296|168:286,1,187,4|0,1:0|0:0,0:0:0:0:
225,139,249929,1,0,1:0:0:0:
328,333,250057,6,0,B|460:305|460:305|489:250,1,187,8|0,0:0|0:0,0:0:0:0:
225,139,250438,1,0,1:0:0:0:
373,56,250565,5,2,1:2:0:0:
373,56,250734,2,0,L|388:156,1,93.5,0|0,1:0|0:0,0:0:0:0:
261,41,250946,1,0,1:0:0:0:
101,268,251073,6,0,P|136:302|200:295,1,93.5,8|0,0:0|0:0,0:0:0:0:
432,192,251328,2,0,L|262:173,1,140.25,0|0,1:0|0:0,0:0:0:0:
205,119,251582,5,4,1:0:0:0:
421,359,251836,1,10,0:0:0:0:
421,359,251963,1,0,0:0:0:0:
421,359,252090,2,0,P|435:321|413:260,1,93.5,0|0,1:0|0:0,0:0:0:0:
135,75,252345,2,0,P|121:113|143:174,1,93.5,10|0,0:0|0:0,0:0:0:0:
59,347,252599,6,0,B|103:329|103:329|158:333,1,93.5,0|0,1:0|0:0,0:0:0:0:
455,160,252853,2,0,B|407:157|407:157|363:129,1,93.5,10|0,0:0|0:0,0:0:0:0:
77,51,253107,6,0,L|92:168,1,93.5,0|0,1:0|0:0,0:0:0:0:
329,352,253362,2,0,L|343:252,1,93.5,10|0,0:0|0:0,0:0:0:0:
385,27,253616,5,0,1:0:0:0:
5,267,253870,5,10,0:0:0:0:
492,352,254124,5,0,1:0:0:0:
144,65,254379,5,10,0:0:0:0:
340,371,254633,6,0,B|356:291|356:291|334:220,1,140.250005350113,2|0,1:2|0:0,0:0:0:0:
50,33,255141,2,0,B|34:113|34:113|56:184,1,140.250005350113,2|0,1:2|0:0,0:0:0:0:
425,59,255650,5,4,1:0:0:0:
140,330,255904,1,0,0:0:0:0:
200,99,256158,6,0,L|210:175,1,65.4499980026246,2|0,1:2|0:0,0:0:0:0:
348,233,256412,2,0,L|338:298,1,65.4499980026246
456,273,256667,6,0,P|412:228|335:244,1,130.899996005249,10|0,0:0|0:0,0:0:0:0:
98,43,257175,2,0,L|117:184,1,130.899996005249,2|0,0:0|1:0,0:0:0:0:
47,293,257557,1,0,0:0:0:0:
187,362,257684,6,0,P|200:304|333:300,1,196.349994007874,2|0,1:2|0:0,0:0:0:0:
493,202,258192,2,0,P|441:196|410:113,1,130.899996005249,2|0,1:2|0:0,0:0:0:0:
220,20,258701,5,10,0:0:0:0:
397,325,258955,1,0,0:0:0:0:
48,275,259209,5,2,0:0:0:0:
359,118,259463,2,0,L|352:191,1,65.4499980026246,2|0,1:2|0:0,0:0:0:0:
213,217,259718,2,0,B|226:309|226:309|212:359,1,130.899996005249,0|0,1:0|0:0,0:0:0:0:
86,111,260226,5,2,1:2:0:0:
397,292,260480,1,0,0:0:0:0:
82,331,260734,5,10,0:0:0:0:
392,102,260989,1,0,0:0:0:0:
127,70,261243,6,0,L|137:149,1,65.4499980026246,2|0,0:0|0:0,0:0:0:0:
258,246,261497,2,0,L|243:332,1,65.4499980026246,0|0,1:0|0:0,0:0:0:0:
18,179,261751,6,0,B|83:174|83:174|136:135,1,130.899996005249,2|2,1:2|0:3,0:0:0:0:
455,328,262260,2,0,B|389:323|389:323|337:284,1,130.899996005249,2|2,1:2|0:3,0:0:0:0:
375,45,262768,5,10,0:0:0:0:
150,343,263023,1,0,1:0:0:0:
412,212,263277,5,10,0:0:0:0:
55,84,263531,1,0,1:0:0:0:
222,27,263785,6,0,L|214:184,1,130.899996005249,2|0,1:2|0:0,0:0:0:0:
61,364,264294,1,2,1:2:0:0:
232,271,264548,2,0,L|302:260,1,65.4499980026246,0|0,0:0|0:0,0:0:0:0:
114,151,264802,6,0,P|62:145|31:216,1,130.899996005249,10|0,0:0|0:0,0:0:0:0:
227,48,265311,2,0,L|363:66,1,130.899996005249,2|0,0:0|1:0,0:0:0:0:
474,289,265819,6,0,B|346:272|346:272|272:309,1,196.349994007874,2|0,1:2|0:0,0:0:0:0:
93,371,266328,1,2,1:2:0:0:
227,173,266582,1,0,0:0:0:0:
36,84,266836,6,0,L|52:166,1,65.4499980026246,10|0,0:0|0:0,0:0:0:0:
10,301,267090,2,0,B|54:276|54:276|143:286,1,130.899996005249,0|2,0:0|0:0,0:0:0:0:
341,207,267472,1,0,0:0:0:0:
253,346,267599,2,0,P|265:317|251:277,1,65.4499980026246,0|0,1:0|0:0,0:0:0:0:
215,49,267853,6,0,L|205:188,1,130.899996005249,2|0,1:2|0:0,0:0:0:0:
431,348,268362,1,2,1:2:0:0:
89,245,268616,1,0,0:0:0:0:
448,104,268870,5,10,0:0:0:0:
221,352,269124,1,0,0:0:0:0:
88,79,269379,5,10,0:0:0:0:
412,233,269633,1,0,1:0:0:0:
34,353,269887,5,2,1:2:0:0:
412,233,270141,6,0,L|400:328,1,65.4499980026246,2|0,1:2|0:0,0:0:0:0:
114,150,270395,6,0,L|125:249,1,93.5,2|0,1:2|0:0,0:0:0:0:
334,16,270650,6,0,L|323:153,1,126.22500048151,2|0,1:2|0:0,0:0:0:0:
195,337,270904,6,0,P|134:368|71:345,1,140.250005350113,10|0,0:0|0:0,0:0:0:0:
323,141,271158,6,0,P|404:134|395:224,1,187,0|0,1:0|0:0,0:0:0:0:
153,47,271412,6,2,B|127:97|127:97|139:182,2,140.25,10|2|2,0:0|0:3|0:3,0:0:0:0:
256,352,271921,5,2,1:2:0:0:
