osu file format v14

[General]
AudioFilename: miraizu.mp3
AudioLeadIn: 0
PreviewTime: 68883
Countdown: 0
SampleSet: Soft
StackLeniency: 0.5
Mode: 0
LetterboxInBreaks: 0
WidescreenStoryboard: 0

[Editor]
DistanceSpacing: 1.3
BeatDivisor: 4
GridSize: 16
TimelineZoom: 2.200001

[Metadata]
Title:Miraizu
TitleUnicode:未来図
Artist:sana
ArtistUnicode:鎖那
Creator:Lasse
Version:Insane
Source:
Tags:好きになるその瞬間を。 Suki ni Naru Shunkan wo. honeyworks
BeatmapID:828302
BeatmapSetID:378196

[Difficulty]
HPDrainRate:6
CircleSize:4
OverallDifficulty:8
ApproachRate:9
SliderMultiplier:1.62
SliderTickRate:1

[Events]
//Background and Video events
0,0,"bg.jpg",0,0
//Break Periods
2,80207,81430
2,173241,174464
//Storyboard Layer 0 (Background)
//Storyboard Layer 1 (Fail)
//Storyboard Layer 2 (Pass)
//Storyboard Layer 3 (Foreground)
//Storyboard Sound Samples

[TimingPoints]
457,337.078651685393,4,2,3,10,1,5746
3153,-200,4,2,3,15,0,5746
3827,-200,4,2,3,20,0,5746
4501,-200,4,2,3,25,0,5746
5176,-200,4,2,3,40,0,5746
8462,-200,4,2,3,5,0,5746
8546,-166.666666666667,4,2,3,40,0,5746
10569,-153.846153846154,4,2,3,55,0,0
11243,-100,4,2,1,50,0,0
40906,-100,4,2,3,50,0,0
42254,-125,4,2,2,35,0,0
50344,-166.666666666667,4,2,1,50,0,0
55737,-166.666666666667,4,2,1,60,0,1
56412,-166.666666666667,4,2,1,65,0,1
57086,-166.666666666667,4,2,3,70,0,1
57128,-100,4,2,3,20,0,0
58097,-100,4,2,3,5,0,0
58434,-100,4,2,1,70,0,1
62142,-100,4,2,3,30,0,1
62310,-100,4,2,1,70,0,1
69136,-100,4,2,1,70,0,0
69221,-100,4,2,1,70,0,1
72760,-142.857142857143,4,2,1,70,0,1
72928,-100,4,2,3,30,0,1
73097,-100,4,2,1,70,0,1
80007,-100,4,2,1,50,0,0
82030,-100,4,2,1,60,0,0
82704,-100,4,2,1,70,0,1
84052,-100,4,2,1,50,0,0
90119,-166.666666666667,4,2,4,35,0,0
92058,-166.666666666667,4,2,4,5,0,0
92142,-166.666666666667,4,2,4,35,0,0
92732,-166.666666666667,4,2,4,5,0,0
92816,-166.666666666667,4,2,4,35,0,0
108321,-166.666666666667,4,2,1,35,0,0
108659,-166.666666666667,4,2,1,45,0,0
109670,-166.666666666667,4,2,1,52,0,0
111018,-100,4,2,1,60,0,0
114810,-100,4,2,3,10,0,0
114895,-100,4,2,1,60,0,0
130148,-100,4,2,3,10,0,0
130232,-100,4,2,1,60,0,0
132591,-125,4,2,2,35,0,0
140681,-125,4,2,1,60,0,0
146074,-100,4,2,1,60,0,1
146749,-100,4,2,1,65,0,1
147423,-166.666666666667,4,2,3,70,0,1
147507,-166.666666666667,4,2,3,25,0,0
148434,-166.666666666667,4,2,3,10,0,0
148771,-166.666666666667,4,2,3,30,0,0
151131,-100,4,2,3,5,0,0
151468,-100,4,2,1,70,0,1
155176,-100,4,2,3,30,0,1
155344,-100,4,2,1,75,0,1
162170,-100,4,2,1,75,0,0
162254,-100,4,2,1,75,0,1
165794,-142.857142857143,4,2,1,75,0,1
165962,-100,4,2,3,30,0,1
166131,-100,4,2,1,70,0,1
173041,-100,4,2,1,50,0,0
175063,-100,4,2,1,60,0,0
175737,-100,4,2,1,70,0,1
177086,-100,4,2,1,50,0,0
178434,-125,4,2,1,50,0,0
179782,-200,4,2,3,30,0,0

[Colours]
Combo1 : 220,139,122
Combo2 : 187,128,172
Combo3 : 213,42,48
Combo4 : 112,176,180

[HitObjects]
256,192,457,12,0,4839,0:0:0:0:
240,87,5176,6,0,P|191:54|132:58,1,121.5
171,131,5850,6,0,P|229:165|291:153,1,121.5,2|0,0:0|0:0,0:0:0:0:
332,96,6524,2,0,B|349:86|359:67|359:67|355:116|363:162,1,121.5
386,225,7198,6,0,L|419:268,1,40.5
342,302,7535,2,0,L|362:352,1,40.5
276,339,7872,2,0,B|237:348|212:338|186:328|146:331,1,121.5
58,332,8546,6,0,P|31:250|49:175,1,145.799995550537,2|0,0:0|0:0,0:0:0:0:
91,107,9221,2,0,L|149:76,1,48.5999985168458
208,147,9558,2,0,L|149:177,1,48.5999985168458
140,286,9895,5,4,0:1:0:0:
425,299,10569,6,0,B|424:279|434:267|434:267|423:250|423:250|438:235|448:202|448:164|426:136,1,157.949992769623
346,191,11243,6,0,B|271:219|254:152|160:199,1,162,4|0,0:0|0:0,0:0:0:0:
109,342,11917,1,2,0:0:0:0:
75,183,12254,1,0,0:0:0:0:
127,244,12423,6,0,P|182:269|263:219,1,162
188,188,12928,2,0,L|174:96,1,81
212,36,13265,1,0,0:0:0:0:
291,51,13434,1,2,0:0:0:0:
369,30,13603,1,0,0:0:0:0:
138,52,13940,6,0,B|94:74|94:74|64:107,1,81,4|0,0:0|0:0,0:0:0:0:
38,188,14277,1,8,0:0:0:0:
38,188,14445,1,0,0:0:0:0:
167,187,14614,1,2,0:0:0:0:
174,310,14782,2,0,P|134:302|96:288,1,81
322,285,15119,6,0,P|362:293|400:307,1,81,4|0,0:0|0:0,0:0:0:0:
380,168,15456,2,0,L|424:168,1,40.5,0|0,3:2|3:2,0:2:0:0:
342,98,15625,2,0,L|393:83,1,40.5,8|0,3:2|3:2,0:2:0:0:
262,55,15794,2,0,L|299:33,1,40.5,0|0,3:2|3:2,0:2:0:0:
189,103,15962,5,8,3:2:0:0:
181,122,16046,1,0,3:2:0:0:
178,142,16131,1,8,3:2:0:0:
179,162,16215,1,0,3:2:0:0:
182,182,16299,1,8,3:2:0:0:
185,202,16383,1,0,3:2:0:0:
186,223,16467,1,8,3:2:0:0:
183,243,16552,1,0,3:2:0:0:
176,262,16636,6,0,B|129:277|82:261,1,81,4|0,3:0|0:0,0:0:0:0:
44,182,16973,1,8,0:0:0:0:
65,86,17142,1,0,0:0:0:0:
140,25,17310,2,0,B|189:22|230:50,1,81,8|2,0:0|0:0,0:0:0:0:
276,121,17648,1,8,0:0:0:0:
187,159,17816,1,2,0:0:0:0:
175,255,17985,6,0,B|203:275|252:272,1,81,2|0,0:0|0:0,0:0:0:0:
347,251,18322,1,8,0:0:0:0:
392,336,18490,1,0,0:0:0:0:
455,251,18659,2,0,B|475:223|472:174,1,81
455,69,18996,1,8,0:0:0:0:
362,20,19164,1,2,0:0:0:0:
252,74,19333,6,0,L|168:88,1,81,4|0,0:0|0:0,0:0:0:0:
61,60,19670,1,8,0:0:0:0:
28,168,19839,1,2,0:0:0:0:
28,168,19923,1,0,0:0:0:0:
28,168,20007,2,0,L|57:265,1,81,8|0,0:0|0:0,0:0:0:0:
130,326,20344,1,8,0:0:0:0:
235,284,20513,1,2,0:0:0:0:
273,152,20681,5,2,0:0:0:0:
148,199,20850,1,0,0:0:0:0:
97,80,21018,2,0,L|179:55,1,81,8|0,0:0|0:0,0:0:0:0:
305,68,21355,6,0,L|379:46,2,54,2|0|0,3:2|3:0|3:0,0:0:0:0:
364,131,21692,2,0,L|438:109,2,54,8|0|0,3:0|3:0|3:0,0:0:0:0:
409,202,22030,5,4,0:1:0:0:
413,202,22704,5,2,0:0:0:0:
259,310,23041,1,2,0:0:0:0:
417,202,23378,5,0,0:0:0:0:
327,166,23546,1,0,0:0:0:0:
234,197,23715,1,0,0:0:0:0:
158,136,23883,1,0,0:0:0:0:
67,172,24052,6,0,B|7:208,2,54,8|8|8,3:0|3:0|3:0,0:0:0:0:
132,215,24389,1,8,0:0:0:0:
275,325,24726,6,0,L|379:305,1,81,4|0,0:0|0:0,0:0:0:0:
468,312,25063,1,8,0:0:0:0:
414,212,25232,2,0,L|310:232,1,81,2|0,0:0|0:0,0:0:0:0:
346,127,25569,2,0,L|242:107,1,81,2|0,0:0|0:0,0:0:0:0:
388,39,25906,1,4,0:0:0:0:
163,74,26243,5,0,0:0:0:0:
163,74,26412,2,0,P|112:80|75:78,1,81,8|0,0:0|0:0,0:0:0:0:
150,170,26749,2,0,P|200:163|237:165,1,81
307,247,27086,1,8,0:0:0:0:
201,288,27254,1,0,0:0:0:0:
132,177,27423,5,2,0:0:0:0:
191,81,27591,1,0,0:0:0:0:
300,115,27760,1,8,0:0:0:0:
412,119,27928,2,0,P|457:96|485:74,1,81,2|0,0:0|0:0,0:0:0:0:
492,191,28265,2,0,P|447:214|419:236,1,81,2|0,0:0|0:0,0:0:0:0:
346,317,28603,6,0,B|327:325|306:317|306:317|286:324|286:324|269:320|269:320|225:339|163:322,1,162,6|0,0:0|0:0,0:0:0:0:
89,273,29108,1,8,0:0:0:0:
71,160,29277,1,0,0:0:0:0:
151,80,29445,2,0,L|237:28,1,81,2|0,0:0|0:0,0:0:0:0:
312,104,29782,2,0,L|226:156,1,81,8|0,0:0|0:0,0:0:0:0:
201,251,30119,5,2,0:0:0:0:
307,291,30288,1,0,0:0:0:0:
348,185,30456,1,8,0:0:0:0:
451,138,30625,2,0,L|507:214,1,81,2|0,0:0|0:0,0:0:0:0:
426,290,30962,2,0,L|441:343,2,40.5,10|0|8,0:0|0:0|0:0,0:0:0:0:
323,325,31299,1,8,0:0:0:0:
323,325,31383,1,0,0:0:0:0:
323,325,31468,6,0,L|219:323,2,81,4|0|8,0:0|0:0|0:0,0:0:0:0:
427,123,32142,1,8,0:0:0:0:
327,176,32310,2,0,P|241:201|161:156,1,162
253,89,32816,5,2,0:0:0:0:
253,89,33322,2,0,P|307:66|335:59,2,81,0|2|0,0:0|0:0|3:2,0:0:0:0:
230,196,33827,1,8,3:2:0:0:
453,235,34164,5,2,0:0:0:0:
368,159,34333,1,0,0:0:0:0:
344,269,34501,1,8,0:0:0:0:
127,199,34839,2,0,L|30:199,1,81
255,112,35344,1,0,0:0:0:0:
349,175,35513,6,0,L|442:175,2,81,2|0|0,0:0|0:0|0:0,0:0:0:0:
300,258,36018,1,0,0:0:0:0:
179,235,36355,1,8,0:0:0:0:
179,235,36440,1,0,0:0:0:0:
179,235,36524,1,10,0:0:0:0:
239,139,36692,1,0,0:0:0:0:
258,276,36861,6,0,P|215:314|164:323,1,81,12|0,0:0|0:0,0:0:0:0:
79,303,37198,2,0,P|54:250|61:199,1,81,8|0,0:0|0:0,0:0:0:0:
13,122,37535,2,0,P|52:116|91:126,1,81,8|0,0:0|0:0,0:0:0:0:
199,162,37872,1,8,0:0:0:0:
149,59,38041,1,0,0:0:0:0:
260,77,38209,6,0,P|299:82|338:72,1,81,10|0,0:0|0:0,0:0:0:0:
450,138,38546,2,0,P|444:177|454:216,1,81,8|0,0:0|0:0,0:0:0:0:
381,323,38883,2,0,P|341:317|302:327,1,81,8|0,0:0|0:0,0:0:0:0:
205,240,39221,1,2,0:0:0:0:
222,111,39389,1,0,0:0:0:0:
339,55,39558,5,12,0:0:0:0:
360,149,39726,1,0,0:0:0:0:
442,48,39895,1,8,0:0:0:0:
464,142,40063,1,0,0:0:0:0:
396,271,40232,5,8,0:0:0:0:
310,345,40400,1,0,0:0:0:0:
234,260,40569,2,0,L|184:258,1,40.5,8|8,0:0|0:0,0:0:0:0:
316,183,40737,2,0,L|299:137,1,40.5,8|8,0:0|0:0,0:0:0:0:
191,154,40906,6,0,P|129:127|82:135,1,108,12|0,0:1|0:0,0:0:0:0:
29,221,41243,2,0,P|36:288|67:324,1,108,12|0,0:1|0:0,0:0:0:0:
166,340,41580,2,0,L|222:320,2,54,2|0|0,3:2|3:0|3:0,0:0:0:0:
167,231,41917,2,0,L|110:250,2,54,8|0|0,3:2|3:0|3:0,0:0:0:0:
253,233,42254,6,0,L|254:145,1,64.8,2|0,0:0|0:0,0:0:0:0:
298,104,42591,1,0,0:0:0:0:
366,67,42760,1,0,0:0:0:0:
408,132,42928,2,0,L|407:220,1,64.8
445,266,43265,2,0,L|444:354,1,64.8
365,326,43603,6,0,P|330:320|290:323,1,64.8,2|0,0:0|0:0,0:0:0:0:
225,342,43940,2,0,P|190:348|150:345,1,64.8
87,320,44277,1,0,0:0:0:0:
53,248,44445,1,0,0:0:0:0:
99,181,44614,1,0,0:0:0:0:
180,187,44782,1,0,0:0:0:0:
220,272,44951,6,0,L|320:252,1,64.8,2|0,0:0|0:0,0:0:0:0:
307,185,45288,2,0,L|373:239,1,64.8
424,187,45625,2,0,L|374:145,1,64.8
370,67,45962,2,0,L|305:77,1,64.8
190,78,46299,6,0,B|149:75|149:75|106:83,1,64.8,2|0,0:0|0:0,0:0:0:0:
62,147,46636,1,0,0:0:0:0:
151,166,46805,1,0,0:0:0:0:
125,252,46973,2,0,B|165:254|165:254|208:246,1,64.8
268,205,47310,2,0,B|306:201|306:201|350:210,1,64.8
390,322,47648,6,0,L|302:323,1,64.8,2|0,0:0|0:0,0:0:0:0:
237,347,47985,2,0,L|149:348,1,64.8
121,272,48322,2,0,L|209:273,1,64.8
246,205,48659,2,0,L|334:206,1,64.8
251,113,48996,6,0,P|216:116|176:136,1,64.8,2|0,0:0|0:0,0:0:0:0:
104,162,49333,2,0,P|124:190|161:215,1,64.8
112,292,49670,2,0,P|91:263|54:238,1,64.8
34,329,50007,2,0,P|54:354|80:372,1,64.8
183,354,50344,6,0,B|227:349|227:349|251:338|251:338|294:334,1,97.1999970336915,4|0,0:1|0:0,0:0:0:0:
323,335,50794,2,0,L|375:348,1,32.3999990112305,8|0,0:0|0:0,0:0:0:0:
427,255,51018,2,0,B|383:250|383:250|359:239|359:239|316:235,1,97.1999970336915,0|2,0:0|0:0,0:0:0:0:
287,238,51468,2,0,L|240:241,1,32.3999990112305,8|0,0:0|0:0,0:0:0:0:
259,129,51692,6,0,P|205:122|148:131,1,97.1999970336915,12|0,0:1|0:0,0:0:0:0:
122,148,52142,2,0,L|77:172,1,32.3999990112305
211,225,52367,5,8,0:0:0:0:
298,229,52535,1,0,0:0:0:0:
259,129,52704,1,8,0:0:0:0:
363,144,52872,5,0,0:0:0:0:
363,144,52956,1,0,0:0:0:0:
363,144,53041,1,10,0:0:0:0:
459,79,53209,1,0,0:0:0:0:
225,275,54389,5,8,0:0:0:0:
124,219,54558,1,0,0:0:0:0:
474,220,55063,5,8,0:0:0:0:
373,164,55232,1,0,0:0:0:0:
75,101,55737,5,10,0:0:0:0:
223,88,55906,1,2,0:0:0:0:
185,269,56074,1,8,0:0:0:0:
154,166,56243,1,2,0:0:0:0:
358,210,56412,5,8,0:0:0:0:
292,292,56580,1,2,0:0:0:0:
326,107,56749,1,8,0:0:0:0:
457,191,56917,1,2,0:0:0:0:
256,192,57086,5,4,0:1:0:0:
256,192,57128,12,0,58097,0:0:0:0:
130,324,58434,6,0,P|166:307|206:301,1,81,4|0,0:0|0:0,0:0:0:0:
229,208,58771,2,0,P|193:225|153:231,1,81,8|0,0:0|0:0,0:0:0:0:
194,51,59108,1,2,0:0:0:0:
312,157,59277,1,0,0:0:0:0:
155,142,59445,1,8,0:0:0:0:
294,64,59614,1,0,0:0:0:0:
229,208,59782,6,0,P|265:237|315:261,1,81,2|0,0:0|0:0,0:0:0:0:
433,240,60119,1,8,0:0:0:0:
351,167,60288,1,0,0:0:0:0:
477,95,60456,2,0,L|375:48,1,81,2|0,0:0|0:0,0:0:0:0:
290,44,60794,2,0,L|178:54,1,81,8|0,0:0|0:0,0:0:0:0:
130,164,61131,5,2,0:0:0:0:
69,276,61299,1,0,0:0:0:0:
245,222,61468,1,8,0:0:0:0:
184,338,61636,1,0,0:0:0:0:
130,164,61805,1,8,0:0:0:0:
130,164,61973,2,0,L|52:127,1,81,2|0,0:0|0:0,0:0:0:0:
218,38,62310,6,4,P|312:54|395:20,1,162,0|0,0:0|0:0,0:0:0:0:
462,74,62816,2,0,L|426:146,1,81,8|0,0:0|0:0,0:0:0:0:
386,252,63153,1,2,0:0:0:0:
300,230,63322,2,0,L|300:153,1,40.5,0|0,3:2|3:0,0:0:0:0:
232,274,63490,2,0,L|259:320,1,40.5,8|0,3:2|3:0,0:0:0:0:
168,223,63659,1,8,3:0:0:0:
168,223,63743,1,0,3:0:0:0:
168,223,63827,6,0,P|108:214|78:215,1,81,2|0,0:0|0:0,0:0:0:0:
152,120,64164,2,0,P|212:129|242:128,1,81,8|0,0:0|0:0,0:0:0:0:
352,60,64501,1,2,0:0:0:0:
417,152,64670,1,0,0:0:0:0:
325,219,64839,2,0,L|222:251,1,81,8|0,0:0|0:0,0:0:0:0:
113,208,65176,6,0,P|100:258|106:293,1,81,2|0,0:0|0:0,0:0:0:0:
200,344,65513,1,8,0:0:0:0:
200,344,65681,1,0,0:0:0:0:
296,297,65850,2,0,P|344:275|378:276,1,81,2|0,0:0|0:0,0:0:0:0:
480,307,66187,1,8,0:0:0:0:
480,307,66355,1,0,0:0:0:0:
480,160,66524,6,0,P|470:88|452:60,1,81,4|0,0:0|0:0,0:0:0:0:
363,129,66861,2,0,P|305:85|272:78,1,81,8|2,0:0|0:0,0:0:0:0:
277,80,67114,1,0,0:0:0:0:
256,80,67198,2,0,P|183:81|152:67,1,81,8|0,0:0|0:0,0:0:0:0:
67,44,67535,1,8,0:0:0:0:
21,148,67704,1,0,0:0:0:0:
91,275,67872,6,0,P|128:282|194:277,1,81,6|0,3:1|3:0,0:0:0:0:
171,281,68125,1,0,3:2:0:0:
171,281,68209,1,8,3:2:0:0:
318,237,68378,1,2,3:2:0:0:
318,237,68462,1,0,3:2:0:0:
318,237,68546,1,8,3:2:0:0:
281,128,68715,2,0,L|235:111,1,40.5,0|0,3:0|3:0,0:0:0:0:
383,76,68883,2,0,L|400:39,1,40.5,4|0,3:1|3:0,0:0:0:0:
430,184,69052,1,0,3:0:0:0:
430,184,69136,1,0,3:0:0:0:
430,184,69221,6,0,P|439:229|440:267,1,81,4|0,0:0|0:0,0:0:0:0:
341,319,69558,2,0,P|332:274|331:236,1,81,8|0,0:0|0:0,0:0:0:0:
330,102,69895,1,2,0:0:0:0:
414,27,70063,1,0,0:0:0:0:
253,27,70232,1,8,0:0:0:0:
283,169,70400,1,0,0:0:0:0:
154,238,70569,6,0,P|92:264|45:265,1,81,2|0,0:0|0:0,0:0:0:0:
166,337,70906,2,0,P|228:311|275:310,1,81,8|0,0:0|0:0,0:0:0:0:
356,305,71243,1,2,0:0:0:0:
416,239,71412,1,0,0:0:0:0:
330,164,71580,1,8,0:0:0:0:
390,98,71749,1,0,0:0:0:0:
261,38,71917,6,0,P|195:40|156:45,1,81,2|0,0:0|3:0,0:0:0:0:
180,41,72170,1,0,3:2:0:0:
180,41,72254,1,8,3:2:0:0:
91,132,72423,1,0,3:2:0:0:
91,132,72507,1,0,3:2:0:0:
91,132,72591,1,10,3:2:0:0:
164,248,72760,6,0,L|101:258,1,56.6999982696534,0|8,0:0|0:0,0:0:0:0:
109,257,73097,6,0,P|188:295|269:301,1,162,4|0,0:0|0:0,0:0:0:0:
325,179,73603,1,8,0:0:0:0:
353,272,73771,1,0,0:0:0:0:
232,207,73940,1,2,0:0:0:0:
340,185,74108,1,0,3:2:0:0:
353,193,74192,1,0,3:2:0:0:
368,198,74277,2,0,L|440:198,1,40.5,8|0,3:2|3:2,0:0:0:0:
462,128,74445,2,0,L|534:128,1,40.5,0|0,3:2|3:2,0:0:0:0:
347,70,74614,6,0,P|300:65|253:72,1,81,2|0,0:0|0:0,0:0:0:0:
266,68,74867,1,0,0:0:0:0:
266,68,74951,1,8,0:0:0:0:
274,172,75119,1,0,0:0:0:0:
84,128,75288,1,2,0:0:0:0:
188,26,75456,1,0,0:0:0:0:
192,222,75625,1,8,0:0:0:0:
131,71,75794,1,0,0:0:0:0:
49,193,75962,6,0,P|50:244|74:287,1,81,10|0,0:0|0:0,0:0:0:0:
206,341,76299,2,0,L|302:342,1,81,8|0,0:0|0:0,0:0:0:0:
383,213,76636,1,2,0:0:0:0:
225,256,76805,1,0,0:0:0:0:
380,315,76973,1,8,0:0:0:0:
289,176,77142,1,0,0:0:0:0:
280,342,77310,6,0,P|232:355|190:351,1,81,8|2,0:0|0:0,0:0:0:0:
72,221,77648,1,8,0:0:0:0:
226,148,77816,1,2,0:0:0:0:
189,353,77985,5,8,0:0:0:0:
131,146,78153,1,2,0:0:0:0:
334,254,78322,1,8,0:0:0:0:
107,305,78490,1,2,0:0:0:0:
323,150,78659,5,12,0:1:0:0:
177,353,78827,1,2,0:0:0:0:
227,137,78996,1,8,0:0:0:0:
227,137,79333,6,0,L|194:179,2,54,8|0|0,3:2|3:0|3:0,0:0:0:0:
187,59,79670,2,0,L|216:16,2,54,8|0|0,3:0|3:0|3:0,0:0:0:0:
279,76,80007,5,4,0:0:0:0:
144,238,82030,6,0,L|198:238,2,54,8|0|0,3:0|3:0|3:0,0:0:0:0:
119,245,82367,1,2,3:0:0:0:
313,27,82704,6,0,P|391:37|438:117,1,162,4|0,0:0|0:0,0:0:0:0:
485,238,83209,2,0,P|438:248|379:231,1,81,2|0,0:0|0:0,0:0:0:0:
262,269,83546,2,0,P|257:228|267:189,1,81,2|0,0:0|0:0,0:0:0:0:
177,74,83883,6,0,P|178:138|131:238,1,162,4|0,0:0|0:0,0:0:0:0:
57,148,84389,1,8,0:0:0:0:
57,261,84558,1,0,0:0:0:0:
165,297,84726,1,2,0:0:0:0:
231,205,84895,1,0,0:0:0:0:
165,113,85063,2,0,P|137:75|88:36,1,81,8|0,0:0|0:0,0:0:0:0:
232,33,85400,5,2,0:0:0:0:
270,131,85569,1,0,0:0:0:0:
366,36,85737,1,8,0:0:0:0:
411,131,85906,2,0,L|504:74,1,81,2|0,0:0|0:0,0:0:0:0:
490,210,86243,2,0,L|413:256,1,81,2|0,0:0|0:0,0:0:0:0:
286,282,86580,6,0,B|238:300|191:281|142:262|92:282,1,162,4|0,0:0|0:0,0:0:0:0:
71,355,87086,1,8,0:0:0:0:
23,270,87254,1,0,0:0:0:0:
79,190,87423,1,2,0:0:0:0:
36,103,87591,1,0,0:0:0:0:
130,80,87760,2,0,P|174:91|235:92,1,81,8|0,0:0|0:0,0:0:0:0:
320,68,88097,5,2,0:0:0:0:
342,178,88265,2,0,P|339:221|328:266,1,81,2|2,0:0|0:0,0:0:0:0:
231,203,88603,1,2,0:0:0:0:
131,148,88771,2,0,B|106:148|106:148|72:157|72:157|40:148|40:148|4:147,2,121.5,10|0|0,3:2|3:0|3:0,0:0:0:0:
215,68,89445,5,12,0:1:0:0:
144,248,90119,1,2,0:0:0:0:
215,68,90794,5,4,0:0:0:0:
286,248,91468,1,2,0:0:0:0:
340,167,91805,2,0,P|379:119|382:92,1,72.8999977752686
384,85,92142,6,0,L|392:267,1,170.09999480896,2|0,0:0|0:0,0:0:0:0:
401,277,92816,2,0,P|413:241|451:193,1,97.1999970336915,2|0,0:0|0:0,0:0:0:0:
500,279,93490,5,4,0:0:0:0:
437,94,94164,1,2,0:0:0:0:
344,64,94501,1,8,0:0:0:0:
269,126,94839,5,4,0:0:0:0:
86,58,95513,1,2,0:0:0:0:
47,147,95850,1,8,0:0:0:0:
112,218,96187,5,4,0:0:0:0:
295,282,96861,2,0,P|366:282|393:293,1,97.1999970336915,2|8,0:0|0:0,0:0:0:0:
398,194,97535,2,0,P|327:194|300:183,1,97.1999970336915
353,101,98209,1,2,0:0:0:0:
256,92,98546,2,0,L|185:88,1,48.5999985168458,8|0,0:0|0:0,0:0:0:0:
134,96,98883,6,0,P|103:104|73:121,1,48.5999985168458,4|0,0:0|0:0,0:0:0:0:
131,170,99221,2,0,P|103:185|78:209,1,48.5999985168458,8|0,0:0|0:0,0:0:0:0:
151,251,99558,6,0,P|134:278|125:311,1,48.5999985168458,2|0,0:0|0:0,0:0:0:0:
209,312,99895,2,0,P|208:344|217:377,1,48.5999985168458,8|0,0:0|0:0,0:0:0:0:
287,329,100232,6,0,P|368:323|404:314,1,97.1999970336915,4|0,0:0|0:0,0:0:0:0:
460,207,100906,2,0,L|462:94,1,97.1999970336915,2|0,0:0|0:0,0:0:0:0:
326,34,101580,6,0,P|245:40|209:49,1,97.1999970336915,8|0,0:0|0:0,0:0:0:0:
128,148,102254,2,0,L|126:261,1,97.1999970336915,2|0,0:0|0:0,0:0:0:0:
286,312,102928,6,0,B|241:295|241:295|191:299,1,97.1999970336915,4|0,0:0|0:0,0:0:0:0:
47,321,103603,2,0,B|43:271|43:271|59:226,1,97.1999970336915,2|0,0:0|0:0,0:0:0:0:
171,133,104277,6,0,B|215:149|215:149|265:145,1,97.1999970336915,8|0,0:0|0:0,0:0:0:0:
410,123,104951,2,0,B|413:172|413:172|397:217,1,97.1999970336915,2|0,0:0|0:0,0:0:0:0:
281,118,105625,5,4,0:0:0:0:
174,295,105962,1,0,0:0:0:0:
363,214,106299,1,2,0:0:0:0:
163,169,106636,1,0,0:0:0:0:
311,339,106973,5,8,0:0:0:0:
143,160,107310,1,0,0:0:0:0:
382,214,107648,1,2,0:0:0:0:
156,311,107985,1,0,0:0:0:0:
250,183,108153,1,0,3:1:0:0:
250,183,108237,1,0,3:1:0:0:
250,183,108322,5,4,3:1:0:0:
341,24,108659,1,8,3:1:0:0:
417,70,108827,1,0,3:1:0:0:
413,264,109164,1,8,3:1:0:0:
337,310,109333,1,0,3:1:0:0:
264,185,109670,5,4,3:0:0:0:
264,185,109754,1,0,3:0:0:0:
264,185,109839,2,0,L|217:233,1,48.5999985168458,8|10,3:0|3:0,0:0:0:0:
170,283,110176,5,0,3:0:0:0:
170,283,110260,1,0,3:0:0:0:
170,283,110344,1,2,3:0:0:0:
102,226,110513,2,0,L|63:235,1,24.2999992584229,0|0,3:0|3:0,0:0:0:0:
87,139,110681,2,0,L|42:133,1,24.2999992584229,8|0,3:0|3:0,0:0:0:0:
128,61,110850,2,0,L|99:46,1,24.2999992584229,0|0,3:0|3:0,0:0:0:0:
269,51,111018,6,0,P|313:55|366:49,1,81,4|0,0:0|0:0,0:0:0:0:
466,85,111355,1,8,0:0:0:0:
425,199,111524,1,0,0:0:0:0:
310,159,111692,2,0,P|266:155|213:161,1,81,2|0,0:0|0:0,0:0:0:0:
129,229,112030,1,8,0:0:0:0:
196,329,112198,6,0,B|219:338|234:330|234:330|251:338|251:338|271:334|271:334|285:345|344:353|373:317,1,162,2|0,0:0|0:0,0:0:0:0:
427,243,112704,2,0,L|446:151,1,81,2|0,0:0|0:0,0:0:0:0:
366,79,113041,2,0,L|347:171,1,81,8|0,0:0|0:0,0:0:0:0:
247,207,113378,2,0,L|267:119,1,81,2|0,0:0|0:0,0:0:0:0:
169,59,113715,6,0,L|89:98,1,81,2|0,0:0|0:0,0:0:0:0:
57,209,114052,1,8,0:0:0:0:
174,175,114221,1,0,0:0:0:0:
164,295,114389,1,8,0:0:0:0:
285,293,114558,2,0,B|286:278|308:275|308:275|311:257|311:257|337:245|355:228|362:206,1,121.5,2|0,0:0|0:0,0:0:0:0:
350,169,114895,6,0,P|326:175|219:96,1,162,4|0,0:0|0:0,0:0:0:0:
312,85,115400,2,0,P|375:84|415:103,1,81,8|0,0:0|0:0,0:0:0:0:
447,206,115737,1,8,0:0:0:0:
367,293,115906,1,6,3:0:0:0:
359,295,115990,1,0,3:0:0:0:
351,297,116074,1,8,3:0:0:0:
233,312,116243,1,8,3:0:0:0:
226,308,116327,1,0,3:0:0:0:
218,305,116412,6,0,P|178:285|143:259,1,81,2|0,3:2|0:0,0:0:0:0:
138,141,116749,2,0,P|177:160|212:186,1,81,8|0,0:0|0:0,0:0:0:0:
330,192,117086,2,0,P|365:165|404:146,1,81,2|0,0:0|0:0,0:0:0:0:
429,262,117423,1,8,0:0:0:0:
323,335,117591,6,0,P|237:344|156:322,1,162,2|0,0:0|0:0,0:0:0:0:
95,216,118097,1,8,0:0:0:0:
153,96,118265,1,0,3:0:0:0:
161,94,118350,1,0,3:0:0:0:
169,92,118434,1,2,3:0:0:0:
224,211,118603,1,0,0:0:0:0:
306,100,118771,1,8,0:0:0:0:
177,90,118940,1,0,0:0:0:0:
231,211,119108,6,0,L|293:266,1,81,2|0,0:0|0:0,0:0:0:0:
422,262,119445,1,8,0:0:0:0:
440,133,119614,1,0,3:0:0:0:
442,125,119698,1,0,3:0:0:0:
443,117,119782,2,0,L|363:46,1,81,2|0,3:0|0:0,0:0:0:0:
254,41,120119,1,8,0:0:0:0:
219,166,120288,1,0,0:0:0:0:
298,267,120456,6,0,P|250:300|206:310,1,81,2|0,0:0|0:0,0:0:0:0:
145,185,120794,1,8,0:0:0:0:
259,94,120962,1,8,0:0:0:0:
259,94,121046,1,0,0:0:0:0:
259,94,121131,1,2,0:0:0:0:
359,213,121299,1,8,0:0:0:0:
359,213,121383,1,0,0:0:0:0:
359,213,121468,5,2,0:0:0:0:
372,204,121552,1,8,0:0:0:0:
388,205,121636,1,8,0:0:0:0:
401,214,121721,1,8,0:0:0:0:
408,228,121805,6,0,L|486:249,1,81,2|0,0:0|0:0,0:0:0:0:
469,110,122142,1,8,0:0:0:0:
403,242,122310,6,0,L|482:257,1,81,2|0,0:0|0:0,0:0:0:0:
475,128,122648,1,8,0:0:0:0:
399,257,122816,6,0,L|479:265,1,81,2|0,0:0|0:0,0:0:0:0:
480,148,123153,1,8,0:0:0:0:
396,271,123322,6,0,L|476:271,1,81,6|0,0:0|0:0,0:0:0:0:
482,167,123659,2,0,L|380:160,2,81,10|0|0,0:0|0:0|0:0,0:0:0:0:
439,63,124164,2,0,L|328:30,1,81,10|0,0:0|0:0,0:0:0:0:
232,21,124501,5,2,0:0:0:0:
146,72,124670,1,0,0:0:0:0:
277,107,124839,1,8,0:0:0:0:
195,155,125007,2,0,B|165:188|165:188|151:248,1,81,2|8,0:0|0:0,0:0:0:0:
288,206,125344,2,0,L|310:271,2,40.5,2|0|8,0:0|0:0|0:0,0:0:0:0:
387,288,125681,6,0,P|320:333|233:313,1,162,4|0,0:0|0:0,0:0:0:0:
147,259,126187,2,0,L|59:260,1,81,8|0,0:0|0:0,0:0:0:0:
58,132,126524,1,0,0:0:0:0:
177,80,126692,2,0,L|181:34,1,40.5,10|2,0:0|0:0,0:0:0:0:
243,171,126861,2,0,L|240:217,1,40.5,8|8,3:2|3:2,0:0:0:0:
329,98,127030,2,0,L|375:97,1,40.5,8|0,0:0|0:0,0:0:0:0:
353,206,127198,6,0,L|403:276,1,81,6|0,0:0|0:0,0:0:0:0:
287,325,127535,2,0,L|288:375,2,40.5,0|0|8,3:2|3:2|3:2,0:2:0:0:
169,236,127872,1,8,3:2:0:0:
256,120,128041,1,8,3:2:0:0:
374,209,128209,1,8,3:2:0:0:
222,184,128378,1,2,0:0:0:0:
356,127,128546,5,4,0:0:0:0:
331,271,128715,1,8,0:0:0:0:
329,282,128799,1,0,0:0:0:0:
326,293,128883,2,0,L|310:354,3,40.5,0|0|2|0,0:0|0:0|0:0|0:0,0:0:0:0:
235,298,129221,2,0,L|216:359,3,40.5,8|0|2|0,0:0|0:0|0:0|0:0,0:0:0:0:
150,290,129558,2,0,L|131:351,3,40.5,8|0|2|0,0:0|0:0|0:0|0:0,0:0:0:0:
97,226,129895,6,0,P|103:171|90:102,1,121.5,4|0,0:0|0:0,0:0:0:0:
98,74,130232,2,0,B|111:75|129:66|129:66|154:77|183:67|183:67|209:77|233:67|233:67|256:59|283:77,1,162,10|0,0:0|0:0,0:0:0:0:
374,87,130737,1,0,0:0:0:0:
436,161,130906,1,8,0:0:0:0:
362,224,131074,1,0,0:0:0:0:
300,150,131243,6,0,B|266:146|243:156|243:156|219:150|219:150|191:161|191:161|169:150|134:153,1,162,2|0,0:0|0:0,0:0:0:0:
90,225,131749,2,0,L|27:234,1,40.5,2|0,3:2|3:2,0:0:0:0:
138,294,131917,2,0,L|111:350,2,54,4|0|0,3:3|3:2|3:2,0:0:0:0:
212,278,132254,2,0,L|232:336,2,54,4|0|0,3:2|3:2|3:2,0:0:0:0:
280,245,132591,6,0,L|345:186,1,64.8,2|0,0:0|0:0,0:0:0:0:
395,241,132928,2,0,L|471:191,1,64.8
388,157,133265,2,0,L|425:80,1,64.8
338,95,133603,1,0,0:0:0:0:
357,19,133771,1,0,0:0:0:0:
280,35,133940,5,2,0:0:0:0:
204,19,134108,1,0,0:0:0:0:
161,84,134277,2,0,P|195:92|235:93,1,64.8
223,172,134614,2,0,P|188:162|149:161,1,64.8
174,237,134951,2,0,P|206:247|246:251,1,64.8
314,249,135288,6,0,L|380:303,1,64.8,2|0,0:0|0:0,0:0:0:0:
433,255,135625,2,0,L|367:201,1,64.8
397,137,135962,2,0,L|332:147,1,64.8
294,79,136299,1,0,0:0:0:0:
252,13,136468,1,0,0:0:0:0:
179,36,136636,5,2,0:0:0:0:
178,114,136805,1,0,0:0:0:0:
252,138,136973,2,0,B|228:169|228:169|192:195,1,64.8
243,253,137310,2,0,B|205:262|205:262|160:261,1,64.8
101,256,137648,2,0,B|62:263|62:263|21:283,1,64.8
94,343,137985,6,0,L|164:339,1,64.8,2|0,0:0|0:0,0:0:0:0:
230,309,138322,2,0,L|300:305,1,64.8
365,272,138659,2,0,L|435:268,1,64.8
456,194,138996,2,0,L|391:197,1,64.8
404,120,139333,6,0,P|369:123|329:143,1,64.8,2|0,0:0|0:0,0:0:0:0:
267,158,139670,2,0,P|287:186|324:211,1,64.8
341,276,140007,2,0,P|366:255|384:229,1,64.8
456,200,140344,2,0,P|436:175|410:157,1,64.8
298,97,140682,5,4,0:0:0:0:
105,71,141018,6,0,L|56:45,2,43.2,0|0|0,3:2|3:2|3:2,0:0:0:0:
126,85,141355,1,0,3:2:0:0:
166,275,141692,6,0,L|215:301,2,43.2,0|0|0,3:2|3:2|3:2,0:0:0:0:
145,261,142030,1,4,3:1:0:0:
254,99,142367,6,0,L|303:73,2,43.2,4|0|0,3:0|3:2|3:2,0:0:0:0:
233,113,142704,1,8,3:2:0:0:
252,207,142872,1,0,0:0:0:0:
179,281,143041,1,8,0:0:0:0:
152,179,143209,5,0,0:0:0:0:
152,179,143294,1,0,0:0:0:0:
152,179,143378,1,10,0:0:0:0:
55,112,143546,1,0,0:0:0:0:
52,148,144726,5,8,0:0:0:0:
72,263,144895,1,0,0:0:0:0:
422,265,145400,5,8,0:0:0:0:
402,150,145569,1,0,0:0:0:0:
85,278,146074,5,10,0:0:0:0:
229,291,146243,1,2,0:0:0:0:
178,117,146412,1,8,0:0:0:0:
164,216,146580,1,2,0:0:0:0:
364,183,146749,5,8,0:0:0:0:
288,95,146917,1,2,0:0:0:0:
330,284,147086,1,8,0:0:0:0:
471,195,147254,1,2,0:0:0:0:
264,197,147423,6,0,B|201:173|182:101|182:101|137:118|113:113|93:99|78:76|85:54|100:40|121:39|138:54|132:71,1,291.599991101075,4|0,0:1|0:0,0:0:0:0:
256,192,148771,12,0,151131,0:0:0:0:
392,46,151468,6,0,P|356:63|316:69,1,81,4|0,0:0|0:0,0:0:0:0:
293,162,151805,2,0,P|329:145|369:139,1,81,8|0,0:0|0:0,0:0:0:0:
326,317,152142,1,0,0:0:0:0:
209,212,152310,1,0,0:0:0:0:
365,228,152479,1,8,0:0:0:0:
229,307,152648,1,0,0:0:0:0:
293,162,152816,6,0,L|237:93,1,81,2|0,0:0|0:0,0:0:0:0:
133,13,153153,1,8,0:0:0:0:
43,109,153322,1,0,0:0:0:0:
131,199,153490,2,0,L|237:235,1,81,2|0,0:0|0:0,0:0:0:0:
195,322,153827,2,0,L|307:312,1,81,8|0,0:0|0:0,0:0:0:0:
363,208,154164,5,2,0:0:0:0:
392,77,154333,1,0,0:0:0:0:
230,180,154501,1,8,0:0:0:0:
259,47,154670,1,0,0:0:0:0:
363,208,154839,1,8,0:0:0:0:
363,208,155007,2,0,L|336:292,1,81,8|0,0:0|0:0,0:0:0:0:
470,205,155344,6,0,P|454:111|488:28,1,162,4|0,0:0|0:0,0:0:0:0:
354,64,155850,2,0,L|260:26,1,81,8|8,0:0|0:0,0:0:0:0:
177,61,156187,1,2,0:0:0:0:
158,144,156355,2,0,L|82:127,1,40.5
186,219,156524,2,0,L|236:202,1,40.5,8|0,3:2|3:2,0:0:0:0:
123,271,156692,1,8,3:2:0:0:
123,271,156777,1,0,3:2:0:0:
123,271,156861,6,0,P|101:327|96:357,1,81,4|0,0:0|0:0,0:0:0:0:
193,331,157198,2,0,P|253:337|282:346,1,81,8|0,0:0|0:0,0:0:0:0:
409,338,157535,1,2,0:0:0:0:
428,242,157704,1,0,0:0:0:0:
306,202,157872,2,0,L|199:176,1,81,8|0,0:0|0:0,0:0:0:0:
98,234,158209,6,0,P|83:183|88:148,1,81,2|0,0:0|0:0,0:0:0:0:
116,58,158546,1,8,0:0:0:0:
116,58,158715,1,0,0:0:0:0:
246,111,158883,2,0,P|294:133|328:132,1,81,2|0,0:0|0:0,0:0:0:0:
417,83,159221,1,8,0:0:0:0:
417,83,159389,1,0,0:0:0:0:
441,219,159558,6,0,P|431:291|413:319,1,81,2|0,0:0|0:0,0:0:0:0:
330,300,159895,2,0,P|272:344|239:351,1,81,8|8,0:0|0:0,0:0:0:0:
244,347,160148,1,0,0:0:0:0:
223,348,160232,2,0,L|127:347,1,81,2|0,0:0|0:0,0:0:0:0:
48,242,160569,1,8,0:0:0:0:
67,129,160737,1,0,0:0:0:0:
182,48,160906,6,0,P|231:44|281:53,1,81,12|0,3:1|3:0,0:0:0:0:
262,48,161159,1,0,3:2:0:0:
262,48,161243,1,8,3:2:0:0:
369,85,161412,1,0,0:0:0:0:
369,85,161496,1,2,0:0:0:0:
369,85,161580,1,8,0:0:0:0:
279,155,161749,2,0,L|212:135,1,40.5,0|0,3:2|3:0,0:0:0:0:
366,232,161917,2,0,L|418:210,1,40.5,12|0,3:1|3:0,0:0:0:0:
302,328,162086,2,0,L|377:355,1,40.5,8|0,3:2|3:0,0:0:0:0:
169,259,162254,6,0,P|136:226|113:195,1,81,4|0,0:0|0:0,0:0:0:0:
140,71,162591,2,0,P|183:57|222:54,1,81,8|0,0:0|0:0,0:0:0:0:
336,113,162928,1,2,0:0:0:0:
287,232,163097,1,0,0:0:0:0:
199,135,163265,1,8,0:0:0:0:
293,38,163434,1,0,0:0:0:0:
416,103,163603,6,0,P|360:112|308:110,1,81,2|0,0:0|0:0,0:0:0:0:
402,224,163940,2,0,P|457:214|509:216,1,81,8|0,0:0|0:0,0:0:0:0:
358,319,164277,1,2,0:0:0:0:
283,233,164445,1,0,0:0:0:0:
200,352,164614,1,8,0:0:0:0:
125,265,164782,1,10,0:0:0:0:
198,121,164951,6,0,L|94:102,1,81,10|0,0:0|0:0,0:0:0:0:
118,106,165204,1,0,0:0:0:0:
118,106,165288,1,8,3:2:0:0:
52,224,165456,1,2,3:2:0:0:
52,224,165541,1,8,3:2:0:0:
52,224,165625,1,10,3:3:0:0:
183,300,165794,6,0,L|148:352,1,56.6999982696534,0|8,0:0|0:0,0:0:0:0:
152,348,166131,6,0,P|234:319|296:265,1,162,4|0,0:0|3:2,0:0:0:0:
309,248,166552,1,0,3:2:0:0:
331,227,166636,1,8,3:2:0:0:
357,212,166721,1,0,3:2:0:0:
384,198,166805,1,8,3:2:0:0:
409,180,166889,1,0,3:2:0:0:
431,160,166973,6,0,L|476:149,1,40.5,2|0,3:0|3:0,2:0:0:0:
383,35,167142,2,0,L|423:12,1,40.5,8|0,3:3|3:3,2:0:0:0:
294,117,167310,2,0,L|253:139,1,40.5,2|0,3:3|3:3,2:0:0:0:
196,43,167479,2,0,L|151:32,1,40.5,8|0,3:0|3:0,2:0:0:0:
117,143,167648,6,0,P|94:183|80:229,1,81,4|0,0:0|0:0,0:0:0:0:
83,215,167900,1,0,0:0:0:0:
83,215,167985,1,10,0:0:0:0:
220,281,168153,1,0,3:2:0:0:
365,186,168322,1,0,3:2:0:0:
306,349,168490,1,8,0:0:0:0:
257,182,168659,1,8,0:0:0:0:
392,287,168827,1,8,0:0:0:0:
496,196,168996,6,0,P|481:146|447:111,1,81,2|0,0:0|0:0,0:0:0:0:
334,55,169333,2,0,L|238:53,1,81,8|0,0:0|0:0,0:0:0:0:
110,181,169670,1,2,0:0:0:0:
261,154,169839,1,0,0:0:0:0:
122,92,170007,1,8,0:0:0:0:
201,223,170176,1,0,3:0:0:0:
225,64,170344,6,0,P|285:61|321:72,1,81,4|2,0:0|0:0,0:0:0:0:
355,230,170681,1,8,0:0:0:0:
178,224,170850,1,2,3:2:0:0:
316,64,171018,5,8,0:3:0:0:
263,268,171187,1,2,0:0:0:0:
130,81,171355,1,8,0:0:0:0:
356,137,171524,1,2,0:0:0:0:
94,172,171692,5,6,0:1:0:0:
316,64,171861,1,2,0:0:0:0:
164,252,172030,1,8,0:0:0:0:
164,252,172367,6,0,L|200:213,2,54,2|0|0,3:3|3:2|3:2,0:0:0:0:
194,333,172704,2,0,L|158:372,2,54,0|0|0,3:2|3:2|3:2,0:0:0:0:
105,307,173041,5,12,0:1:0:0:
379,133,175064,6,0,L|325:133,2,54,8|0|0,3:0|3:0|0:0,0:0:0:0:
404,126,175400,1,2,3:0:0:0:
210,344,175737,6,0,P|132:334|85:254,1,162,4|0,0:0|0:0,0:0:0:0:
38,133,176243,2,0,P|85:123|144:140,1,81,2|0,0:0|0:0,0:0:0:0:
261,102,176580,2,0,P|266:143|256:182,1,81,2|0,0:0|0:0,0:0:0:0:
346,297,176917,6,0,P|345:233|392:133,1,162,4|0,0:0|0:0,0:0:0:0:
445,90,177423,1,0,0:0:0:0:
495,152,177591,1,0,0:0:0:0:
497,233,177760,1,0,0:0:0:0:
455,302,177928,1,0,0:0:0:0:
379,329,178097,2,0,L|266:329,1,81
254,264,178434,6,0,P|215:302|183:318,1,86.4,2|0,0:0|0:0,0:0:0:0:
118,288,178771,2,0,L|80:310,2,43.2,8|0|0,0:0|0:0|0:0,0:0:0:0:
170,236,179108,2,0,B|168:199|168:199|176:178|176:178|173:132,2,97.2,2|0|0,3:2|3:0|3:0,0:0:0:0:
118,288,179782,5,4,0:1:0:0:
