osu file format v14

[General]
AudioFilename: miraizu.mp3
AudioLeadIn: 0
PreviewTime: 68883
Countdown: 0
SampleSet: Soft
StackLeniency: 0.7
Mode: 0
LetterboxInBreaks: 0
WidescreenStoryboard: 0

[Editor]
DistanceSpacing: 1.2
BeatDivisor: 4
GridSize: 32
TimelineZoom: 1.2

[Metadata]
Title:Miraizu
TitleUnicode:未来図
Artist:sana
ArtistUnicode:鎖那
Creator:Lasse
Version:Hard
Source:
Tags:好きになるその瞬間を。 Suki ni Naru Shunkan wo. honeyworks
BeatmapID:828116
BeatmapSetID:378196

[Difficulty]
HPDrainRate:5
CircleSize:4
OverallDifficulty:6.5
ApproachRate:8
SliderMultiplier:1.44
SliderTickRate:1

[Events]
//Background and Video events
0,0,"bg.jpg",0,0
//Break Periods
2,80207,81280
2,89645,107403
2,173241,174313
//Storyboard Layer 0 (Background)
//Storyboard Layer 1 (Fail)
//Storyboard Layer 2 (Pass)
//Storyboard Layer 3 (Foreground)
//Storyboard Sound Samples

[TimingPoints]
457,337.078651685393,4,2,3,10,1,5746
3153,-200,4,2,3,15,0,5746
3827,-200,4,2,3,20,0,5746
4501,-200,4,2,3,25,0,5746
5850,-200,4,2,3,40,0,5746
8546,-133.333333333333,4,2,3,40,0,5746
10569,-133.333333333333,4,2,3,55,0,0
11243,-100,4,2,1,50,0,0
40906,-100,4,2,3,50,0,0
42254,-133.333333333333,4,2,2,35,0,0
50344,-133.333333333333,4,2,1,50,0,0
55737,-133.333333333333,4,2,1,60,0,1
56412,-133.333333333333,4,2,1,65,0,1
57086,-133.333333333333,4,2,3,70,0,1
57128,-100,4,2,3,20,0,0
58097,-100,4,2,3,5,0,0
58434,-100,4,2,1,70,0,1
69136,-100,4,2,1,70,0,0
69221,-100,4,2,1,70,0,1
80007,-100,4,2,1,50,0,0
82030,-100,4,2,1,60,0,0
82704,-100,4,2,1,70,0,1
84052,-100,4,2,1,50,0,0
89445,-100,4,2,1,40,0,0
108322,-100,4,2,1,35,0,0
108659,-133.333333333333,4,2,1,45,0,0
109670,-133.333333333333,4,2,1,52,0,0
111018,-100,4,2,1,60,0,0
132591,-133.333333333333,4,2,2,35,0,0
140681,-133.333333333333,4,2,1,60,0,0
146074,-133.333333333333,4,2,1,60,0,1
146749,-133.333333333333,4,2,1,65,0,1
147423,-133.333333333333,4,2,3,70,0,1
147507,-133.333333333333,4,2,3,25,0,0
148434,-133.333333333333,4,2,3,10,0,0
148771,-133.333333333333,4,2,3,30,0,0
151131,-100,4,2,3,5,0,0
151468,-100,4,2,1,70,0,1
162170,-100,4,2,1,70,0,0
162254,-100,4,2,1,70,0,1
173041,-100,4,2,1,50,0,0
175063,-100,4,2,1,60,0,0
175737,-100,4,2,1,70,0,1
177086,-100,4,2,1,50,0,0
178434,-133.333333333333,4,2,1,50,0,0
179782,-133.333333333333,4,2,3,30,0,0

[Colours]
Combo1 : 220,139,122
Combo2 : 187,128,172
Combo3 : 213,42,48
Combo4 : 112,176,180

[HitObjects]
256,192,457,12,0,5176,0:0:0:0:
211,278,5850,6,0,L|127:303,2,72,2|0|0,0:0|0:0|0:0,0:0:0:0:
267,194,6861,1,0,0:0:0:0:
311,103,7198,2,0,L|395:78,2,72
231,41,8209,1,0,0:0:0:0:
83,75,8546,5,2,0:0:0:0:
87,226,8883,1,0,0:0:0:0:
214,144,9221,2,0,P|240:140|267:141,1,54.0000020599366
248,214,9558,2,0,P|274:217|301:216,1,54.0000020599366
340,151,9895,5,4,0:1:0:0:
340,151,10569,2,0,P|354:217|303:298,1,162.00000617981
256,207,11243,5,4,0:0:0:0:
250,211,11917,1,2,0:0:0:0:
142,40,12254,1,0,0:0:0:0:
30,208,12591,6,0,P|36:273|86:342,1,144,2|0,0:0|0:0,0:0:0:0:
179,351,13097,1,0,0:0:0:0:
259,290,13265,2,0,B|286:283|307:300|307:300|323:298|323:298|337:306|337:306|353:302|353:302|376:314|414:306,1,144
482,126,13940,5,4,0:0:0:0:
303,34,14277,1,8,0:0:0:0:
158,152,14614,2,0,L|68:182,2,72,2|0|0,0:0|0:0|0:0,0:0:0:0:
222,219,15119,6,0,P|295:199|368:230,1,144,4|0,0:0|0:0,0:0:0:0:
289,286,15625,2,0,L|289:331,2,36,8|0|0,3:2|3:2|3:2,2:2:0:0:
198,309,15962,2,0,L|186:352,2,36,8|0|8,3:2|3:2|3:2,2:2:0:0:
112,270,16299,1,8,3:2:0:0:
112,270,16383,1,0,3:2:0:0:
112,270,16468,1,8,3:2:0:0:
87,180,16636,6,0,P|92:118|133:34,1,144,4|8,3:0|0:0,0:0:0:0:
125,44,17142,1,0,0:0:0:0:
219,42,17310,2,0,L|305:47,1,72,8|2,0:0|0:0,0:0:0:0:
331,131,17648,2,0,L|402:135,1,72,8|2,0:0|0:0,0:0:0:0:
487,175,17985,6,0,P|482:237|441:321,1,144,2|8,0:0|0:0,0:0:0:0:
261,303,18659,1,0,0:0:0:0:
182,252,18827,1,0,0:0:0:0:
206,162,18996,1,8,0:0:0:0:
299,156,19164,1,2,0:0:0:0:
333,245,19333,6,0,P|365:222|387:193,1,72,4|0,0:0|0:0,0:0:0:0:
471,234,19670,2,0,P|478:195|472:158,1,72,8|2,0:0|0:0,0:0:0:0:
451,72,20007,2,0,P|436:39|412:12,1,72,8|0,0:0|0:0,0:0:0:0:
362,91,20344,2,0,P|329:113|307:142,1,72,8|2,0:0|0:0,0:0:0:0:
285,229,20681,5,2,0:0:0:0:
199,267,20850,1,0,0:0:0:0:
105,269,21018,2,0,B|113:234|113:234|141:178,1,72,8|0,0:0|0:0,0:0:0:0:
162,113,21355,2,0,B|185:81|185:81|210:67|210:67|244:29,2,96,2|0|0,3:2|3:0|3:0,0:0:0:0:
227,220,22030,5,4,0:1:0:0:
227,211,22704,1,2,0:0:0:0:
65,311,23041,1,2,0:0:0:0:
58,123,23378,5,0,0:0:0:0:
58,123,23546,1,0,0:0:0:0:
58,123,23715,2,0,L|57:34,1,72
149,68,24052,2,0,P|201:49|292:68,1,144,8|8,3:0|0:0,0:0:0:0:
382,225,24726,6,4,P|327:242|287:247,1,72,4|0,0:0|0:0,0:0:0:0:
219,245,25063,2,0,P|183:237|149:225,1,72,8|0,0:0|0:0,0:0:0:0:
206,152,25400,2,0,L|138:112,2,72,2|0|0,0:0|0:0|0:0,0:0:0:0:
290,199,25906,6,0,L|435:199,1,144,4|0,0:0|0:0,0:0:0:0:
494,127,26412,2,0,P|445:111|411:89,1,72,8|0,0:0|0:0,0:0:0:0:
338,70,26749,1,0,0:0:0:0:
244,66,26917,1,0,0:0:0:0:
156,100,27086,2,0,P|124:116|89:126,1,72,8|0,0:0|0:0,0:0:0:0:
73,218,27423,6,0,L|-2:244,2,72,2|0|8,0:0|0:0|0:0,0:0:0:0:
146,275,27928,2,0,P|177:258|212:248,2,72,2|0|2,0:0|0:0|0:0,0:0:0:0:
213,339,28434,1,0,0:0:0:0:
306,347,28603,6,0,B|381:344|381:344|474:306,1,144,6|0,0:0|0:0,0:0:0:0:
483,232,29108,2,0,B|487:188|487:188|479:145,1,72,8|0,0:0|0:0,0:0:0:0:
425,85,29445,1,2,0:0:0:0:
375,164,29614,1,0,0:0:0:0:
331,81,29782,2,0,B|287:76|287:76|244:85,1,72,8|0,0:0|0:0,0:0:0:0:
218,166,30119,6,0,B|262:170|262:170|305:162,2,72,2|0|8,0:0|0:0|0:0,0:0:0:0:
165,88,30625,2,0,B|121:83|121:83|78:92,2,72,2|0|10,0:0|0:0|0:0,0:0:0:0:
259,82,31131,1,8,0:0:0:0:
352,83,31299,1,8,0:0:0:0:
426,140,31468,6,0,P|435:197|415:285,1,144,4|8,0:0|0:0,0:0:0:0:
247,200,32142,1,8,0:0:0:0:
162,239,32310,6,0,P|71:210|47:148,1,144
135,157,32816,1,2,0:0:0:0:
363,31,33322,2,0,P|454:60|478:122,1,144
390,115,33827,1,8,0:0:0:0:
347,297,34164,6,0,B|247:299,1,72,2|0,0:0|0:0,0:0:0:0:
240,211,34501,2,0,B|145:183,1,72,8|0,0:0|0:0,0:0:0:0:
158,97,34839,2,2,B|73:45,1,72
278,16,35344,1,2,0:3:0:0:
371,23,35513,6,0,P|429:64|453:133,1,144,2|0,0:0|0:0,0:0:0:0:
422,218,36018,1,0,0:0:0:0:
253,288,36355,1,8,3:0:0:0:
253,288,36440,1,0,3:0:0:0:
253,288,36524,1,10,3:0:0:0:
345,303,36692,1,0,0:0:0:0:
320,212,36861,5,12,0:0:0:0:
271,30,37198,1,8,0:0:0:0:
89,79,37535,1,8,0:0:0:0:
138,259,37872,1,8,0:0:0:0:
258,115,38209,6,0,L|316:183,1,72,10|0,0:0|0:0,0:0:0:0:
257,250,38546,2,0,L|193:175,1,72,8|0,0:0|0:0,0:0:0:0:
163,113,38883,1,8,0:0:0:0:
349,87,39221,1,2,0:0:0:0:
304,169,39389,1,0,0:0:0:0:
368,236,39558,6,0,B|393:265|393:265|406:305,1,72,12|0,0:0|0:0,0:0:0:0:
450,215,39895,2,0,B|425:186|425:186|412:146,1,72,8|0,0:0|0:0,0:0:0:0:
349,87,40232,2,0,P|311:81|277:87,1,72,8|0,0:0|0:0,0:0:0:0:
187,110,40569,2,0,L|139:83,2,36,10|0|8,0:0|0:0|0:0,0:0:0:0:
177,203,40906,6,0,P|226:231|290:233,1,96,12|0,0:1|0:0,0:0:0:0:
312,236,41243,2,0,P|367:221|414:177,1,96,0|0,0:1|0:0,0:0:0:0:
427,160,41580,1,0,0:0:0:0:
394,19,41917,1,8,3:2:0:0:
252,52,42254,5,2,0:0:0:0:
163,146,42591,1,0,0:0:0:0:
161,216,42760,1,0,0:0:0:0:
210,266,42928,1,0,0:0:0:0:
338,253,43265,1,0,0:0:0:0:
381,130,43603,5,2,0:0:0:0:
424,7,43940,1,0,0:0:0:0:
306,61,44277,1,0,0:0:0:0:
181,26,44614,1,0,0:0:0:0:
115,49,44782,1,0,0:0:0:0:
85,113,44951,5,2,0:0:0:0:
100,239,45288,1,0,0:0:0:0:
227,224,45625,1,0,0:0:0:0:
212,94,45962,1,0,0:0:0:0:
98,155,46299,5,2,0:0:0:0:
8,47,46636,1,0,0:0:0:0:
74,18,46805,1,0,0:0:0:0:
146,24,46973,1,0,0:0:0:0:
223,128,47310,1,0,0:0:0:0:
335,57,47648,5,2,0:0:0:0:
338,186,47985,1,0,0:0:0:0:
223,128,48322,1,0,0:0:0:0:
106,68,48659,1,0,0:0:0:0:
106,202,48996,6,0,P|157:193|233:203,1,108.000004119873,2|0,0:0|0:0,0:0:0:0:
304,314,49670,2,0,P|253:323|177:313,1,108.000004119873
218,245,50176,1,0,0:0:0:0:
258,180,50344,6,0,B|286:182|312:171|312:171|380:204,1,108.000004119873,4|0,0:1|0:0,0:0:0:0:
410,137,50850,2,0,L|464:188,1,54.0000020599366
468,24,51355,1,2,0:0:0:0:
330,85,51692,6,0,P|279:94|203:84,1,108.000004119873,12|0,0:1|0:0,0:0:0:0:
73,67,52367,1,8,0:0:0:0:
46,137,52535,1,0,0:0:0:0:
61,211,52704,2,0,L|62:277,1,54.0000020599366,8|0,0:0|0:0,0:0:0:0:
100,330,53041,5,10,0:0:0:0:
147,271,53209,1,0,0:0:0:0:
147,271,54389,5,8,0:0:0:0:
194,330,54558,1,0,0:0:0:0:
350,165,55063,5,8,0:0:0:0:
303,106,55232,1,0,0:0:0:0:
350,165,55737,5,10,0:0:0:0:
404,232,55906,1,2,0:0:0:0:
319,247,56074,2,0,P|293:263|254:273,1,54.0000020599366,8|2,0:0|0:0,0:0:0:0:
198,216,56412,2,0,P|224:200|263:190,1,54.0000020599366,8|2,0:0|0:0,0:0:0:0:
269,111,56749,1,8,0:0:0:0:
204,54,56917,1,2,0:0:0:0:
170,134,57086,5,4,0:1:0:0:
256,192,57170,12,0,58097,0:0:0:0:
115,45,58434,6,0,P|70:42|23:74,1,72,4|0,0:0|0:0,0:0:0:0:
94,141,58771,2,0,L|121:215,1,72,8|0,0:0|0:0,0:0:0:0:
62,292,59108,2,0,P|131:307|214:255,1,144,2|8,0:0|0:0,0:0:0:0:
284,324,59614,6,0,P|348:294|417:309,1,144
419,209,60119,2,0,P|427:155|439:120,1,72,8|0,0:0|0:0,0:0:0:0:
332,157,60456,2,0,P|324:211|312:246,1,72,2|0,0:0|0:0,0:0:0:0:
231,177,60794,2,0,L|132:171,1,72,8|0,0:0|0:0,0:0:0:0:
89,100,61131,5,2,0:0:0:0:
66,198,61299,1,0,0:0:0:0:
83,297,61468,2,0,P|117:322|165:337,1,72,8|0,0:0|0:0,0:0:0:0:
244,344,61805,1,8,0:0:0:0:
247,243,61973,1,2,0:0:0:0:
475,276,62310,6,0,P|480:196|444:124,1,144,4|0,0:0|0:0,0:0:0:0:
378,74,62816,1,8,0:0:0:0:
279,51,62985,1,0,0:0:0:0:
186,89,63153,1,2,0:0:0:0:
96,61,63322,2,0,L|64:42,2,36,0|0|8,3:2|3:0|3:2,0:0:0:0:
84,154,63659,1,8,3:0:0:0:
84,154,63743,1,0,3:0:0:0:
84,154,63827,6,0,L|84:256,1,72,2|0,0:0|0:0,0:0:0:0:
45,311,64164,2,0,P|82:318|140:301,1,72,8|0,0:0|0:0,0:0:0:0:
169,235,64501,1,2,0:0:0:0:
251,279,64670,1,0,0:0:0:0:
295,196,64839,2,0,L|385:241,1,72,8|0,0:0|0:0,0:0:0:0:
421,307,65176,6,0,P|450:273|459:232,1,72,2|0,0:0|0:0,0:0:0:0:
464,146,65513,2,0,P|460:101|437:66,1,72,8|0,0:0|0:0,0:0:0:0:
367,138,65850,1,2,0:0:0:0:
269,113,66018,1,0,0:0:0:0:
169,98,66187,2,0,P|172:142|195:177,1,72,8|0,0:0|0:0,0:0:0:0:
264,228,66524,6,0,P|211:264|126:248,1,144,4|8,0:0|0:0,0:0:0:0:
119,55,67198,2,0,L|53:85,1,72,8|0,0:0|0:0,0:0:0:0:
146,127,67535,2,0,L|211:157,1,72,8|0,0:0|0:0,0:0:0:0:
307,127,67872,5,12,0:1:0:0:
380,196,68041,2,0,L|428:227,2,36,2|0|8,3:2|3:2|3:2,0:2:0:0:
322,278,68378,2,0,L|370:309,2,36,2|0|8,3:2|3:2|3:2,0:2:0:0:
222,261,68715,1,2,3:2:0:0:
222,261,68799,1,0,3:2:0:0:
222,261,68883,2,0,B|175:266|175:266|139:260,1,72,12|0,3:1|3:0,0:0:0:0:
180,359,69221,6,0,P|246:349|283:355,1,72,4|0,0:0|0:0,0:0:0:0:
351,358,69558,1,8,0:0:0:0:
449,338,69726,1,0,0:0:0:0:
496,249,69895,2,0,P|430:239|393:245,1,72,2|0,0:0|0:0,0:0:0:0:
325,255,70232,1,8,0:0:0:0:
224,249,70400,1,0,0:0:0:0:
128,217,70569,6,0,L|51:217,1,72,2|0,0:0|0:0,0:0:0:0:
93,123,70906,2,0,L|6:122,1,72,8|0,0:0|0:0,0:0:0:0:
81,41,71243,1,2,0:0:0:0:
179,65,71412,1,0,0:0:0:0:
194,164,71580,2,0,L|231:236,1,72,8|0,0:0|0:0,0:0:0:0:
321,225,71917,6,0,L|358:153,1,72,2|0,0:0|3:0,0:0:0:0:
406,74,72254,1,8,3:2:0:0:
452,163,72423,1,0,3:2:0:0:
452,163,72507,1,0,3:2:0:0:
452,163,72591,2,0,L|489:235,1,72,10|0,3:2|0:0,0:0:0:0:
309,328,73097,6,0,P|240:338|166:315,1,144,4|0,0:0|0:0,0:0:0:0:
100,243,73603,1,8,0:0:0:0:
156,159,73771,1,0,0:0:0:0:
252,190,73940,2,0,L|249:267,1,72,2|0,3:2|3:2,0:0:0:0:
345,231,74277,2,0,L|348:154,1,72,8|0,3:2|3:2,0:0:0:0:
352,58,74614,5,2,0:0:0:0:
253,39,74782,1,0,0:0:0:0:
152,43,74951,2,0,L|70:62,1,72,8|0,0:0|0:0,0:0:0:0:
48,154,75288,1,2,0:0:0:0:
96,242,75456,1,0,0:0:0:0:
175,303,75625,2,0,L|274:316,1,72,8|0,0:0|0:0,0:0:0:0:
347,305,75962,6,0,P|331:261|295:226,1,72,10|0,0:0|0:0,0:0:0:0:
217,217,76299,1,8,0:0:0:0:
251,121,76468,1,0,0:0:0:0:
162,72,76636,2,0,P|195:38|242:22,1,72,2|0,0:0|0:0,0:0:0:0:
316,45,76973,1,8,0:0:0:0:
251,121,77142,1,0,0:0:0:0:
211,213,77310,6,0,L|187:290,1,72,8|2,0:0|0:0,0:0:0:0:
295,213,77648,2,0,L|319:290,1,72,8|2,0:0|0:0,0:0:0:0:
402,334,77985,1,8,0:0:0:0:
465,256,78153,1,2,0:0:0:0:
382,197,78322,2,0,L|358:120,1,72,8|2,0:0|0:0,0:0:0:0:
256,54,78659,5,12,0:1:0:0:
158,114,78827,1,2,0:0:0:0:
212,215,78996,2,0,L|188:292,1,72,8|0,0:0|0:0,0:0:0:0:
76,304,79333,2,0,L|45:380,2,48,8|0|0,3:2|3:2|3:2,3:2:0:0:
104,231,79670,2,0,L|134:154,2,48,8|0|0,3:2|3:2|3:2,3:2:0:0:
26,235,80007,5,4,0:0:0:0:
384,229,82030,6,0,P|410:164|397:66,1,144,8|2,3:0|3:0,0:0:0:0:
180,137,82704,6,0,L|333:145,1,144,4|0,0:0|0:0,0:0:0:0:
261,47,83209,1,2,0:0:0:0:
253,277,83546,1,2,0:0:0:0:
62,148,83883,6,0,P|82:72|148:28,1,144,4|0,0:0|0:0,0:0:0:0:
246,42,84389,2,0,L|320:48,1,72,8|0,0:0|0:0,0:0:0:0:
402,126,84726,1,2,0:0:0:0:
295,169,84895,1,0,0:0:0:0:
239,269,85063,2,0,L|165:275,1,72,8|0,0:0|0:0,0:0:0:0:
61,227,85400,5,2,0:0:0:0:
134,137,85569,1,0,0:0:0:0:
364,146,85906,1,2,0:0:0:0:
155,244,86243,1,2,0:0:0:0:
278,49,86580,6,0,P|362:27|420:32,1,144,4|0,0:0|0:0,0:0:0:0:
481,127,87086,1,8,0:0:0:0:
368,148,87254,1,0,0:0:0:0:
277,220,87423,2,0,P|307:243|354:263,1,72,2|0,0:0|0:0,0:0:0:0:
240,320,87760,2,0,P|210:297|163:277,1,72,8|0,0:0|0:0,0:0:0:0:
179,181,88097,5,2,0:0:0:0:
236,98,88265,2,0,L|320:95,1,72,2|2,0:0|0:0,0:0:0:0:
374,19,88603,1,2,0:0:0:0:
435,98,88771,2,0,B|443:142|443:142|432:164|432:164|435:211,2,108,10|0|0,3:2|3:0|3:0,0:0:0:0:
494,16,89445,5,12,0:1:0:0:
256,235,108153,5,0,3:1:0:0:
256,235,108237,1,0,3:1:0:0:
256,235,108322,1,4,3:1:0:0:
320,74,108659,2,0,L|363:36,1,54.0000020599366,8|0,3:0|2:0,2:0:0:0:
193,81,109164,2,0,L|150:43,1,54.0000020599366,8|0,3:0|2:0,2:0:0:0:
257,183,109670,5,4,3:0:0:0:
257,183,109754,1,0,3:0:0:0:
257,183,109839,2,0,L|258:258,1,54.0000020599366,0|10,3:0|3:0,0:0:0:0:
299,313,110176,2,0,L|330:347,2,27.0000010299683,0|0|2,3:0|3:0|3:0,0:0:0:0:
371,265,110513,2,0,L|397:266,2,27.0000010299683,0|0|8,3:0|3:0|3:0,0:0:0:0:
388,180,110850,1,0,3:0:0:0:
388,180,110934,1,0,3:0:0:0:
388,180,111018,6,0,L|389:80,1,72,4|0,0:0|0:0,0:0:0:0:
303,30,111355,1,8,0:0:0:0:
209,97,111524,1,0,0:0:0:0:
108,42,111692,2,0,P|87:100|89:127,1,72,2|0,0:0|0:0,0:0:0:0:
129,217,112030,1,8,0:0:0:0:
108,329,112198,6,0,B|139:337|167:320|167:320|185:326|185:326|205:317|205:317|232:324|274:318,1,144,2|0,0:0|0:0,0:0:0:0:
361,318,112704,2,0,P|418:319|450:332,1,72,8|0,0:0|0:0,0:0:0:0:
482,219,113041,1,2,0:0:0:0:
468,105,113209,1,0,0:0:0:0:
378,31,113378,2,0,P|321:30|289:17,1,72,8|0,0:0|0:0,0:0:0:0:
214,94,113715,6,0,P|271:95|303:108,1,72,2|0,0:0|0:0,0:0:0:0:
328,206,114052,1,8,0:0:0:0:
224,258,114221,1,0,0:0:0:0:
146,172,114389,2,0,L|75:142,2,72,8|0|0,0:0|0:0|0:0,0:0:0:0:
248,119,114895,6,0,P|304:94|401:119,1,144,6|0,0:0|0:0,0:0:0:0:
481,167,115400,1,8,0:0:0:0:
433,272,115569,1,0,0:0:0:0:
328,223,115737,1,8,0:0:0:0:
227,272,115906,1,6,3:0:0:0:
227,272,115990,1,0,3:0:0:0:
227,272,116074,2,0,B|187:284|187:284|148:283,1,72,8|0,3:0|3:0,0:0:0:0:
64,213,116412,6,0,L|1:165,1,72,2|0,3:2|0:0,0:0:0:0:
113,125,116749,2,0,L|81:51,1,72,8|0,0:0|0:0,0:0:0:0:
194,92,117086,2,0,L|203:12,1,72,2|0,0:0|0:0,0:0:0:0:
290,95,117423,1,8,0:0:0:0:
399,130,117591,6,0,B|414:159|400:184|400:184|410:198|410:198|401:216|401:216|415:250|408:292,1,144,2|0,0:0|0:0,0:0:0:0:
318,334,118097,1,8,0:0:0:0:
222,270,118265,1,0,3:0:0:0:
222,270,118350,1,0,3:0:0:0:
222,270,118434,2,0,L|136:269,1,72,2|0,3:0|0:0,0:0:0:0:
47,215,118771,1,8,0:0:0:0:
105,114,118940,1,0,0:0:0:0:
203,172,119108,6,0,P|237:180|273:180,1,72,2|0,0:0|0:0,0:0:0:0:
287,65,119445,2,0,P|337:68|375:82,1,72,8|0,0:0|3:0,0:0:0:0:
444,151,119782,2,0,P|454:201|449:241,1,72,2|0,3:0|0:0,0:0:0:0:
378,309,120119,1,8,0:0:0:0:
335,201,120288,6,0,B|301:207|273:200|273:200|244:212|244:212|217:203|192:214,1,144
183,327,120794,1,8,0:0:0:0:
84,267,120962,2,0,L|50:298,2,36,0|0|2,0:0|0:0|0:0,0:0:0:0:
57,154,121299,1,8,0:0:0:0:
57,154,121383,1,0,0:0:0:0:
57,154,121468,2,0,L|109:72,1,72,8|8,0:0|0:0,0:0:0:0:
198,41,121805,5,6,0:0:0:0:
309,71,121973,1,0,0:0:0:0:
279,182,122142,1,8,0:0:0:0:
168,152,122310,2,0,L|131:219,2,72,2|0|8,0:0|0:0|0:0,0:0:0:0:
261,84,122816,2,0,L|298:17,2,72,2|0|8,0:0|0:0|0:0,0:0:0:0:
285,196,123322,6,0,L|335:257,1,72,2|0,0:0|0:0,0:0:0:0:
331,367,123659,2,0,P|401:344|437:263,1,144,10|0,0:0|0:0,0:0:0:0:
422,172,124164,1,10,0:0:0:0:
389,61,124333,1,0,0:0:0:0:
276,37,124501,6,0,P|237:33|192:38,1,72,2|0,0:0|0:0,0:0:0:0:
135,129,124839,1,8,0:0:0:0:
248,149,125007,2,0,P|286:155|328:171,1,72,8|2,0:0|0:0,0:0:0:0:
234,247,125344,2,0,P|198:263|161:289,1,72,8|8,0:0|0:0,0:0:0:0:
260,354,125681,6,0,B|306:364|337:330|337:330|381:347|426:327,1,144,4|0,0:0|0:0,0:0:0:0:
446,232,126187,1,8,0:0:0:0:
430,118,126355,1,0,0:0:0:0:
335,185,126524,2,0,L|254:189,1,72,2|8,0:0|0:0,0:0:0:0:
173,261,126861,2,0,L|254:265,1,72,8|8,3:2|3:2,0:0:0:0:
163,182,127198,6,0,P|120:202|94:243,1,72,6|0,0:0|0:0,0:0:0:0:
79,332,127535,2,0,L|34:359,2,36,2|0|8,3:2|3:2|3:2,0:2:0:0:
194,326,127872,1,8,3:2:0:0:
283,252,128041,2,0,L|360:258,1,72,8|8,3:2|3:2,0:2:0:0:
432,343,128378,6,0,P|466:244|442:182,1,144,2|8,0:0|0:0,0:0:0:0:
387,118,128883,2,0,L|379:66,2,36,0|0|2,0:0|0:0|0:0,0:0:0:0:
275,85,129221,2,0,L|267:33,2,36,8|0|2,0:0|0:0|0:0,0:0:0:0:
161,62,129558,2,0,L|153:10,2,36,8|0|2,0:0|0:0|0:0,0:0:0:0:
47,82,129895,6,0,P|48:126|65:169,1,72,4|0,0:0|0:0,0:0:0:0:
52,267,130232,2,0,P|83:297|126:315,1,72,10|0,0:0|0:0,0:0:0:0:
223,313,130569,2,0,P|257:303|288:284,1,72,2|0,0:0|0:0,0:0:0:0:
403,282,130906,2,0,P|411:247|411:211,1,72,8|0,0:0|0:0,0:0:0:0:
482,120,131243,6,0,B|414:76|342:111|342:111|321:88|273:76,1,216,2|2,0:0|3:2,0:0:0:0:
177,43,131917,2,0,P|122:41|76:55,1,72,4|0,3:3|0:0,0:0:0:0:
45,142,132254,1,4,3:0:0:0:
126,294,132591,5,2,0:0:0:0:
184,178,132928,1,0,0:0:0:0:
256,286,133265,1,0,0:0:0:0:
384,273,133603,1,0,0:0:0:0:
427,213,133771,1,0,0:0:0:0:
403,144,133940,5,2,0:0:0:0:
280,186,134277,1,0,0:0:0:0:
299,57,134614,1,0,0:0:0:0:
175,95,134951,1,0,0:0:0:0:
169,224,135288,5,2,0:0:0:0:
55,160,135625,1,0,0:0:0:0:
122,49,135962,1,0,0:0:0:0:
234,113,136299,1,0,0:0:0:0:
188,173,136468,1,0,0:0:0:0:
118,201,136636,5,2,0:0:0:0:
235,254,136973,1,0,0:0:0:0:
116,304,137310,1,0,0:0:0:0:
227,370,137648,1,0,0:0:0:0:
339,304,137985,5,2,0:0:0:0:
452,241,138322,1,0,0:0:0:0:
339,178,138659,1,2,0:0:0:0:
452,115,138996,1,0,0:0:0:0:
339,52,139333,6,0,P|288:64|223:104,1,108.000004119873,2|0,0:0|0:0,0:0:0:0:
240,220,140007,2,0,P|188:205|141:177,1,108.000004119873
137,264,140513,1,0,0:0:0:0:
194,312,140681,5,4,0:0:0:0:
337,264,141018,1,0,3:2:0:0:
238,149,141355,1,0,3:2:0:0:
386,123,141692,1,0,3:2:0:0:
285,9,142030,5,4,3:1:0:0:
139,50,142367,1,4,3:0:0:0:
133,201,142704,2,0,L|140:279,1,54.0000020599366,8|0,3:2|0:0,0:0:0:0:
212,266,143041,2,0,L|213:332,1,54.0000020599366,8|0,0:0|0:0,0:0:0:0:
286,303,143378,5,10,0:0:0:0:
335,246,143546,1,0,0:0:0:0:
286,303,144726,5,8,0:0:0:0:
262,230,144895,1,0,0:0:0:0:
89,59,145400,5,8,0:0:0:0:
168,42,145569,1,0,0:0:0:0:
411,128,146074,5,10,0:0:0:0:
440,209,146243,1,2,0:0:0:0:
354,198,146412,2,0,L|289:224,1,54.0000020599366,8|2,0:0|0:0,0:0:0:0:
225,180,146749,2,0,L|174:200,1,54.0000020599366,8|2,0:0|0:0,0:0:0:0:
119,266,147086,1,8,0:0:0:0:
84,187,147254,1,2,0:0:0:0:
137,118,147423,6,0,P|294:99|306:254,1,324.00001235962,4|0,0:1|0:0,0:0:0:0:
256,192,148771,12,0,151131,0:0:0:0:
394,336,151468,6,0,P|436:340|478:314,1,72,4|0,0:0|0:0,0:0:0:0:
413,240,151805,2,0,L|395:160,1,72,8|0,0:0|0:0,0:0:0:0:
453,86,152142,2,0,P|384:71|301:123,1,144,2|8,0:0|0:0,0:0:0:0:
230,53,152648,6,0,P|166:83|97:68,1,144
51,157,153153,2,0,P|43:211|31:246,1,72,8|0,0:0|0:0,0:0:0:0:
107,300,153490,2,0,P|115:246|127:211,1,72,2|0,0:0|0:0,0:0:0:0:
206,283,153827,2,0,L|305:289,1,72,8|0,0:0|0:0,0:0:0:0:
367,240,154164,5,2,0:0:0:0:
409,326,154333,1,0,0:0:0:0:
480,254,154501,2,0,P|473:212|450:167,1,72,8|0,0:0|0:0,0:0:0:0:
419,93,154839,1,8,0:0:0:0:
327,134,155007,1,8,0:0:0:0:
155,27,155344,6,0,P|87:68|48:139,1,144,4|0,0:0|0:0,0:0:0:0:
53,222,155850,1,8,0:0:0:0:
124,293,156018,1,8,0:0:0:0:
224,298,156187,1,2,0:0:0:0:
285,217,156355,2,0,L|283:173,2,36,0|0|8,0:0|0:0|3:2,0:0:0:0:
350,292,156692,1,0,3:0:0:0:
350,292,156777,1,0,3:0:0:0:
350,292,156861,6,0,L|422:219,1,72,4|0,0:0|0:0,0:0:0:0:
487,188,157198,2,0,P|459:161|401:144,1,72,8|0,0:0|0:0,0:0:0:0:
328,139,157535,1,2,0:0:0:0:
241,191,157704,1,0,0:0:0:0:
189,104,157872,2,0,L|116:59,1,72,8|0,0:0|0:0,0:0:0:0:
61,142,158209,6,0,P|32:176|23:217,1,72,2|0,0:0|0:0,0:0:0:0:
101,266,158546,2,0,P|105:311|128:346,1,72,8|0,0:0|0:0,0:0:0:0:
201,277,158883,1,2,0:0:0:0:
300,259,159052,1,0,0:0:0:0:
400,270,159221,2,0,P|397:226|374:191,1,72,8|0,0:0|0:0,0:0:0:0:
286,176,159558,6,0,P|323:120|405:104,1,144,2|8,0:0|0:0,0:0:0:0:
430,300,160232,2,0,B|465:292|465:292|496:270,1,72,2|0,0:0|0:0,0:0:0:0:
403,225,160569,2,0,B|368:233|368:233|337:255,1,72,10|2,0:0|0:0,0:0:0:0:
248,300,160906,5,4,3:1:0:0:
166,242,161074,2,0,L|121:206,2,36,2|0|8,3:2|3:0|3:0,0:0:0:0:
166,140,161412,2,0,L|121:104,2,36,2|0|8,3:2|3:0|3:0,0:0:0:0:
243,74,161749,1,2,3:0:0:0:
243,74,161833,1,0,3:0:0:0:
243,74,161917,2,0,B|280:71|280:71|326:75,1,72,12|8,3:1|3:2,0:0:0:0:
385,146,162254,6,0,P|319:156|282:150,1,72,4|0,0:0|0:0,0:0:0:0:
213,144,162591,1,8,0:0:0:0:
143,71,162760,1,0,0:0:0:0:
41,67,162928,2,0,P|65:128|89:157,1,72,2|0,0:0|0:0,0:0:0:0:
125,216,163265,1,8,0:0:0:0:
224,228,163434,1,0,0:0:0:0:
319,195,163603,6,0,L|404:170,1,72,2|0,0:0|0:0,0:0:0:0:
426,269,163940,2,0,L|513:270,1,72,8|0,0:0|0:0,0:0:0:0:
435,348,164277,1,2,0:0:0:0:
338,318,164445,1,0,0:0:0:0:
317,219,164614,2,0,L|280:147,1,72,8|10,0:0|0:0,0:0:0:0:
191,159,164951,6,0,L|154:231,1,72,10|8,0:0|0:0,0:0:0:0:
106,310,165288,1,8,3:2:0:0:
60,221,165456,1,10,3:2:0:0:
60,221,165541,1,8,3:2:0:0:
60,221,165625,2,0,L|23:149,1,72,10|4,3:3|0:1,0:0:0:0:
203,57,166131,6,0,P|272:47|346:70,1,144,4|0,0:0|0:0,0:0:0:0:
426,122,166636,1,8,2:0:0:0:
341,175,166805,1,8,2:0:0:0:
428,225,166973,2,0,L|425:302,1,72,2|8,3:2|3:0,0:0:0:0:
331,336,167310,2,0,L|334:259,1,72,8|8,3:2|3:2,0:0:0:0:
246,212,167648,5,4,0:0:0:0:
183,290,167816,1,0,0:0:0:0:
106,223,167985,2,0,L|68:149,1,72,8|8,0:0|3:2,0:0:0:0:
74,57,168322,1,2,3:2:0:0:
168,21,168490,1,8,0:0:0:0:
261,58,168659,2,0,L|299:131,1,72,8|8,0:0|0:0,0:0:0:0:
394,135,168996,6,0,P|378:179|342:214,1,72,2|0,0:0|0:0,0:0:0:0:
261,198,169333,1,8,0:0:0:0:
271,293,169501,1,0,0:0:0:0:
170,294,169670,2,0,P|182:340|215:377,1,72,2|0,0:0|0:0,0:0:0:0:
296,367,170007,1,8,0:0:0:0:
363,292,170176,1,0,3:0:0:0:
403,200,170344,6,0,L|480:176,1,72,4|2,0:0|0:0,0:0:0:0:
399,118,170681,2,0,L|314:91,1,72,8|2,0:0|3:2,0:0:0:0:
218,57,171018,1,8,0:3:0:0:
185,161,171187,1,2,0:0:0:0:
289,200,171355,2,0,L|379:229,1,72,8|2,0:0|0:0,0:0:0:0:
465,240,171692,5,6,0:1:0:0:
407,322,171861,1,2,0:0:0:0:
306,329,172030,2,0,L|204:343,1,72,8|0,0:0|0:0,0:0:0:0:
133,339,172367,2,0,L|94:397,2,48,8|0|0,3:2|3:2|3:2,3:2:0:0:
144,267,172704,2,0,L|183:209,2,48,8|0|0,3:2|3:2|3:2,3:2:0:0:
76,292,173041,5,12,0:1:0:0:
128,155,175063,6,0,P|102:220|115:318,1,144,8|2,3:0|3:0,0:0:0:0:
332,247,175737,6,0,L|179:239,1,144,4|0,0:0|0:0,0:0:0:0:
251,337,176243,1,2,0:0:0:0:
259,107,176580,1,2,0:0:0:0:
450,236,176917,6,0,B|453:284|436:309|436:309|395:318|374:369,1,144,4|0,0:0|0:0,0:0:0:0:
362,265,177423,2,0,L|293:218,1,72
293,141,177760,1,0,0:0:0:0:
293,141,177928,1,0,0:0:0:0:
213,174,178097,2,0,L|130:168,1,72
56,200,178434,6,0,P|92:239|114:258,1,72.0000027465821,2|0,0:0|0:0,0:0:0:0:
142,274,178771,2,0,P|192:289|221:295,1,72.0000027465821,8|0,0:0|0:0,0:0:0:0:
254,295,179108,6,0,B|281:304|310:299|310:299|339:328,2,81.0000030899049,2|0|0,3:2|3:0|3:0,0:0:0:0:
287,229,179782,5,4,0:1:0:0:
