osu file format v14

[General]
AudioFilename: miraizu.mp3
AudioLeadIn: 0
PreviewTime: 68883
Countdown: 0
SampleSet: Soft
StackLeniency: 0.5
Mode: 0
LetterboxInBreaks: 0
WidescreenStoryboard: 0

[Editor]
DistanceSpacing: 2.4
BeatDivisor: 4
GridSize: 16
TimelineZoom: 3.4

[Metadata]
Title:Miraizu
TitleUnicode:未来図
Artist:sana
ArtistUnicode:鎖那
Creator:Lasse
Version:Forever
Source:
Tags:好きになるその瞬間を。 Suki ni Naru Shunkan wo. honeyworks
BeatmapID:890467
BeatmapSetID:378196

[Difficulty]
HPDrainRate:6.5
CircleSize:4
OverallDifficulty:8.9
ApproachRate:9.2
SliderMultiplier:1.76
SliderTickRate:1

[Events]
//Background and Video events
0,0,"bg.jpg",0,0
//Break Periods
2,80207,81460
2,173241,174493
//Storyboard Layer 0 (Background)
//Storyboard Layer 1 (Fail)
//Storyboard Layer 2 (Pass)
//Storyboard Layer 3 (Foreground)
//Storyboard Sound Samples

[TimingPoints]
457,337.078651685393,4,2,3,10,1,5746
3153,-200,4,2,3,15,0,5746
3827,-200,4,2,3,20,0,5746
4501,-200,4,2,3,25,0,5746
5176,-200,4,2,3,40,0,5746
8546,-166.666666666667,4,2,3,40,0,5746
10569,-166.666666666667,4,2,3,55,0,0
11159,-138.888888888889,4,2,3,10,0,0
11243,-111.111111111111,4,2,1,50,0,0
13771,-100,4,2,1,40,0,0
13940,-100,4,2,1,50,0,0
15119,-100,4,2,1,50,0,0
16636,-100,4,2,1,50,0,0
31468,-117.647058823529,4,2,1,50,0,0
36861,-100,4,2,1,50,0,0
40906,-100,4,2,3,50,0,0
42254,-125,4,2,2,35,0,0
50344,-166.666666666667,4,2,1,50,0,0
55737,-100,4,2,1,60,0,1
56412,-100,4,2,1,65,0,1
57086,-100,4,2,3,70,0,1
57128,-100,4,2,3,20,0,0
58097,-100,4,2,3,5,0,0
58434,-86.9565217391304,4,2,1,70,0,1
61973,-200,4,2,1,70,0,1
62142,-200,4,2,3,30,0,1
62310,-86.9565217391304,4,2,1,70,0,1
69136,-86.9565217391304,4,2,1,70,0,0
69221,-86.9565217391304,4,2,1,70,0,1
72760,-200,4,2,1,70,0,1
72928,-200,4,2,3,30,0,1
73097,-86.9565217391304,4,2,1,70,0,1
80007,-86.9565217391304,4,2,1,50,0,0
82030,-100,4,2,1,60,0,0
82704,-100,4,2,1,70,0,1
84052,-100,4,2,1,50,0,0
90119,-166.666666666667,4,2,4,35,0,0
92058,-166.666666666667,4,2,4,5,0,0
92142,-166.666666666667,4,2,4,35,0,0
92732,-166.666666666667,4,2,4,5,0,0
92816,-166.666666666667,4,2,4,35,0,0
96524,-166.666666666667,4,2,4,17,0,0
96861,-166.666666666667,4,2,4,35,0,0
108321,-166.666666666667,4,2,1,35,0,0
108659,-166.666666666667,4,2,1,45,0,0
109670,-166.666666666667,4,2,1,52,0,0
111018,-100,4,2,1,60,0,0
114558,-133.333333333333,4,2,1,60,0,0
114810,-100,4,2,3,10,0,0
114895,-100,4,2,1,60,0,0
128546,-125,4,2,1,60,0,0
128883,-100,4,2,1,60,0,0
129221,-86.9565217391304,4,2,1,60,0,0
129557,-76.9230769230769,4,2,1,60,0,0
129895,-68.9655172413793,4,2,1,60,0,0
130148,-100,4,2,3,10,0,0
130232,-83.3333333333333,4,2,1,60,0,0
130485,-100,4,2,1,60,0,0
131243,-100,4,2,1,60,0,0
132591,-125,4,2,2,35,0,0
140681,-125,4,2,1,60,0,0
146074,-100,4,2,1,60,0,1
146749,-100,4,2,1,65,0,1
147423,-166.666666666667,4,2,3,70,0,1
147507,-166.666666666667,4,2,3,25,0,0
148434,-166.666666666667,4,2,3,10,0,0
148771,-166.666666666667,4,2,3,30,0,0
150162,-166.666666666667,4,2,3,50,0,0
151131,-100,4,2,3,5,0,0
151468,-86.9565217391304,4,2,1,70,0,1
155007,-200,4,2,1,70,0,1
155176,-200,4,2,3,30,0,1
155344,-86.9565217391304,4,2,1,70,0,1
162170,-86.9565217391304,4,2,1,70,0,0
162254,-86.9565217391304,4,2,1,70,0,1
165794,-200,4,2,1,75,0,1
165962,-200,4,2,3,30,0,1
166131,-86.9565217391304,4,2,1,70,0,1
173041,-86.9565217391304,4,2,1,50,0,0
175063,-100,4,2,1,60,0,0
175737,-100,4,2,1,70,0,1
177086,-100,4,2,1,50,0,0
178434,-125,4,2,1,50,0,0
179782,-200,4,2,3,30,0,0

[Colours]
Combo1 : 220,139,122
Combo2 : 187,128,172
Combo3 : 213,42,48
Combo4 : 112,176,180

[HitObjects]
256,192,457,12,0,4839,0:0:0:0:
176,132,5176,6,0,P|152:208|184:252,1,132
225,189,5850,2,0,B|295:188|295:188|351:227,1,132,2|0,0:0|0:0,0:0:0:0:
377,291,6524,6,0,P|419:242|408:179,1,132
348,114,7198,2,0,L|332:58,1,44
260,100,7535,2,0,L|218:59,1,44
186,141,7872,2,0,P|135:176|55:153,1,132
116,98,8546,6,0,B|119:199|119:199|100:225|98:266,1,158.399995166016,2|0,0:0|0:0,0:0:0:0:
197,257,9221,2,0,L|265:248,1,52.7999983886719
311,170,9558,2,0,L|243:161,1,52.7999983886719
189,63,9895,5,4,0:1:0:0:
189,63,10569,6,0,B|172:76|172:76|159:66|159:66|147:79|147:79|118:68|81:73|46:106|49:145,1,184.799994360352
122,148,11243,6,0,B|156:168|167:200|167:200|221:230|272:176,1,158.399995166016,4|0,0:0|0:0,0:0:0:0:
415,38,11917,1,2,0:0:0:0:
489,235,12254,2,0,P|434:249|391:231,1,79.1999975830079
319,147,12591,6,0,B|285:156|266:219|266:219|245:245|194:251,1,158.399995166016,2|0,0:0|0:0,0:0:0:0:
135,145,13097,1,0,0:0:0:0:
64,235,13265,2,0,P|69:284|83:321,1,79.1999975830079,2|0,0:0|0:0,0:0:0:0:
224,325,13603,2,0,P|218:275|204:238,1,79.1999975830079
87,97,13940,5,4,0:0:0:0:
64,235,14108,1,0,0:0:0:0:
194,111,14277,1,8,0:0:0:0:
207,249,14445,1,0,0:0:0:0:
46,160,14614,1,2,0:0:0:0:
148,51,14782,1,8,0:0:0:0:
164,44,15119,5,4,0:0:0:0:
178,33,15456,5,8,3:2:0:0:
167,60,15541,1,0,3:2:0:0:
183,87,15625,1,8,3:2:0:0:
172,115,15709,1,0,3:2:0:0:
187,140,15794,1,8,3:2:0:0:
177,168,15878,1,0,3:2:0:0:
192,194,15962,5,10,3:2:0:0:
226,166,16046,1,0,3:2:0:0:
268,155,16131,1,8,3:2:0:0:
311,162,16215,1,0,3:2:0:0:
349,183,16299,5,10,3:2:0:0:
366,136,16383,1,0,3:2:0:0:
333,98,16468,1,8,3:2:0:0:
284,107,16552,1,0,3:2:0:0:
268,155,16636,6,0,P|267:198|285:237,1,88,10|0,3:3|0:0,0:0:0:0:
433,344,16973,2,0,P|432:299|414:260,1,88,8|0,0:0|0:0,0:0:0:0:
268,155,17310,1,2,0:0:0:0:
328,327,17479,1,0,0:0:0:0:
380,155,17648,1,8,0:0:0:0:
239,261,17816,1,2,0:0:0:0:
215,26,17985,6,0,L|338:60,1,88,2|0,0:0|0:0,0:0:0:0:
239,261,18322,1,8,0:0:0:0:
184,122,18490,1,0,0:0:0:0:
375,188,18659,2,0,L|338:312,1,88,2|0,0:0|0:0,0:0:0:0:
140,213,18996,1,8,0:0:0:0:
278,158,19164,1,0,0:0:0:0:
250,351,19333,5,4,0:0:0:0:
210,192,19501,1,2,0:0:0:0:
349,272,19670,1,8,0:0:0:0:
152,292,19839,1,2,0:0:0:0:
278,158,20007,5,12,0:3:0:0:
250,351,20176,1,2,0:0:0:0:
347,145,20344,5,8,0:0:0:0:
319,360,20513,1,2,0:0:0:0:
416,132,20681,5,8,0:0:0:0:
389,366,20850,1,2,0:0:0:0:
278,248,21018,1,8,0:0:0:0:
278,248,21355,6,0,P|248:250|220:257,2,58.6666666666667,10|0|0,3:2|3:0|3:0,0:0:0:0:
324,320,21692,2,0,P|295:326|266:328,2,58.6666666666667,8|0|0,3:0|3:0|3:0,0:0:0:0:
387,265,22030,5,4,0:1:0:0:
387,265,22704,1,2,0:0:0:0:
212,143,23041,1,2,0:0:0:0:
387,265,23378,5,0,0:0:0:0:
297,316,23546,1,0,0:0:0:0:
214,382,23715,1,0,0:0:0:0:
158,292,23883,1,0,0:0:0:0:
90,213,24052,6,0,B|61:204|61:204|21:201,2,58.6666666666667,8|8|8,3:0|3:0|3:0,0:0:0:0:
47,276,24389,1,8,0:0:0:0:
240,41,24726,6,0,L|130:21,1,88,4|0,0:0|0:0,0:0:0:0:
35,62,25063,1,8,0:0:0:0:
32,202,25232,2,0,B|76:219|76:219|118:217,1,88,2|0,0:0|0:0,0:0:0:0:
229,117,25569,2,0,B|185:100|185:100|142:101,1,88,2|0,0:0|0:0,0:0:0:0:
218,230,25906,1,4,0:0:0:0:
440,351,26243,5,0,0:0:0:0:
294,266,26412,1,8,0:0:0:0:
430,266,26580,1,0,0:0:0:0:
277,360,26749,2,0,P|221:325|195:287,1,88
207,132,27086,1,8,0:0:0:0:
382,137,27254,1,8,0:0:0:0:
382,137,27339,1,0,0:0:0:0:
382,137,27423,5,2,0:0:0:0:
341,283,27591,1,0,0:0:0:0:
161,235,27760,1,8,0:0:0:0:
210,56,27928,2,0,L|316:80,1,88,2|0,0:0|0:0,0:0:0:0:
199,156,28265,2,0,L|81:177,1,88,2|0,0:0|0:0,0:0:0:0:
271,208,28603,6,0,B|271:255|271:255|293:286|286:339|286:339|275:310|252:303,1,176,6|0,0:0|0:0,0:0:0:0:
107,286,29108,1,8,0:0:0:0:
222,365,29277,1,0,0:0:0:0:
105,364,29445,2,0,B|59:347|59:347|22:295,1,88,2|0,0:0|0:0,0:0:0:0:
36,174,29782,2,0,B|58:142|58:142|104:125,1,88,8|0,0:0|0:0,0:0:0:0:
258,73,30119,5,2,0:0:0:0:
204,212,30288,1,0,0:0:0:0:
166,58,30456,1,8,0:0:0:0:
350,102,30625,2,0,L|370:225,1,88,2|0,0:0|0:0,0:0:0:0:
204,212,30962,1,10,0:0:0:0:
160,209,31046,1,0,0:0:0:0:
118,192,31131,1,8,0:0:0:0:
68,62,31299,1,8,0:0:0:0:
110,49,31383,1,0,0:0:0:0:
154,52,31468,6,0,L|262:51,2,74.8000014266968,4|0|8,0:0|0:0|0:0,0:0:0:0:
46,316,32142,1,8,0:0:0:0:
147,232,32310,2,0,P|218:213|302:244,1,149.600002853394,2|2,0:0|0:0,0:0:0:0:
217,346,32816,5,2,0:0:0:0:
361,109,33322,2,0,L|361:22,2,74.8000014266968,0|2|0,0:0|0:0|3:2,0:0:0:0:
423,224,33827,1,8,3:2:0:0:
149,100,34164,5,2,0:0:0:0:
87,202,34333,1,0,0:0:0:0:
221,205,34501,2,0,P|275:218|326:216,1,74.8000014266968,8|0,0:0|0:0,0:0:0:0:
362,336,34839,2,0,P|308:323|257:325,1,74.8000014266968
388,220,35176,1,0,0:0:0:0:
286,145,35344,1,0,0:0:0:0:
388,42,35513,6,0,P|414:69|427:104,1,74.8000014266968,2|0,0:0|0:0,0:0:0:0:
427,112,35765,1,0,0:0:0:0:
427,120,35850,1,2,0:0:0:0:
286,157,36018,1,8,0:0:0:0:
286,174,36103,1,0,0:0:0:0:
286,191,36187,1,2,0:0:0:0:
148,150,36355,1,8,0:0:0:0:
148,176,36440,1,0,0:0:0:0:
148,202,36524,1,10,0:0:0:0:
90,330,36692,1,2,0:0:0:0:
68,173,36861,6,0,B|66:129|66:129|81:74,1,88,12|0,0:0|0:0,0:0:0:0:
218,87,37198,2,0,B|231:128|231:128|231:185,1,88,8|0,0:0|0:0,0:0:0:0:
367,210,37535,2,0,B|343:172|343:172|328:117,1,88,8|0,0:0|0:0,0:0:0:0:
474,121,37872,1,8,0:0:0:0:
476,262,38041,1,0,0:0:0:0:
339,325,38209,6,0,P|276:337|235:339,1,88,10|0,0:0|0:0,0:0:0:0:
125,276,38546,2,0,P|60:271|20:263,1,88,8|0,0:0|0:0,0:0:0:0:
56,109,38883,2,0,P|120:113|160:121,1,88,8|0,0:0|0:0,0:0:0:0:
272,168,39221,1,2,0:0:0:0:
368,269,39389,1,0,0:0:0:0:
437,126,39558,5,12,0:0:0:0:
471,292,39726,1,0,0:0:0:0:
354,148,39895,5,8,0:0:0:0:
408,336,40063,1,0,0:0:0:0:
272,168,40232,5,8,0:0:0:0:
336,357,40400,1,0,0:0:0:0:
191,256,40569,5,8,0:0:0:0:
153,279,40653,1,0,0:0:0:0:
165,321,40737,1,8,0:0:0:0:
209,324,40822,1,0,0:0:0:0:
224,283,40906,6,0,P|153:289|110:323,1,117.333333333333,12|0,0:1|0:0,0:0:0:0:
90,382,41243,2,0,P|49:344|55:281,1,117.333333333333,8|0,0:1|0:0,0:0:0:0:
70,205,41580,2,0,L|39:152,2,58.6666666666667,2|0|0,3:2|3:0|3:0,0:0:0:0:
149,183,41917,2,0,L|213:174,2,58.6666666666667,8|0|0,3:2|3:0|3:0,0:0:0:0:
147,105,42254,6,0,B|256:90,1,70.4,2|0,0:0|0:0,0:0:0:0:
302,129,42591,1,0,0:0:0:0:
347,208,42760,1,0,0:0:0:0:
429,168,42928,2,0,L|399:105,1,70.4
328,45,43265,2,0,L|240:46,1,70.4
133,44,43603,6,0,P|104:78|93:126,1,70.4,2|0,0:0|0:0,0:0:0:0:
159,194,43940,2,0,P|183:168|197:136,1,70.4
69,195,44277,1,8,0:0:0:0:
45,282,44445,1,0,0:0:0:0:
122,333,44614,1,8,0:0:0:0:
193,274,44782,1,0,0:0:0:0:
159,194,44951,6,0,B|198:193|198:193|242:200,1,70.4,2|0,0:0|0:0,0:0:0:0:
260,106,45288,2,0,B|289:133|289:133|315:169,1,70.4
321,255,45625,2,0,B|340:281|340:281|368:308,1,70.4
414,228,45962,2,0,B|444:233|444:233|483:232,1,70.4
463,87,46299,6,0,P|427:74|381:67,1,70.4,2|0,0:0|0:0,0:0:0:0:
305,86,46636,1,0,0:0:0:0:
334,172,46805,1,0,0:0:0:0:
421,199,46973,2,0,P|399:229|367:261,1,70.4
418,334,47310,2,0,P|381:340|335:339,1,70.4
250,323,47648,6,0,L|185:376,1,70.4,2|0,0:0|0:0,0:0:0:0:
177,270,47985,2,0,L|101:304,1,70.4
120,199,48322,2,0,L|36:213,1,70.4
83,115,48659,2,0,L|0:108,1,70.4
129,40,48996,6,0,P|162:56|195:87,1,70.4,2|0,0:0|0:0,0:0:0:0:
249,151,49333,2,0,P|280:163|316:166,1,70.4
284,254,49670,2,0,P|320:260|359:282,1,70.4
416,337,50007,2,0,P|449:340|484:334,1,70.4
445,243,50344,6,0,B|444:197|427:185|410:173|411:121,1,105.599996777344,4|0,0:1|0:0,0:0:0:0:
446,74,50794,2,0,L|480:24,1,35.1999989257813,8|2,2:0|2:2,0:0:0:0:
397,8,51018,2,0,B|351:8|339:25|327:42|275:41,1,105.599996777344,0|2,0:0|0:0,0:0:0:0:
224,67,51468,2,0,L|187:46,1,35.1999989257813,8|0,2:0|2:0,0:0:0:0:
151,114,51692,6,0,B|150:138|141:150|141:150|148:166|148:166|132:184|123:236,1,105.599996777344,12|0,0:1|0:0,0:0:0:0:
156,284,52142,2,0,L|139:340,1,35.1999989257813,0|0,2:0|2:0,0:0:0:0:
249,306,52367,5,8,0:0:0:0:
329,201,52535,1,0,0:0:0:0:
199,185,52704,1,8,0:0:0:0:
272,75,52872,5,0,0:0:0:0:
272,75,52956,1,0,0:0:0:0:
272,75,53041,1,10,0:0:0:0:
402,91,53209,1,0,0:0:0:0:
113,96,54389,5,8,0:0:0:0:
272,75,54558,1,0,0:0:0:0:
272,75,55063,5,8,0:0:0:0:
88,100,55232,1,0,0:0:0:0:
88,100,55737,5,10,0:0:0:0:
291,137,55906,1,2,0:0:0:0:
94,233,56074,1,8,0:0:0:0:
201,19,56243,1,2,0:0:0:0:
250,274,56412,5,8,0:0:0:0:
46,166,56580,1,2,0:0:0:0:
269,59,56749,1,8,0:0:0:0:
166,272,56917,1,2,0:0:0:0:
99,14,57086,5,4,0:1:0:0:
256,192,57128,12,0,58097,0:0:0:0:
197,211,58434,6,0,P|144:200|94:170,1,101.200001930237,4|0,0:0|0:0,0:0:0:0:
315,211,58771,2,0,P|368:200|418:170,1,101.200001930237,8|0,0:0|0:0,0:0:0:0:
302,29,59108,1,2,0:0:0:0:
256,136,59277,1,0,0:0:0:0:
362,284,59445,1,8,0:0:0:0:
408,177,59614,1,0,0:0:0:0:
302,29,59782,6,0,P|233:24|180:37,1,101.200001930237,2|0,0:0|0:0,0:0:0:0:
146,224,60119,1,8,0:0:0:0:
255,107,60288,1,0,0:0:0:0:
209,311,60456,2,0,P|147:340|90:333,1,101.200001930237,2|0,0:0|0:0,0:0:0:0:
303,311,60794,2,0,P|365:340|422:333,1,101.200001930237,8|0,0:0|0:0,0:0:0:0:
394,117,61131,5,2,0:0:0:0:
371,256,61299,1,0,0:0:0:0:
483,84,61468,1,8,0:0:0:0:
326,186,61636,1,0,0:0:0:0:
497,294,61805,1,8,0:0:0:0:
406,111,61973,6,0,L|391:160,1,44,2|0,0:0|0:0,0:0:0:0:
406,111,62310,6,0,P|290:84|219:158,1,202.400003860474,4|0,0:0|0:0,0:0:0:0:
183,265,62816,2,0,P|245:270|316:247,1,101.200001930237,8|0,0:0|0:0,0:0:0:0:
165,181,63153,1,2,0:0:0:0:
120,315,63322,1,8,3:2:0:0:
113,328,63406,1,0,3:0:0:0:
107,342,63490,5,8,3:2:0:0:
84,321,63574,1,0,3:0:0:0:
79,291,63659,1,8,3:0:0:0:
95,265,63743,1,0,3:0:0:0:
122,250,63827,6,0,B|166:252|166:252|215:288,1,101.200001930237,2|0,0:0|0:0,0:0:0:0:
358,176,64164,2,0,B|314:178|314:178|267:211,1,101.200001930237,8|0,0:0|0:0,0:0:0:0:
125,95,64501,1,2,0:0:0:0:
215,130,64670,1,0,0:0:0:0:
349,6,64839,2,0,B|305:8|305:8|258:41,1,101.200001930237,8|0,0:0|0:0,0:0:0:0:
377,195,65176,5,2,0:0:0:0:
506,109,65344,1,0,0:0:0:0:
506,261,65513,2,0,P|463:312|407:332,1,101.200001930237,8|0,0:0|0:0,0:0:0:0:
414,121,65850,1,2,0:0:0:0:
429,249,66018,1,0,0:0:0:0:
298,327,66187,2,0,P|275:264|286:205,1,101.200001930237,8|0,0:0|0:0,0:0:0:0:
144,62,66524,6,0,P|172:108|160:184,1,101.200001930237,4|0,0:0|0:0,0:0:0:0:
119,264,66861,1,8,0:0:0:0:
54,140,67030,2,0,L|103:128,1,50.6000009651184,2|0,0:0|0:0,0:0:0:0:
171,51,67198,2,0,P|199:97|187:173,1,101.200001930237,8|0,0:0|0:0,0:0:0:0:
146,253,67535,1,8,0:0:0:0:
130,116,67704,1,0,0:0:0:0:
274,237,67872,6,0,P|302:191|290:115,1,101.200001930237,6|0,3:1|3:0,0:0:0:0:
295,109,68125,1,0,3:0:0:0:
280,77,68209,1,8,3:2:0:0:
196,230,68378,1,2,3:2:0:0:
203,265,68462,1,0,3:0:0:0:
218,297,68546,1,8,3:2:0:0:
333,222,68715,2,0,L|308:161,1,50.6000009651184,8|0,3:2|3:2,0:0:0:0:
187,141,68883,1,12,3:1:0:0:
152,146,68968,1,0,3:2:0:0:
124,167,69052,1,8,3:2:0:0:
103,196,69136,1,0,3:2:0:0:
99,231,69221,6,0,L|104:332,1,101.200001930237,4|0,0:0|0:0,0:0:0:0:
293,376,69558,2,0,L|298:274,1,101.200001930237,8|0,0:0|0:0,0:0:0:0:
340,55,69895,1,2,0:0:0:0:
387,204,70063,1,0,0:0:0:0:
195,137,70232,1,8,0:0:0:0:
299,249,70400,1,0,0:0:0:0:
450,114,70569,6,0,L|509:238,1,101.200001930237,2|0,0:0|0:0,0:0:0:0:
342,340,70906,2,0,L|283:216,1,101.200001930237,8|0,0:0|0:0,0:0:0:0:
293,25,71243,1,2,0:0:0:0:
408,153,71412,1,0,0:0:0:0:
248,136,71580,1,8,0:0:0:0:
374,77,71749,1,0,0:0:0:0:
298,248,71917,6,0,P|250:262|201:250,1,101.200001930237,2|0,0:0|3:0,0:0:0:0:
178,240,72170,1,0,3:2:0:0:
156,226,72254,1,8,3:2:0:0:
323,249,72423,1,0,3:2:0:0:
346,259,72507,1,0,3:2:0:0:
368,273,72591,1,10,3:2:0:0:
226,334,72760,6,0,P|204:337|179:331,1,44,0|8,0:0|0:0,0:0:0:0:
226,334,73097,6,0,B|262:371|305:374|305:374|352:332|441:365,1,202.400003860474,4|0,0:0|0:0,0:0:0:0:
490,263,73603,1,8,0:0:0:0:
418,153,73771,1,0,0:0:0:0:
294,294,73940,1,2,0:2:0:0:
271,120,74108,2,0,P|248:110|217:106,1,50.6000009651184,0|0,3:2|3:2,0:0:0:0:
156,267,74277,1,8,3:2:0:0:
156,267,74361,1,0,3:2:0:0:
156,267,74445,1,8,3:2:0:0:
156,267,74530,1,0,3:2:0:0:
156,267,74614,6,0,L|54:267,1,101.200001930237,2|0,0:0|0:0,0:0:0:0:
121,75,74951,2,0,L|242:75,1,101.200001930237,8|0,0:0|0:0,0:0:0:0:
294,280,75288,5,2,0:0:0:0:
108,168,75456,1,0,0:0:0:0:
350,156,75625,1,8,0:0:0:0:
170,282,75794,1,0,0:0:0:0:
410,356,75962,6,0,P|446:266|447:250,1,101.200001930237,10|0,0:0|0:0,0:0:0:0:
221,173,76299,2,0,P|196:217|184:266,1,101.200001930237,8|0,0:0|0:0,0:0:0:0:
418,67,76636,5,10,2:0:0:0:
176,87,76805,1,2,2:0:0:0:
422,171,76973,1,10,2:0:0:0:
273,49,77142,1,0,2:2:0:0:
209,353,77310,5,10,2:0:0:0:
324,131,77479,1,2,2:0:0:0:
87,267,77648,1,10,2:0:0:0:
339,262,77816,1,2,2:2:0:0:
93,96,77985,5,8,2:2:0:0:
133,345,78153,1,2,2:0:0:0:
169,42,78322,5,8,2:0:0:0:
137,325,78490,1,2,2:0:0:0:
259,18,78659,5,12,2:1:0:0:
87,216,78827,1,2,2:0:0:0:
331,77,78996,1,8,2:0:0:0:
331,77,79333,6,0,L|398:68,2,67.4666679534912,10|0|0,3:2|3:0|3:0,0:0:0:0:
246,107,79670,2,0,L|185:172,2,67.4666679534912,8|0|0,3:2|3:0|3:0,0:0:0:0:
259,18,80007,5,4,0:0:0:0:
75,75,82030,6,0,L|32:36,2,58.6666666666667,8|0|0,3:0|0:0|0:0,0:0:0:0:
133,125,82367,1,2,3:0:0:0:
445,67,82704,6,0,B|445:91|445:91|436:103|436:103|438:117|438:117|428:131|428:131|432:195|372:225,1,176,4|0,0:0|0:0,0:0:0:0:
257,122,83209,2,0,P|224:159|210:209,1,88,2|0,0:0|0:0,0:0:0:0:
68,124,83546,2,0,P|101:87|115:37,1,88,2|0,0:0|0:0,0:0:0:0:
131,201,83883,6,0,P|152:288|234:335,1,176,4|0,0:0|0:0,0:0:0:0:
320,299,84389,1,8,0:0:0:0:
332,194,84558,1,0,0:0:0:0:
231,228,84726,1,2,0:0:0:0:
251,124,84895,1,0,0:0:0:0:
351,96,85063,2,0,B|394:117|394:117|418:162,1,88,8|0,0:0|0:0,0:0:0:0:
365,297,85400,5,2,0:0:0:0:
263,329,85569,1,0,0:0:0:0:
231,228,85737,1,8,0:0:0:0:
330,195,85906,2,0,L|448:190,1,88,2|0,0:0|0:0,0:0:0:0:
491,95,86243,2,0,L|370:98,1,88,2|0,0:0|0:0,0:0:0:0:
269,54,86580,6,0,B|228:65|197:49|197:49|163:55|163:55|114:34|76:64,1,176,4|0,0:0|0:0,0:0:0:0:
1,153,87086,1,8,0:0:0:0:
85,264,87254,1,0,0:0:0:0:
124,128,87423,1,2,0:0:0:0:
10,233,87591,1,0,0:0:0:0:
159,255,87760,2,0,P|203:231|236:198,1,88,8|0,0:0|0:0,0:0:0:0:
246,190,88013,1,0,0:0:0:0:
265,180,88097,5,2,0:0:0:0:
346,106,88265,2,0,P|369:142|383:185,1,88,2|2,0:0|0:0,0:0:0:0:
347,293,88603,1,2,0:0:0:0:
237,327,88771,2,0,B|199:348|170:333|145:322|80:351,2,132,10|0|0,3:2|3:0|3:0,0:0:0:0:
146,213,89445,5,12,0:1:0:0:
349,239,90119,1,2,0:0:0:0:
349,239,90794,5,4,0:0:0:0:
147,179,91468,1,2,0:0:0:0:
102,269,91805,2,0,P|140:280|187:272,1,79.1999975830079
203,264,92142,6,0,B|226:261|226:261|237:251|237:251|251:251|251:251|264:240|264:240|328:237|353:171,1,184.799994360352,2|0,0:0|0:0,0:0:0:0:
359,150,92816,2,0,B|351:115|354:95|354:95|334:76|321:53,1,105.599996777344,2|0,0:0|0:0,0:0:0:0:
217,51,93490,5,4,0:0:0:0:
217,51,94164,1,2,0:0:0:0:
136,125,94501,1,8,0:0:0:0:
136,259,94839,5,4,0:0:0:0:
136,259,95513,1,2,0:0:0:0:
214,331,95850,1,8,0:0:0:0:
351,331,96187,6,0,P|407:318|452:294,1,105.599996777344,4|0,0:0|0:0,0:0:0:0:
468,191,96861,1,2,0:0:0:0:
404,106,97198,1,0,0:0:0:0:
351,198,97535,6,0,L|268:264,1,105.599996777344,8|0,0:0|0:0,0:0:0:0:
146,202,98209,1,2,0:0:0:0:
112,68,98546,2,0,P|109:31|111:-2,1,52.7999983886719,8|0,0:0|0:0,0:0:0:0:
221,38,98883,5,4,0:0:0:0:
314,54,99052,1,0,0:0:0:0:
382,122,99221,1,8,0:0:0:0:
400,215,99389,1,0,0:0:0:0:
325,307,99558,5,2,0:0:0:0:
213,286,99726,1,0,0:0:0:0:
131,206,99895,1,8,0:0:0:0:
110,94,100063,1,0,0:0:0:0:
7,118,100232,6,0,L|31:245,1,105.599996777344,4|0,0:0|0:0,0:0:0:0:
257,146,100906,2,0,L|233:19,1,105.599996777344,2|0,0:0|0:0,0:0:0:0:
7,118,101580,6,0,P|7:175|38:232,1,105.599996777344,8|0,0:0|0:0,0:0:0:0:
257,146,102254,2,0,P|256:88|225:31,1,105.599996777344,2|0,0:0|0:0,0:0:0:0:
163,170,102928,6,0,P|164:222|185:271,1,105.599996777344,4|0,0:0|0:0,0:0:0:0:
403,198,103603,2,0,P|404:146|383:97,1,105.599996777344,2|0,0:0|0:0,0:0:0:0:
184,276,104277,6,0,L|164:172,1,105.599996777344,8|0,0:0|0:0,0:0:0:0:
384,98,104951,2,0,L|403:201,1,105.599996777344,2|0,0:0|0:0,0:0:0:0:
272,309,105625,5,4,0:0:0:0:
139,88,105962,1,0,0:0:0:0:
375,189,106299,1,2,0:0:0:0:
125,245,106636,1,0,0:0:0:0:
310,33,106973,5,8,0:0:0:0:
100,257,107310,1,0,0:0:0:0:
399,189,107648,1,2,0:0:0:0:
116,68,107985,1,0,0:0:0:0:
206,204,108153,1,0,3:2:0:0:
207,216,108237,1,0,3:2:0:0:
209,227,108322,5,4,3:1:0:0:
339,55,108659,1,8,3:1:0:0:
415,127,108827,1,0,3:1:0:0:
173,55,109164,1,8,3:1:0:0:
97,127,109333,1,0,3:1:0:0:
332,207,109670,5,4,3:0:0:0:
330,233,109754,1,0,3:0:0:0:
328,259,109839,1,8,3:0:0:0:
311,357,110007,1,10,3:2:0:0:
212,340,110176,5,4,3:0:0:0:
207,313,110260,1,0,3:0:0:0:
203,286,110344,2,0,L|190:209,1,52.7999983886719,10|0,3:0|3:0,0:0:0:0:
156,207,110597,1,0,3:0:0:0:
143,178,110681,1,8,0:0:0:0:
128,150,110765,1,0,0:0:0:0:
113,121,110850,2,0,L|72:113,1,26.399999194336,8|0,3:0|3:0,0:0:0:0:
176,45,111018,6,0,P|230:32|279:35,1,88,4|0,0:0|0:0,0:0:0:0:
403,39,111355,1,8,0:0:0:0:
318,151,111524,1,0,0:0:0:0:
415,252,111692,2,0,P|386:299|349:331,1,88,2|0,0:0|0:0,0:0:0:0:
258,224,112030,1,8,0:0:0:0:
121,255,112198,6,0,B|107:225|76:219|76:219|73:204|73:204|59:204|59:204|56:190|56:190|43:186|43:186|5:154|13:108,1,176,2|0,0:0|0:0,0:0:0:0:
114,37,112704,2,0,P|164:27|219:37,1,88,8|0,0:0|0:0,0:0:0:0:
329,107,113041,1,2,0:0:0:0:
245,230,113209,1,0,0:0:0:0:
161,104,113378,2,0,P|111:114|56:104,1,88,8|0,0:0|0:0,0:0:0:0:
103,289,113715,6,0,P|153:279|208:289,1,88,2|0,0:0|0:0,0:0:0:0:
318,358,114052,1,8,0:0:0:0:
467,347,114221,1,0,0:0:0:0:
389,199,114389,5,8,0:0:0:0:
389,60,114558,2,0,B|368:54|354:48|354:48|341:55|341:55|308:36|268:55,1,99.0000037765504,2|0,0:0|0:0,0:0:0:0:
278,47,114895,6,0,B|247:35|219:45|219:45|190:37|190:37|162:46|162:46|132:34|98:48,1,176,4|0,0:0|0:0,0:0:0:0:
151,215,115400,2,0,P|162:279|159:308,1,88,8|0,0:0|0:0,0:0:0:0:
27,233,115737,1,8,0:0:0:0:
66,104,115906,1,6,3:0:0:0:
81,88,115990,1,0,3:0:0:0:
98,75,116074,2,0,L|145:46,1,44,8|0,3:0|0:0,0:0:0:0:
200,158,116243,1,8,3:0:0:0:
219,169,116327,1,0,3:0:0:0:
248,185,116412,6,0,P|299:193|353:189,1,88,2|0,3:2|0:0,0:0:0:0:
422,59,116749,2,0,P|371:51|317:55,1,88,8|0,0:0|0:0,0:0:0:0:
183,100,117086,2,0,P|132:108|78:104,1,88,2|0,0:0|0:0,0:0:0:0:
104,265,117423,1,8,0:0:0:0:
265,347,117591,6,0,P|359:337|423:275,1,176,2|0,0:0|0:0,0:0:0:0:
466,133,118097,1,8,0:0:0:0:
347,28,118265,1,8,3:0:0:0:
326,36,118350,1,0,3:0:0:0:
305,43,118434,1,2,3:0:0:0:
240,207,118603,1,0,0:0:0:0:
114,83,118771,1,8,0:0:0:0:
272,125,118940,1,0,0:0:0:0:
287,307,119108,6,0,P|224:318|173:294,1,88,2|0,0:0|0:0,0:0:0:0:
187,136,119445,1,8,0:0:0:0:
326,194,119614,1,8,3:0:0:0:
347,194,119698,1,0,3:0:0:0:
368,194,119782,2,0,P|420:157|439:104,1,88,2|0,3:0|0:0,0:0:0:0:
269,67,120119,1,8,0:0:0:0:
243,215,120288,1,0,0:0:0:0:
117,338,120456,6,0,P|75:288|70:232,1,88,2|0,0:0|0:0,0:0:0:0:
42,118,120794,1,8,0:0:0:0:
165,46,120962,1,8,0:0:0:0:
165,46,121046,1,0,0:0:0:0:
165,46,121131,1,2,0:0:0:0:
311,70,121299,1,8,0:0:0:0:
311,70,121383,1,0,0:0:0:0:
311,70,121468,5,10,0:0:0:0:
345,97,121552,1,8,0:0:0:0:
383,75,121636,1,8,0:0:0:0:
417,102,121721,1,8,0:0:0:0:
468,75,121805,6,0,L|458:186,1,88,6|2,0:0|0:0,0:0:0:0:
311,183,122142,1,8,0:0:0:0:
478,89,122310,6,0,L|455:197,1,88,2|0,0:0|0:0,0:0:0:0:
299,196,122648,1,8,0:0:0:0:
487,108,122816,6,0,L|455:214,1,88,2|0,0:0|0:0,0:0:0:0:
286,207,123153,1,8,0:0:0:0:
495,127,123322,6,0,L|454:230,1,88,2|0,0:0|0:0,0:0:0:0:
274,220,123659,2,0,L|275:107,2,88,10|0|0,0:0|0:0|0:0,0:0:0:0:
111,276,124164,2,0,L|78:194,1,88,10|0,0:0|0:0,0:0:0:0:
213,51,124501,5,2,0:0:0:0:
287,224,124670,1,0,0:0:0:0:
123,108,124839,1,8,0:0:0:0:
287,136,125007,1,8,0:0:0:0:
182,284,125176,1,2,0:0:0:0:
210,86,125344,1,8,0:0:0:0:
240,69,125428,1,0,0:0:0:0:
272,54,125513,1,2,0:0:0:0:
415,196,125681,6,0,B|380:212|346:201|346:201|330:231|330:231|283:225|248:258,1,176,4|0,0:0|0:0,0:0:0:0:
90,209,126187,2,0,B|81:258|81:258|94:316,1,88,8|0,0:0|0:0,0:0:0:0:
262,329,126524,1,2,0:0:0:0:
186,171,126692,1,8,0:0:0:0:
180,159,126777,1,0,0:0:0:0:
174,146,126861,5,10,3:2:0:0:
160,178,126945,1,0,3:2:0:0:
165,213,127030,1,8,3:2:0:0:
163,248,127114,1,0,3:2:0:0:
170,281,127198,6,0,B|179:330|179:330|166:388,1,88,6|0,0:0|0:0,0:0:0:0:
12,355,127535,1,8,3:2:0:0:
12,355,127619,1,0,3:2:0:0:
12,355,127704,1,2,3:2:0:0:
83,214,127872,1,8,3:2:0:0:
102,327,128041,1,8,3:2:0:0:
24,158,128209,1,8,3:2:0:0:
203,192,128378,1,8,0:0:0:0:
203,192,128462,1,0,0:0:0:0:
203,192,128546,6,0,B|208:269,1,70.4,2|8,0:0|0:0,0:0:0:0:
188,108,128883,6,0,L|137:131,1,44,10|0,0:0|0:0,0:0:0:0:
319,269,129052,2,0,L|279:287,1,44,8|0,0:0|0:0,0:0:0:0:
234,87,129221,6,0,L|174:114,1,50.6000009651184,10|0,0:0|0:0,0:0:0:0:
364,247,129389,2,0,L|317:269,1,50.6000009651184,8|0,0:0|0:0,0:0:0:0:
285,62,129558,6,0,L|219:93,1,57.1999973815919,10|0,0:0|0:0,0:0:0:0:
416,223,129726,2,0,L|364:246,1,57.1999973815919,8|0,0:0|0:0,0:0:0:0:
440,48,129895,6,0,B|482:61|482:61|432:74|413:92|418:127|459:147|501:132|488:82,1,191.400005841065,6|2,0:0|0:0,0:0:0:0:
440,48,130232,6,0,B|407:50|384:38|384:38|356:69|358:110,1,105.599996777344,10|0,0:0|0:0,0:0:0:0:
358,97,130485,1,0,0:0:0:0:
354,114,130569,1,2,0:0:0:0:
287,233,130737,1,0,0:0:0:0:
272,97,130906,1,8,0:0:0:0:
362,197,131074,1,0,0:0:0:0:
230,170,131243,6,0,B|213:166|191:173|191:173|168:166|140:176|140:176|115:169|95:175|95:175|76:166|49:176,1,176,2|0,0:0|0:0,0:0:0:0:
69,256,131749,1,2,3:2:0:0:
69,256,131833,1,0,3:2:0:0:
69,256,131917,2,0,L|65:347,2,58.6666666666667,8|0|0,3:3|3:2|3:2,0:0:0:0:
159,250,132254,2,0,L|155:341,2,58.6666666666667,8|0|0,3:2|3:2|3:2,0:0:0:0:
224,167,132591,6,0,L|293:176,1,70.4,2|0,0:0|0:0,0:0:0:0:
381,148,132928,2,0,L|450:155,1,70.4
475,244,133265,2,0,L|405:234,1,70.4
313,227,133603,1,0,0:0:0:0:
270,308,133771,1,0,0:0:0:0:
230,185,133940,5,2,0:0:0:0:
189,265,134108,1,0,0:0:0:0:
103,297,134277,2,0,P|99:262|107:228,1,70.4
155,150,134614,2,0,P|155:105|131:62,1,70.4
229,42,134951,2,0,P|228:86|252:129,1,70.4
359,147,135288,6,0,B|398:152|398:152|427:146,1,70.4,2|0,0:0|0:0,0:0:0:0:
456,232,135625,2,0,B|425:256|425:256|407:281,1,70.4
368,364,135962,2,0,B|336:339|336:339|319:314,1,70.4
300,224,136299,1,0,0:0:0:0:
236,289,136468,1,2,0:0:0:0:
237,158,136636,5,0,0:0:0:0:
167,109,136805,1,2,0:0:0:0:
242,72,136973,2,0,P|277:86|316:109,1,70.4
390,103,137310,2,0,P|420:85|453:72,1,70.4
463,157,137648,2,0,P|432:174|399:187,1,70.4
420,284,137985,6,0,L|384:358,1,70.4,2|0,0:0|0:0,0:0:0:0:
343,265,138322,2,0,L|289:328,1,70.4
275,231,138659,2,0,L|205:278,1,70.4
217,181,138996,2,0,L|137:209,1,70.4
74,132,139333,6,0,P|52:163|40:206,1,70.4,2|0,0:0|0:0,0:0:0:0:
48,300,139670,2,0,P|69:326|98:347,1,70.4
204,352,140007,2,0,P|241:355|285:344,1,70.4
364,292,140344,2,0,P|376:260|379:225,1,70.4
323,117,140681,5,4,0:0:0:0:
169,68,141018,6,0,L|113:40,2,46.9333333333333,4|0|0,3:3|3:2|3:2,0:0:0:0:
168,148,141355,1,0,3:3:0:0:
407,137,141692,6,0,L|466:156,2,46.9333333333333,0|0|0,3:2|3:2|3:2,0:0:0:0:
352,194,142030,1,0,3:0:0:0:
151,325,142367,6,0,L|114:371,2,46.9333333333333,4|0|0,3:3|3:2|3:2,0:0:0:0:
202,263,142704,1,8,3:2:0:0:
274,168,142872,1,0,0:0:0:0:
155,184,143041,1,8,0:0:0:0:
220,84,143209,5,0,0:0:0:0:
220,84,143294,1,0,0:0:0:0:
220,84,143378,1,10,0:0:0:0:
100,76,143546,1,0,0:0:0:0:
406,176,144726,5,8,0:0:0:0:
380,316,144895,1,0,0:0:0:0:
329,58,145400,5,8,0:0:0:0:
406,176,145569,1,0,0:0:0:0:
204,217,146074,5,10,0:0:0:0:
406,176,146243,1,2,0:0:0:0:
210,83,146412,1,8,0:0:0:0:
318,295,146580,1,2,0:0:0:0:
366,42,146749,5,8,0:0:0:0:
154,146,146917,1,2,0:0:0:0:
392,257,147086,1,8,0:0:0:0:
287,41,147254,1,2,0:0:0:0:
191,253,147423,6,0,B|177:297|201:317|201:317|249:308|286:326|286:326|331:313|368:314|391:330|392:358|376:374|338:371|336:344,1,316.799990332032,4|0,0:1|0:0,0:0:0:0:
256,192,148771,12,0,150119,0:0:0:0:
256,192,150162,12,0,151131,0:0:0:0:
213,76,151468,6,0,L|70:67,1,101.200001930237,4|0,0:0|0:0,0:0:0:0:
290,195,151805,2,0,L|433:204,1,101.200001930237,8|0,0:0|0:0,0:0:0:0:
333,23,152142,1,2,0:0:0:0:
275,123,152310,1,0,0:0:0:0:
333,302,152479,1,8,0:0:0:0:
391,201,152648,1,0,0:0:0:0:
195,156,152816,6,0,P|192:104|209:58,1,101.200001930237,2|0,0:0|0:0,0:0:0:0:
309,214,153153,1,8,0:0:0:0:
217,276,153322,1,0,0:0:0:0:
275,123,153490,2,0,P|331:121|381:146,1,101.200001930237,2|0,0:0|0:0,0:0:0:0:
251,366,153827,2,0,P|194:366|143:341,1,101.200001930237,8|0,0:0|0:0,0:0:0:0:
94,166,154164,5,2,0:0:0:0:
259,232,154333,1,0,0:0:0:0:
122,79,154501,1,8,0:0:0:0:
180,257,154670,1,0,0:0:0:0:
326,116,154839,1,8,0:0:0:0:
128,160,155007,6,0,L|171:187,1,44,8|0,0:0|0:0,0:0:0:0:
128,160,155344,6,0,P|71:265|124:352,1,202.400003860474,4|0,0:0|0:0,0:0:0:0:
118,342,155765,1,0,0:0:0:0:
142,349,155850,1,8,0:0:0:0:
167,349,155934,1,0,0:0:0:0:
191,343,156018,1,8,0:0:0:0:
213,330,156103,1,0,0:0:0:0:
231,313,156187,5,10,0:0:0:0:
261,333,156271,1,0,0:0:0:0:
295,324,156355,1,8,0:0:0:0:
307,290,156440,1,0,0:0:0:0:
291,258,156524,5,8,3:2:0:0:
249,229,156608,1,0,3:2:0:0:
242,179,156692,1,8,3:2:0:0:
272,137,156777,1,0,3:2:0:0:
322,132,156861,6,0,B|366:134|366:134|415:170,1,101.200001930237,4|0,0:0|0:0,0:0:0:0:
290,60,157198,2,0,B|246:58|246:58|199:25,1,101.200001930237,8|0,0:0|0:0,0:0:0:0:
141,177,157535,1,2,0:0:0:0:
242,179,157704,1,0,0:0:0:0:
121,71,157872,1,8,0:0:0:0:
22,141,158041,1,0,0:0:0:0:
188,258,158209,5,2,0:0:0:0:
193,109,158378,1,0,0:0:0:0:
69,214,158546,2,0,L|94:344,1,101.200001930237,8|0,0:0|0:0,0:0:0:0:
242,179,158883,1,2,0:0:0:0:
121,71,159052,1,0,0:0:0:0:
71,232,159221,2,0,L|139:344,1,101.200001930237,8|0,0:0|0:0,0:0:0:0:
189,123,159558,6,0,P|240:107|310:139,1,101.200001930237,2|0,0:0|0:0,0:0:0:0:
375,198,159895,1,8,0:0:0:0:
241,231,160063,2,0,L|241:178,1,50.6000009651184,2|0,0:0|0:0,0:0:0:0:
188,104,160232,2,0,P|236:88|285:100,1,101.200001930237,8|0,0:0|0:0,0:0:0:0:
374,179,160569,1,8,0:0:0:0:
416,64,160737,1,0,0:0:0:0:
403,47,160822,1,0,0:0:0:0:
389,32,160906,5,6,3:1:0:0:
285,51,161074,1,0,3:2:0:0:
269,38,161159,1,0,3:2:0:0:
251,28,161243,1,8,3:2:0:0:
189,123,161412,1,2,3:2:0:0:
160,112,161496,1,0,3:2:0:0:
130,106,161580,1,8,3:2:0:0:
285,195,161749,2,0,L|352:195,1,50.6000009651184,0|0,3:2|3:2,0:0:0:0:
189,261,161917,1,12,3:1:0:0:
150,277,162001,1,0,3:2:0:0:
107,281,162086,1,8,3:2:0:0:
64,268,162170,1,0,3:2:0:0:
27,244,162254,6,0,L|34:110,1,101.200001930237,4|0,0:0|0:0,0:0:0:0:
235,51,162591,2,0,L|240:153,1,101.200001930237,8|0,0:0|0:0,0:0:0:0:
172,365,162928,1,0,0:0:0:0:
133,210,163097,1,0,0:0:0:0:
260,367,163265,1,8,0:0:0:0:
92,340,163434,1,0,0:0:0:0:
296,270,163603,6,0,L|414:288,1,101.200001930237,2|0,0:0|0:0,0:0:0:0:
234,195,163940,2,0,L|116:213,1,101.200001930237,8|0,0:0|0:0,0:0:0:0:
39,9,164277,1,2,0:0:0:0:
206,95,164445,1,0,0:0:0:0:
16,117,164614,1,8,0:0:0:0:
168,25,164782,1,10,0:0:0:0:
133,210,164951,5,10,0:0:0:0:
114,200,165035,1,0,0:0:0:0:
110,180,165119,1,8,0:0:0:0:
121,163,165204,1,0,0:0:0:0:
138,153,165288,5,8,3:2:0:0:
161,185,165372,1,0,3:2:0:0:
198,198,165456,1,10,3:2:0:0:
236,186,165541,1,0,3:2:0:0:
253,149,165625,5,10,3:3:0:0:
145,38,165794,6,0,P|114:38|88:50,1,44,12|0,0:1|0:0,0:0:0:0:
145,38,166131,6,0,B|197:37|219:60|219:60|237:50|237:50|274:85|357:68,1,202.400003860474,4|0,0:0|3:2,0:0:0:0:
350,66,166552,1,0,3:2:0:0:
365,52,166636,1,10,3:2:0:0:
383,43,166721,1,0,3:2:0:0:
402,40,166805,1,8,3:2:0:0:
420,48,166889,1,0,3:2:0:0:
433,62,166973,5,2,3:0:0:0:
430,102,167058,1,0,3:3:0:0:
443,139,167142,1,8,3:0:0:0:
431,177,167226,1,0,3:0:0:0:
442,215,167310,5,8,3:2:0:0:
403,181,167395,1,0,3:2:0:0:
352,175,167479,1,8,3:2:0:0:
314,208,167563,1,0,3:2:0:0:
304,258,167648,6,0,L|285:372,1,101.200001930237,4|0,0:0|0:0,0:0:0:0:
233,183,167985,1,2,0:0:0:0:
381,248,168153,1,8,3:2:0:0:
381,248,168237,1,0,3:2:0:0:
381,248,168322,1,2,3:2:0:0:
178,302,168490,1,8,0:0:0:0:
117,76,168659,1,8,0:0:0:0:
318,22,168827,1,8,0:0:0:0:
271,284,168996,6,0,P|226:307|177:301,1,101.200001930237,2|0,0:0|0:0,0:0:0:0:
224,39,169333,2,0,P|268:15|317:21,1,101.200001930237,8|0,0:0|0:0,0:0:0:0:
424,308,169670,5,2,2:0:0:0:
211,225,169839,1,0,2:0:0:0:
458,228,170007,1,8,2:0:0:0:
333,351,170176,1,0,2:2:0:0:
339,49,170344,5,12,2:2:0:0:
408,298,170513,1,2,2:0:0:0:
227,102,170681,1,8,2:0:0:0:
468,212,170850,1,2,2:2:0:0:
186,323,171018,5,8,2:2:0:0:
378,150,171187,1,2,2:0:0:0:
108,290,171355,5,8,2:0:0:0:
359,159,171524,1,2,2:0:0:0:
47,230,171692,5,12,2:1:0:0:
319,239,171861,1,2,2:0:0:0:
57,145,172030,1,8,2:0:0:0:
57,145,172367,6,0,B|36:81,2,67.4666679534912,10|0|0,3:2|3:0|3:0,0:0:0:0:
47,230,172704,2,0,B|26:294,2,67.4666679534912,8|0|0,3:2|3:0|3:0,0:0:0:0:
126,196,173041,5,4,0:0:0:0:
75,309,175063,6,0,L|32:348,2,58.6666666666667,8|0|0,3:0|0:0|0:0,0:0:0:0:
133,259,175400,1,2,3:0:0:0:
445,317,175737,6,0,B|445:293|445:293|436:281|436:281|438:267|438:267|428:253|428:253|432:189|383:152,1,176,4|0,0:0|0:0,0:0:0:0:
262,89,176243,2,0,L|165:74,1,88,2|0,0:0|0:0,0:0:0:0:
236,202,176580,2,0,L|333:217,1,88,2|0,0:0|0:0,0:0:0:0:
246,333,176917,6,0,P|172:329|111:217,1,176,4|0,0:0|0:0,0:0:0:0:
104,143,177423,1,0,0:0:0:0:
192,84,177591,1,0,0:0:0:0:
208,188,177760,1,0,0:0:0:0:
294,127,177928,1,0,0:0:0:0:
319,229,178097,2,0,P|363:231|432:212,1,88
490,188,178434,6,0,P|454:149|413:130,1,93.8666666666667,2|0,0:0|0:0,0:0:0:0:
365,76,178771,2,0,L|362:19,2,46.9333333333333,8|0|0,0:0|0:0|0:0,0:0:0:0:
344,148,179108,2,0,B|314:170|271:155|271:155|220:172,2,105.6,2|0|0,3:2|3:0|3:0,0:0:0:0:
365,76,179782,5,4,0:1:0:0:
