osu file format v14

[General]
AudioFilename: miraizu.mp3
AudioLeadIn: 0
PreviewTime: 68883
Countdown: 0
SampleSet: Soft
StackLeniency: 0.7
Mode: 0
LetterboxInBreaks: 0
WidescreenStoryboard: 0

[Editor]
DistanceSpacing: 1.1
BeatDivisor: 2
GridSize: 16
TimelineZoom: 1

[Metadata]
Title:Miraizu
TitleUnicode:未来図
Artist:sana
ArtistUnicode:鎖那
Creator:Lasse
Version:Advanced
Source:
Tags:好きになるその瞬間を。 Suki ni Naru Shunkan wo. honeyworks
BeatmapID:829261
BeatmapSetID:378196

[Difficulty]
HPDrainRate:4
CircleSize:4
OverallDifficulty:4.5
ApproachRate:6
SliderMultiplier:1.28
SliderTickRate:1

[Events]
//Background and Video events
0,0,"bg.jpg",0,0
//Break Periods
2,80207,81579
2,89645,107197
2,173241,174612
//Storyboard Layer 0 (Background)
//Storyboard Layer 1 (Fail)
//Storyboard Layer 2 (Pass)
//Storyboard Layer 3 (Foreground)
//Storyboard Sound Samples

[TimingPoints]
457,337.078651685393,4,2,3,10,1,5746
3153,-100,4,2,3,15,0,5746
3827,-100,4,2,3,20,0,5746
4501,-100,4,2,3,25,0,5746
5850,-100,4,2,3,40,0,5746
10569,-100,4,2,3,55,0,0
11243,-100,4,2,1,50,0,0
40906,-100,4,2,3,50,0,0
42254,-100,4,2,2,35,0,0
50344,-100,4,2,1,50,0,0
55737,-100,4,2,1,60,0,1
56412,-100,4,2,1,65,0,1
57086,-100,4,2,3,70,0,1
57128,-100,4,2,3,20,0,0
58434,-100,4,2,1,70,0,1
69136,-100,4,2,1,70,0,0
69221,-100,4,2,1,70,0,1
80007,-100,4,2,1,50,0,0
82704,-100,4,2,1,70,0,1
84052,-100,4,2,1,50,0,0
89445,-100,4,2,1,40,0,0
108322,-100,4,2,1,35,0,0
108659,-100,4,2,1,45,0,0
109670,-100,4,2,1,52,0,0
111018,-100,4,2,1,60,0,0
132423,-100,4,2,1,30,0,0
132591,-100,4,2,2,35,0,0
140681,-100,4,2,1,60,0,0
146074,-100,4,2,1,60,0,1
146749,-100,4,2,1,65,0,1
147423,-100,4,2,3,70,0,1
147507,-100,4,2,3,60,0,0
149782,-100,4,2,3,45,0,0
150119,-100,4,2,3,60,0,0
151131,-100,4,2,3,45,0,0
151468,-100,4,2,1,70,0,1
162170,-100,4,2,1,70,0,0
162254,-100,4,2,1,70,0,1
173041,-100,4,2,1,50,0,0
175737,-100,4,2,1,70,0,1
177086,-100,4,2,1,50,0,0
179782,-100,4,2,3,30,0,0

[Colours]
Combo1 : 220,139,122
Combo2 : 187,128,172
Combo3 : 213,42,48
Combo4 : 112,176,180

[HitObjects]
256,192,457,12,0,5176,0:0:0:0:
191,325,5850,6,0,P|261:341|329:310,2,128,2|0|0,0:0|0:0|0:0,0:0:0:0:
250,197,6861,1,0,0:0:0:0:
308,69,7198,2,0,P|238:53|170:84,2,128
394,180,8209,1,0,0:0:0:0:
346,312,8546,6,0,P|283:308|194:320,1,128,2|0,0:0|0:0,0:0:0:0:
109,225,9221,2,0,P|172:229|261:217,1,128
177,94,9895,1,4,0:1:0:0:
9,320,10569,1,0,0:0:0:0:
291,328,11243,6,0,P|363:319|427:321,1,128,4|0,0:0|0:0,0:0:0:0:
475,191,11917,1,2,0:0:0:0:
375,90,12254,1,0,0:0:0:0:
375,90,12423,2,0,P|320:101|179:87,1,192
74,175,13265,2,0,P|133:197|196:211,1,128
337,203,13940,5,4,0:0:0:0:
415,319,14277,1,8,0:0:0:0:
275,341,14614,2,0,P|221:349|186:345,1,64,2|0,0:0|0:0,0:0:0:0:
78,303,15119,1,4,0:0:0:0:
38,168,15456,5,0,3:2:0:0:
38,168,15625,2,0,P|29:94|42:33,1,128,10|8,3:2|0:0,0:0:0:0:
165,103,16299,2,0,L|247:102,1,64,8|10,3:2|3:2,0:0:0:0:
266,42,16636,2,0,P|299:100|264:163,1,128,4|8,0:0|0:0,0:0:0:0:
158,228,17310,1,8,0:0:0:0:
278,303,17648,1,8,0:0:0:0:
400,233,17985,6,0,L|441:104,1,128,2|8,0:0|0:0,0:0:0:0:
322,32,18659,1,0,0:0:0:0:
197,98,18996,1,8,0:0:0:0:
68,40,19333,2,0,P|56:91|74:166,1,128,4|8,0:0|0:0,0:0:0:0:
178,257,20007,1,8,0:0:0:0:
318,265,20344,1,8,0:0:0:0:
199,340,20681,5,2,0:0:0:0:
252,209,21018,1,8,0:0:0:0:
290,344,21355,1,2,3:2:0:0:
259,63,22030,5,4,0:1:0:0:
227,342,22704,2,0,P|171:364|86:359,1,128,2|0,0:0|0:0,0:0:0:0:
27,246,23378,2,0,L|30:92,1,128
159,64,24052,6,0,P|220:53|299:57,1,128,8|8,3:0|0:0,0:0:0:0:
381,158,24726,2,0,P|320:169|241:165,1,128,4|8,0:0|0:0,0:0:0:0:
184,159,25232,2,0,P|125:155|92:160,1,64,2|0,0:0|0:0,0:0:0:0:
59,190,25569,2,0,P|39:245|36:279,1,64,2|0,0:0|0:0,0:0:0:0:
56,318,25906,6,0,P|117:329|196:325,1,128,4|0,0:0|0:0,0:0:0:0:
246,297,26412,1,8,0:0:0:0:
371,234,26749,2,0,L|444:235,1,64
479,179,27086,1,8,0:0:0:0:
391,69,27423,6,0,P|348:58|316:56,1,64,2|0,0:0|0:0,0:0:0:0:
264,86,27760,1,8,0:0:0:0:
264,86,27928,2,0,P|202:90|131:89,1,128,2|2,0:0|0:0,0:0:0:0:
81,134,28434,1,0,0:0:0:0:
81,134,28603,6,0,B|69:231|69:231|81:329,1,192,6|8,0:0|0:0,0:0:0:0:
217,355,29445,1,2,0:0:0:0:
345,298,29782,1,8,0:0:0:0:
223,226,30119,5,2,0:0:0:0:
223,226,30288,2,0,P|205:192|190:148,1,64,0|8,0:0|0:0,0:0:0:0:
127,149,30625,2,0,P|146:116|240:114,1,128,2|10,0:0|0:0,0:0:0:0:
293,133,31131,1,8,0:0:0:0:
339,265,31468,6,0,P|389:221|422:149,1,128,4|8,0:0|0:0,0:0:0:0:
346,45,32142,1,8,0:0:0:0:
346,45,32310,2,0,P|279:39|205:67,1,128
167,101,32816,5,2,0:0:0:0:
222,306,33322,2,0,P|282:324|346:318,1,128
396,269,33827,1,8,3:2:0:0:
420,130,34164,6,0,L|487:130,2,64,2|0|8,0:0|0:0|0:0,0:0:0:0:
307,54,34839,1,0,0:0:0:0:
307,54,35007,2,0,P|240:42|160:71,1,128
128,101,35513,6,0,B|136:160|113:193|94:229|111:290,1,192,2|0,0:0|0:0,0:0:0:0:
247,252,36355,2,0,L|235:318,1,64,2|10,0:0|0:0,0:0:0:0:
363,376,36861,6,0,P|389:317|386:233,1,128,12|8,0:0|0:0,0:0:0:0:
332,214,37367,2,0,P|321:150|346:70,1,128
360,24,37872,1,8,0:0:0:0:
220,43,38209,6,0,L|187:179,1,128,10|8,0:0|0:0,0:0:0:0:
152,227,38715,2,0,L|184:360,1,128
252,361,39221,2,0,L|321:358,1,64,2|0,0:0|0:0,0:0:0:0:
381,332,39558,5,12,0:0:0:0:
456,213,39895,2,0,P|450:138|409:91,1,128,8|8,0:0|0:0,0:0:0:0:
281,66,40569,1,8,0:0:0:0:
189,172,40906,5,12,0:1:0:0:
94,67,41243,2,0,P|45:124|40:186,1,128,8|2,0:0|3:2,0:0:0:0:
99,302,41917,1,8,3:2:0:0:
238,318,42254,6,0,P|289:304|371:309,1,128,2|0,0:0|0:0,0:0:0:0:
498,345,42928,1,0,0:0:0:0:
488,205,43265,1,0,0:0:0:0:
346,203,43603,6,0,P|293:203|195:170,1,128,2|0,0:0|0:0,0:0:0:0:
139,69,44277,1,0,0:0:0:0:
280,60,44614,1,0,0:0:0:0:
406,121,44951,6,0,P|445:196|435:257,1,128,2|0,0:0|0:0,0:0:0:0:
350,343,45625,1,0,0:0:0:0:
298,212,45962,1,0,0:0:0:0:
220,329,46299,6,0,L|79:329,1,128,2|0,0:0|0:0,0:0:0:0:
71,189,46973,2,0,L|-11:189,2,64
177,96,47648,6,0,P|251:96|329:90,1,128,2|0,0:0|0:0,0:0:0:0:
436,41,48322,1,0,0:0:0:0:
460,179,48659,1,0,0:0:0:0:
321,203,48996,6,0,P|249:221|175:247,1,128,2|0,0:0|0:0,0:0:0:0:
108,347,49670,1,0,0:0:0:0:
248,347,50007,1,0,0:0:0:0:
376,289,50344,6,0,P|408:233|417:155,1,128,2|0,0:0|0:0,0:0:0:0:
407,101,50850,2,0,B|348:92|314:67|314:67|269:85|204:79,1,192,0|2,0:0|0:0,0:0:0:0:
85,51,51692,5,12,0:1:0:0:
48,187,52030,1,0,0:0:0:0:
184,223,52367,2,0,L|165:291,1,64,8|0,0:0|0:0,0:0:0:0:
130,344,52704,2,0,P|178:355|211:339,1,64,8|0,0:0|0:0,0:0:0:0:
252,316,53041,6,0,L|329:312,1,64,10|0,0:0|0:0,0:0:0:0:
391,115,53715,1,0,0:0:0:0:
119,42,54389,2,0,L|95:120,1,64,8|0,0:0|0:0,0:0:0:0:
72,312,55063,2,0,L|96:234,1,64,8|0,0:0|0:0,0:0:0:0:
236,98,55737,5,10,0:0:0:0:
346,187,56074,1,8,0:0:0:0:
204,180,56412,1,8,0:0:0:0:
323,102,56749,1,8,0:0:0:0:
272,235,57086,5,4,0:1:0:0:
240,53,58434,6,0,P|159:44|96:60,1,128,4|8,0:0|0:0,0:0:0:0:
53,180,59108,1,2,0:0:0:0:
120,303,59445,1,8,0:0:0:0:
120,303,59614,6,0,P|201:294|264:310,1,128
312,324,60119,1,8,0:0:0:0:
350,188,60456,1,2,0:0:0:0:
213,150,60794,1,8,0:0:0:0:
314,52,61131,6,0,P|383:49|450:95,1,128,2|8,0:0|0:0,0:0:0:0:
477,211,61805,2,0,P|481:246|480:293,1,64,2|2,0:0|0:0,0:0:0:0:
361,349,62310,6,0,P|280:340|217:356,1,128,4|0,0:0|0:0,0:0:0:0:
164,342,62816,2,0,L|35:343,1,128,8|2,0:0|0:0,0:0:0:0:
25,202,63490,1,8,3:2:0:0:
118,96,63827,5,2,0:0:0:0:
258,103,64164,1,8,0:0:0:0:
183,222,64501,1,2,0:0:0:0:
188,80,64839,2,0,P|210:48|253:30,1,64,8|0,0:0|0:0,0:0:0:0:
301,25,65176,6,0,P|365:45|415:89,1,128,2|8,0:0|0:0,0:0:0:0:
478,103,65681,2,0,P|440:149|361:134,1,128
312,115,66187,1,8,0:0:0:0:
290,254,66524,6,0,P|233:252|150:262,1,128,4|8,0:0|0:0,0:0:0:0:
40,189,67198,2,0,P|97:191|180:181,1,128,2|8,0:0|0:0,0:0:0:0:
215,131,67704,1,0,0:0:0:0:
215,131,67872,6,0,L|350:131,1,128,6|8,0:1|0:0,0:0:0:0:
378,191,68378,2,0,P|413:131|378:71,1,128,2|0,0:0|0:0,0:0:0:0:
325,59,68883,1,4,0:1:0:0:
183,57,69221,5,4,0:0:0:0:
104,173,69558,1,8,0:0:0:0:
166,299,69895,1,2,0:0:0:0:
246,183,70232,1,8,0:0:0:0:
246,183,70400,6,0,L|391:180,1,128
432,140,70906,1,8,0:0:0:0:
340,35,71243,2,0,L|195:38,1,128,2|8,0:0|0:0,0:0:0:0:
80,87,71917,5,2,0:0:0:0:
111,224,72254,2,0,L|112:300,1,64,8|0,3:2|3:2,0:0:0:0:
178,325,72591,1,10,3:2:0:0:
178,325,72760,1,0,0:0:0:0:
316,295,73097,6,0,P|392:290|466:305,1,128,4|0,0:0|0:0,0:0:0:0:
480,237,73603,2,0,P|475:161|490:87,1,128,8|2,0:0|3:2,0:0:0:0:
351,60,74277,2,0,L|263:59,1,64,8|0,3:2|3:2,0:0:0:0:
226,95,74614,5,2,0:0:0:0:
317,202,74951,1,8,0:0:0:0:
178,229,75288,2,0,L|129:282,2,64,2|0|8,0:0|0:0|0:0,0:0:0:0:
284,137,75962,5,10,0:0:0:0:
379,240,76299,1,8,0:0:0:0:
429,108,76636,2,0,L|478:55,2,64,2|0|8,0:0|0:0|0:0,0:0:0:0:
312,186,77310,5,8,0:0:0:0:
254,315,77648,1,8,0:0:0:0:
224,176,77985,1,8,0:0:0:0:
331,271,78322,1,8,0:0:0:0:
189,256,78659,5,12,0:1:0:0:
118,258,78827,1,2,0:0:0:0:
52,231,78996,2,0,P|23:208|9:184,1,64,8|2,0:0|0:0,0:0:0:0:
20,115,79333,1,8,3:2:0:0:
301,119,80007,5,4,0:0:0:0:
450,334,82704,6,0,B|384:328|384:328|308:339,1,128,4|0,0:0|0:0,0:0:0:0:
255,356,83209,2,0,P|200:354|124:325,1,128,2|2,0:0|0:0,0:0:0:0:
47,216,83883,6,0,B|53:150|53:150|42:74,1,128,4|0,0:0|0:0,0:0:0:0:
92,37,84389,2,0,B|156:47|156:47|232:41,1,128,8|2,0:0|0:0,0:0:0:0:
292,33,84895,1,0,0:0:0:0:
292,33,85063,2,0,P|327:24|370:38,1,64,8|0,0:0|0:0,0:0:0:0:
327,95,85400,6,0,L|332:223,1,128,2|8,0:0|0:0,0:0:0:0:
272,260,85906,2,0,P|319:293|397:251,1,128,2|2,0:0|0:0,0:0:0:0:
434,225,86412,1,0,0:0:0:0:
434,225,86580,6,0,L|431:89,1,128,4|2,0:0|0:0,0:0:0:0:
463,34,87086,2,0,P|431:26|386:42,1,64,8|0,0:0|0:0,0:0:0:0:
340,67,87423,2,0,L|270:67,1,64,2|0,0:0|0:0,0:0:0:0:
207,82,87760,1,8,0:0:0:0:
142,206,88097,6,0,P|132:251|138:286,2,64,2|2|0,0:0|0:0|0:0,0:0:0:0:
208,183,88603,1,2,0:0:0:0:
278,183,88771,2,0,B|299:183|299:183|329:190|329:190|357:183|357:183|388:182,2,96,10|0|0,3:2|3:0|3:0,0:0:0:0:
244,245,89445,5,12,0:1:0:0:
346,185,108322,6,0,P|393:143|455:146,1,128,4|8,3:1|2:0,2:0:0:0:
449,287,108996,2,0,P|413:339|352:352,1,128,0|8,3:1|2:0,2:0:0:0:
229,284,109670,6,0,L|193:209,1,64,4|0,3:0|0:0,0:0:0:0:
172,162,110007,1,10,3:2:0:0:
300,105,110344,1,2,3:0:0:0:
357,233,110681,1,8,3:0:0:0:
229,284,111018,6,0,P|149:292|86:272,1,128,4|8,0:0|0:0,0:0:0:0:
34,160,111692,2,0,P|114:152|177:172,1,128,2|8,0:0|0:0,0:0:0:0:
218,202,112198,2,0,B|245:206|272:194|272:194|299:206|299:206|324:196|349:201,1,128,2|0,0:0|0:0,0:0:0:0:
410,215,112704,1,2,0:0:0:0:
462,84,113041,1,8,0:0:0:0:
332,28,113378,1,2,0:0:0:0:
191,40,113715,6,0,P|122:45|55:41,1,128,2|8,0:0|0:0,0:0:0:0:
10,172,114389,2,0,L|98:173,1,64,8|0,0:0|0:0,0:0:0:0:
39,310,114895,6,0,P|108:305|175:309,1,128,4|0,0:0|0:0,0:0:0:0:
234,326,115400,2,0,P|303:331|370:327,1,128,8|8,0:0|0:0,0:0:0:0:
414,281,115906,2,0,L|494:282,2,64,6|8|8,3:0|3:0|3:0,0:0:0:0:
366,229,116412,6,0,B|339:225|312:237|312:237|285:225|285:225|260:235|235:230,2,128,2|8|2,3:2|0:0|0:0,0:0:0:0:
437,108,117423,1,8,0:0:0:0:
437,108,117591,6,0,P|331:110|285:109,1,128,2|0,0:0|0:0,0:0:0:0:
249,71,118097,2,0,L|170:73,1,64,8|0,0:0|3:0,0:0:0:0:
141,16,118434,2,0,P|111:78|147:135,1,128,2|8,3:0|0:0,0:0:0:0:
267,179,119108,5,2,0:0:0:0:
194,299,119445,1,8,0:0:0:0:
333,280,119782,2,0,P|375:231|386:166,1,128,2|8,3:0|0:0,0:0:0:0:
376,100,120288,6,0,P|327:57|262:46,1,128
198,68,120794,1,8,0:0:0:0:
198,68,120962,2,0,L|63:69,1,128,0|8,0:0|0:0,0:0:0:0:
37,131,121468,1,8,0:0:0:0:
61,269,121805,6,0,L|-6:286,2,64,6|0|8,0:0|0:0|0:0,0:0:0:0:
128,290,122310,2,0,L|177:338,2,64,2|0|8,0:0|0:0|0:0,0:0:0:0:
115,220,122816,1,2,0:0:0:0:
200,108,123153,6,0,L|177:49,2,64,2|0|8,0:0|0:0|0:0,0:0:0:0:
268,128,123659,2,0,B|295:124|322:136|322:136|349:124|349:124|374:134|399:129,1,128,10|0,0:0|0:0,0:0:0:0:
449,169,124164,1,10,0:0:0:0:
380,292,124501,6,0,L|427:334,2,64,2|0|8,0:0|0:0|0:0,0:0:0:0:
318,327,125007,2,0,P|261:357|188:329,1,128,8|8,0:0|0:0,0:0:0:0:
119,227,125681,2,0,P|176:197|249:225,1,128,4|0,0:0|0:0,0:0:0:0:
304,223,126187,5,8,0:0:0:0:
211,118,126524,2,0,L|149:98,1,64,2|10,0:0|0:0,0:0:0:0:
101,47,126861,2,0,P|84:74|77:105,1,64,8|8,3:2|3:2,0:0:0:0:
11,131,127198,6,0,P|34:161|134:149,1,128,6|0,0:0|3:0,0:0:0:0:
255,131,127872,2,0,L|316:150,1,64,8|8,3:2|3:2,0:2:0:0:
365,202,128209,2,0,P|381:174|387:144,1,64,8|2,3:2|3:2,0:2:0:0:
452,112,128546,6,0,P|427:83|328:100,1,128,4|0,0:0|0:0,0:0:0:0:
237,178,129221,1,8,0:0:0:0:
117,252,129558,2,0,P|101:224|94:193,1,64,8|2,0:0|0:0,0:0:0:0:
95,122,129895,6,0,P|129:75|221:40,1,128,4|10,0:0|0:0,0:0:0:0:
330,65,130569,1,2,0:0:0:0:
389,103,130737,1,0,0:0:0:0:
417,168,130906,2,0,L|414:245,1,64,8|0,0:0|0:0,0:0:0:0:
354,269,131243,6,0,B|317:260|285:271|285:271|247:252|247:252|187:269|110:220|129:104|211:74|289:105|297:172,1,448,2|0,0:0|0:0,0:0:0:0:
228,183,132591,5,2,0:0:0:0:
88,164,132928,1,0,0:0:0:0:
108,25,133265,1,0,0:0:0:0:
246,44,133603,1,0,0:0:0:0:
159,155,133940,6,0,B|165:186|155:218|155:218|169:244|219:262,1,128,2|2,0:0|0:0,0:0:0:0:
338,300,134614,1,0,0:0:0:0:
214,367,134951,1,0,0:0:0:0:
99,286,135288,6,0,P|67:207|88:146,1,128,2|0,0:0|0:0,0:0:0:0:
143,43,135962,1,0,0:0:0:0:
284,49,136299,1,0,0:0:0:0:
214,171,136636,5,2,0:0:0:0:
354,169,136973,1,0,0:0:0:0:
429,287,137310,2,0,L|511:287,2,64
295,333,137985,6,0,P|221:333|143:339,1,128,2|0,0:0|0:0,0:0:0:0:
26,346,138659,1,0,0:0:0:0:
57,208,138996,1,0,0:0:0:0:
197,196,139333,6,0,P|271:190|348:177,1,128,2|0,0:0|0:0,0:0:0:0:
390,57,140007,1,0,0:0:0:0:
250,45,140344,1,0,0:0:0:0:
123,106,140681,6,0,P|91:162|82:240,1,128,4|0,0:0|3:2,0:0:0:0:
165,337,141355,2,0,B|206:343|230:357|230:357|262:348|308:352,1,128,0|0,0:0|3:2,0:0:0:0:
427,326,142030,5,4,3:1:0:0:
461,189,142367,1,4,3:0:0:0:
322,169,142704,2,0,L|322:98,1,64,8|0,3:2|0:0,0:0:0:0:
361,46,143041,2,0,P|313:35|280:51,1,64,8|0,0:0|0:0,0:0:0:0:
233,59,143378,6,0,L|156:63,1,64,10|0,0:0|0:0,0:0:0:0:
90,259,144052,1,0,0:0:0:0:
360,336,144726,2,0,L|439:337,1,64,8|0,0:0|0:0,0:0:0:0:
440,126,145400,2,0,L|348:123,1,64,8|0,0:0|0:0,0:0:0:0:
269,307,146074,5,10,0:0:0:0:
159,218,146412,1,8,0:0:0:0:
301,225,146749,1,8,0:0:0:0:
182,303,147086,1,8,0:0:0:0:
233,170,147423,5,4,0:1:0:0:
377,170,148771,6,0,P|416:317|278:250,1,384
262,111,150119,2,0,P|159:37|78:223,1,384
197,285,151468,5,4,0:0:0:0:
159,149,151805,1,8,0:0:0:0:
297,175,152142,1,2,0:0:0:0:
260,44,152479,1,8,0:0:0:0:
260,44,152648,6,0,P|319:45|402:90,1,128
424,128,153153,1,8,0:0:0:0:
375,260,153490,1,2,0:0:0:0:
244,206,153827,1,8,0:0:0:0:
264,344,154164,6,0,P|205:337|126:285,1,128,2|8,0:0|0:0,0:0:0:0:
122,165,154839,2,0,L|49:137,1,64,2|0,0:0|0:0,0:0:0:0:
174,56,155344,6,0,P|233:57|316:102,1,128,4|0,0:0|0:0,0:0:0:0:
344,136,155850,2,0,L|483:172,1,128,8|2,0:0|0:0,0:0:0:0:
453,308,156524,1,8,3:2:0:0:
322,359,156861,5,4,0:0:0:0:
234,248,157198,1,8,0:0:0:0:
102,298,157535,1,2,0:0:0:0:
58,164,157872,2,0,P|45:126|50:89,1,64,8|0,0:0|0:0,0:0:0:0:
114,121,158209,6,0,L|246:116,1,128,2|8,0:0|0:0,0:0:0:0:
280,57,158715,2,0,P|314:111|286:171,1,128
238,212,159221,1,8,0:0:0:0:
169,334,159558,6,0,P|234:349|300:338,1,128,2|8,0:0|0:0,0:0:0:0:
427,296,160232,2,0,L|430:209,1,64,2|0,0:0|0:0,0:0:0:0:
369,195,160569,2,0,L|372:108,1,64,8|0,0:0|0:0,0:0:0:0:
430,93,160906,6,0,P|376:59|316:87,1,128,4|8,0:1|0:0,0:0:0:0:
262,121,161412,2,0,P|201:126|115:113,1,128,2|0,0:0|0:0,0:0:0:0:
79,74,161917,1,12,3:1:0:0:
83,214,162254,5,4,0:0:0:0:
182,314,162591,1,8,0:0:0:0:
318,277,162928,1,2,0:0:0:0:
219,176,163265,1,8,0:0:0:0:
219,176,163434,6,0,L|243:33,1,128
307,28,163940,1,8,0:0:0:0:
310,169,164277,2,0,L|288:308,1,128,2|8,0:0|0:0,0:0:0:0:
415,358,164951,5,10,0:0:0:0:
479,232,165287,2,0,L|488:159,1,64,8|10,3:2|3:2,0:0:0:0:
495,98,165625,1,10,3:3:0:0:
495,98,165794,1,12,0:1:0:0:
364,44,166131,6,0,P|288:49|214:34,1,128,4|0,0:0|0:0,0:0:0:0:
168,57,166636,2,0,P|104:48|41:53,1,128,8|2,0:0|3:2,0:0:0:0:
27,194,167310,2,0,L|26:265,1,64,8|8,3:2|3:2,0:0:0:0:
90,288,167648,5,4,0:0:0:0:
224,332,167985,1,2,0:0:0:0:
195,194,168322,2,0,L|234:120,2,64,2|8|8,3:2|0:0|0:0,0:0:0:0:
145,325,168996,5,2,0:0:0:0:
260,244,169333,1,8,0:0:0:0:
388,186,169670,2,0,L|452:208,2,64,2|0|8,0:0|0:0|0:0,0:0:0:0:
299,77,170344,5,12,0:0:0:0:
241,206,170681,1,8,0:0:0:0:
211,67,171018,1,8,0:3:0:0:
318,162,171355,1,8,0:0:0:0:
176,147,171692,5,6,0:1:0:0:
112,175,171861,1,2,0:0:0:0:
57,219,172030,2,0,P|34:248|27:275,1,64,8|8,0:0|3:2,0:0:0:0:
38,344,172367,1,2,3:3:0:0:
255,165,173041,5,12,0:1:0:0:
39,50,175737,6,0,B|105:56|105:56|181:45,1,128,4|0,0:0|0:0,0:0:0:0:
235,40,176243,2,0,P|289:37|368:59,1,128,2|2,0:0|0:0,0:0:0:0:
282,172,176917,6,0,B|276:238|276:238|287:314,1,128,4|0,0:0|0:0,0:0:0:0:
346,335,177423,2,0,P|293:370|221:325,1,128
195,291,177928,1,0,0:0:0:0:
195,291,178097,2,0,P|164:286|132:290,1,64
88,344,178434,6,0,P|62:293|112:223,2,128,2|8|2,0:0|0:0|0:0,0:0:0:0:
363,286,179782,5,4,0:1:0:0:
