osu file format v14

[General]
AudioFilename: littleregret.mp3
AudioLeadIn: 0
PreviewTime: -1
Countdown: 1
SampleSet: Soft
StackLeniency: 0.7
Mode: 0
LetterboxInBreaks: 1
WidescreenStoryboard: 1

[Editor]
Bookmarks: 15814,28695,54782,80217,93912,119999,145434,148532,169564,179999,190434,195325,200706
DistanceSpacing: 2.5
BeatDivisor: 4
GridSize: 4
TimelineZoom: 2.7

[Metadata]
Title:Little regret
TitleUnicode:Little regret
Artist:sana
ArtistUnicode:sana
Creator:Cozaar
Version:Easy
Source:
Tags:
BeatmapID:922926
BeatmapSetID:425721

[Difficulty]
HPDrainRate:6
CircleSize:4
OverallDifficulty:8
ApproachRate:9
SliderMultiplier:1.8
SliderTickRate:1

[Events]
//Background and Video events
0,0,"BG.jpg",0,0
//Break Periods
2,7862,15214
2,83514,93149
2,139438,144834
2,165778,166682
2,169275,179399
2,181539,194562
//Storyboard Layer 0 (Background)
//Storyboard Layer 1 (Fail)
//Storyboard Layer 2 (Pass)
//Storyboard Layer 3 (Foreground)
//Storyboard Sound Samples

[TimingPoints]
1304,326.086956521739,4,2,1,60,1,0
3423,-83.3333333333333,4,2,1,60,0,0
3912,-100,4,2,1,60,0,0
6195,-66.6666666666667,4,2,1,60,0,0
6602,-100,4,2,1,60,0,0
40760,-200,4,2,1,60,0,0
41412,-200,4,2,1,20,0,0
41738,-200,4,2,1,60,0,0
42064,-200,4,2,1,20,0,0
42390,-200,4,2,1,60,0,0
42717,-200,4,2,1,60,0,0
52010,-133.333333333333,4,2,1,60,0,0
57390,-133.333333333333,4,2,1,21,0,0
57553,-200,4,2,1,60,0,0
59999,-133.333333333333,4,2,1,60,0,0
67988,-133.333333333333,4,2,1,60,0,0
94890,-90.9090909090909,4,2,1,60,0,0
95217,-133.333333333333,4,2,1,60,0,0
96195,-90.9090909090909,4,2,1,60,0,0
96521,-133.333333333333,4,2,1,60,0,0
122526,-200,4,2,1,60,0,0
124564,-133.333333333333,4,2,1,60,0,0
148369,-200,4,2,1,60,0,0
159130,-100,4,2,1,60,0,0
179999,-200,4,2,1,60,0,0
190434,-100,4,2,1,60,0,0
195162,-125,4,2,1,60,0,0
200543,-200,4,2,1,60,0,0

[HitObjects]
211,154,1304,6,0,P|186:135|175:114,2,45
228,264,1548,2,0,P|211:289|190:302,2,45
304,160,1793,5,0,0:0:0:0:
300,144,1874,1,0,0:0:0:0:
296,129,1956,1,0,0:0:0:0:
396,304,2037,2,0,P|416:296|443:279,2,45
208,192,2445,5,0,0:0:0:0:
178,223,2526,1,0,0:0:0:0:
134,219,2608,1,0,0:0:0:0:
111,182,2689,2,0,P|112:132|184:104,1,135
212,120,3097,5,0,0:0:0:0:
328,256,3260,1,0,0:0:0:0:
420,224,3586,5,0,0:0:0:0:
228,128,3749,1,4,0:0:0:0:
368,148,4238,5,0,0:0:0:0:
256,300,4401,1,0,0:0:0:0:
112,152,4564,6,0,P|102:138|99:125,6,22.5
164,264,5053,5,0,0:0:0:0:
196,248,5380,2,0,P|288:264|320:252,1,90
352,300,5706,2,0,B|376:248|336:188|288:184|268:212,1,135
320,320,6358,1,0,0:0:0:0:
160,232,6684,5,0,0:0:0:0:
256,216,6847,1,0,0:0:0:0:
144,240,7010,1,0,0:0:0:0:
264,144,7173,1,0,0:0:0:0:
132,244,7336,1,0,0:0:0:0:
268,76,7499,1,0,0:0:0:0:
312,256,7662,5,4,0:0:0:0:
124,176,15814,5,0,0:0:0:0:
236,280,15977,1,0,0:0:0:0:
272,124,16140,1,0,0:0:0:0:
160,280,16303,1,0,0:0:0:0:
320,216,16467,1,0,0:0:0:0:
136,288,16630,1,0,0:0:0:0:
148,136,16793,5,0,0:0:0:0:
108,296,16956,1,0,0:0:0:0:
296,280,17119,1,0,0:0:0:0:
88,304,17282,1,0,0:0:0:0:
128,144,17445,1,0,0:0:0:0:
232,256,17608,1,0,0:0:0:0:
80,224,17771,1,0,0:0:0:0:
236,160,17934,1,0,0:0:0:0:
144,112,18097,2,0,P|128:160|144:224,1,90
260,268,18423,5,0,0:0:0:0:
224,284,18505,1,0,0:0:0:0:
192,292,18586,2,0,P|144:288|112:260,1,90
184,208,18912,5,0,0:0:0:0:
184,184,19075,1,0,0:0:0:0:
132,116,19238,6,0,L|61:130,1,45
120,134,19401,2,0,L|49:148,1,45
248,112,19564,6,0,L|188:204,1,90
312,224,22336,6,0,L|280:122,1,100
228,60,22662,1,0,0:0:0:0:
220,160,22825,2,0,P|164:144|130:99,1,100
60,56,23151,2,0,L|60:164,1,100
92,288,23477,1,0,0:0:0:0:
192,152,23640,1,0,0:0:0:0:
232,264,23803,1,0,0:0:0:0:
304,152,23967,6,0,P|360:136|393:91,1,100
388,232,24293,2,0,P|332:248|298:292,1,100
392,316,24619,1,0,0:0:0:0:
468,224,24782,1,0,0:0:0:0:
344,212,24945,1,0,0:0:0:0:
440,100,25108,2,0,P|384:84|350:39,1,100
288,152,25434,2,0,L|393:156,1,100
352,272,25760,1,0,0:0:0:0:
216,300,25923,1,0,0:0:0:0:
104,176,26086,5,0,0:0:0:0:
77,173,26249,1,0,0:0:0:0:
173,109,26412,1,0,0:0:0:0:
159,94,26575,1,0,0:0:0:0:
267,131,26738,1,0,0:0:0:0:
280,116,26901,1,0,0:0:0:0:
400,272,27064,6,0,P|332:296|292:296,1,100
236,344,27390,2,0,P|200:300|224:236,1,100
332,76,27880,5,0,0:0:0:0:
88,176,28206,5,4,0:0:0:0:
440,96,28695,6,0,P|432:152|396:196,1,100
332,304,29021,1,0,0:0:0:0:
300,156,29184,1,0,0:0:0:0:
456,272,29347,1,0,0:0:0:0:
376,212,29510,5,0,0:0:0:0:
336,328,29673,1,0,0:0:0:0:
196,316,29836,1,0,0:0:0:0:
228,200,29999,2,0,P|185:226|128:240,1,100
56,240,30325,5,0,0:0:0:0:
68,188,30433,1,0,0:0:0:0:
95,142,30542,1,0,0:0:0:0:
204,256,30759,1,0,0:0:0:0:
221,205,30868,1,0,0:0:0:0:
224,152,30977,1,0,0:0:0:0:
384,172,31140,2,0,P|324:188|256:144,1,100
196,84,31467,2,0,P|256:68|324:112,1,100
288,260,31793,1,0,0:0:0:0:
352,152,31956,1,0,0:0:0:0:
276,272,32119,6,0,L|168:256,1,100
156,252,32445,1,0,0:0:0:0:
408,328,32608,6,0,L|432:232,1,66.6666666666667
444,88,32934,1,0,0:0:0:0:
424,84,33097,6,0,L|400:180,1,66.6666666666667
324,244,33423,5,0,0:0:0:0:
212,328,33586,1,0,0:0:0:0:
192,336,33912,5,0,0:0:0:0:
152,156,34075,1,0,0:0:0:0:
280,296,34238,1,0,0:0:0:0:
88,272,34401,1,0,0:0:0:0:
52,132,34564,6,0,P|100:136|156:132,1,100
424,196,34890,2,0,P|376:200|320:196,1,100
360,336,35217,5,0,0:0:0:0:
224,152,35380,1,0,0:0:0:0:
196,280,35543,1,0,0:0:0:0:
303,224,35706,5,0,0:0:0:0:
331,201,35814,1,0,0:0:0:0:
356,174,35923,1,0,0:0:0:0:
308,240,36086,5,0,0:0:0:0:
336,217,36194,1,0,0:0:0:0:
361,190,36303,1,0,0:0:0:0:
120,352,36521,5,0,0:0:0:0:
304,124,36847,5,0,0:0:0:0:
100,184,37173,5,0,0:0:0:0:
432,336,37499,5,0,0:0:0:0:
448,128,37825,6,0,B|400:92|360:96|360:96|320:160|288:168|216:160,1,250
216,172,38314,1,0,0:0:0:0:
199,189,38395,1,0,0:0:0:0:
182,206,38477,1,0,0:0:0:0:
168,224,38803,5,0,0:0:0:0:
168,224,38885,1,0,0:0:0:0:
168,224,38967,1,0,0:0:0:0:
168,224,39048,1,0,0:0:0:0:
168,224,39130,1,0,0:0:0:0:
352,264,39293,1,0,0:0:0:0:
260,328,39456,1,0,0:0:0:0:
416,184,39782,5,0,0:0:0:0:
224,104,40108,1,0,0:0:0:0:
376,180,40271,1,0,0:0:0:0:
292,228,40434,5,0,0:0:0:0:
208,136,40597,1,0,0:0:0:0:
320,260,40760,2,0,P|344:264|376:256,2,50
288,156,41412,5,0,0:0:0:0:
252,300,41738,1,0,0:0:0:0:
280,136,42064,5,0,0:0:0:0:
432,208,42390,1,0,0:0:0:0:
400,284,42717,5,0,0:0:0:0:
304,248,42880,1,0,0:0:0:0:
236,316,43043,1,0,0:0:0:0:
380,292,43206,1,0,0:0:0:0:
296,324,43369,1,0,0:0:0:0:
208,296,43532,1,0,0:0:0:0:
100,280,43695,6,4,L|80:284,1,12.5
192,216,44021,5,0,0:0:0:0:
64,132,44184,2,0,L|56:96,2,25
200,224,44510,2,0,B|248:168|224:104,1,125
208,96,44999,5,0,0:0:0:0:
360,292,45325,5,0,0:0:0:0:
420,204,45488,1,0,0:0:0:0:
472,92,45651,1,0,0:0:0:0:
424,196,45814,2,0,B|356:284,1,100
344,148,46303,5,0,0:0:0:0:
240,320,46630,1,0,0:0:0:0:
220,60,46956,1,0,0:0:0:0:
136,280,47282,5,0,0:0:0:0:
296,212,47445,1,0,0:0:0:0:
208,148,47608,1,0,0:0:0:0:
324,232,47934,5,0,0:0:0:0:
424,88,48260,5,0,0:0:0:0:
208,136,48586,1,0,0:0:0:0:
400,112,48749,1,0,0:0:0:0:
248,260,48912,1,0,0:0:0:0:
116,120,49238,1,0,0:0:0:0:
116,120,49320,5,0,0:0:0:0:
116,120,49401,1,8,0:0:0:0:
116,120,49483,1,8,0:0:0:0:
116,120,49564,1,12,0:0:0:0:
116,120,49646,1,0,0:0:0:0:
116,120,49727,1,0,0:0:0:0:
116,120,49809,1,4,0:0:0:0:
116,120,49890,6,4,B|172:168|172:168|156:204|168:264,1,150,4|0,0:0|0:0,0:0:0:0:
396,264,50543,2,0,B|340:216|340:216|356:180|347:141,1,150
196,176,51195,2,0,B|180:204|172:236|180:264|188:284|188:284|224:248,1,150
224,244,51765,1,0,0:0:0:0:
239,224,51846,1,0,0:0:0:0:
254,204,51928,1,0,0:0:0:0:
284,172,52010,6,0,P|304:152|316:120,3,37.5000014305115
112,128,54782,5,0,0:0:0:0:
64,288,54945,1,0,0:0:0:0:
208,120,55108,1,0,0:0:0:0:
204,288,55271,1,0,0:0:0:0:
368,104,55434,1,0,0:0:0:0:
320,268,55597,1,0,0:0:0:0:
436,144,55760,1,0,0:0:0:0:
172,124,55923,1,0,0:0:0:0:
120,144,56004,1,0,0:0:0:0:
86,177,56086,5,0,0:0:0:0:
304,168,56249,1,0,0:0:0:0:
172,208,56412,1,0,0:0:0:0:
348,96,56575,1,0,0:0:0:0:
350,140,56656,1,0,0:0:0:0:
360,183,56738,1,0,0:0:0:0:
378,223,56819,1,0,0:0:0:0:
402,260,56901,5,0,0:0:0:0:
333,247,56982,1,0,0:0:0:0:
264,254,57064,1,0,0:0:0:0:
199,282,57145,1,0,0:0:0:0:
146,327,57227,1,0,0:0:0:0:
168,124,57390,6,0,B|208:144|208:144|236:132|236:132|300:140|300:140|268:184|320:240|320:240|248:280|216:268|192:248|184:232,1,405.000015449525
120,280,58532,2,0,P|96:216|172:144,1,180
368,116,59347,5,0,0:0:0:0:
176,224,59510,1,0,0:0:0:0:
332,196,59999,5,0,0:0:0:0:
436,244,60162,1,0,0:0:0:0:
304,312,60325,1,0,0:0:0:0:
352,208,60488,1,0,0:0:0:0:
216,272,60651,1,0,0:0:0:0:
92,280,60814,6,0,P|80:228|80:172,1,75.0000028610231
104,96,61140,1,0,0:0:0:0:
240,168,61303,1,0,0:0:0:0:
92,212,61467,1,0,0:0:0:0:
236,80,61630,1,0,0:0:0:0:
248,284,61793,1,0,0:0:0:0:
392,168,61956,6,0,P|355:161|296:132,1,75.0000028610231
120,168,62282,2,0,P|157:161|216:132,1,75.0000028610231
328,64,62608,1,0,0:0:0:0:
180,216,62771,1,0,0:0:0:0:
368,216,62934,1,0,0:0:0:0:
236,96,63097,1,0,0:0:0:0:
300,260,63260,1,0,0:0:0:0:
332,140,63423,1,0,0:0:0:0:
200,312,63586,5,0,0:0:0:0:
304,136,63749,1,0,0:0:0:0:
176,216,63912,1,0,0:0:0:0:
368,296,64075,1,0,0:0:0:0:
284,200,64238,1,0,0:0:0:0:
248,344,64401,1,0,0:0:0:0:
128,184,64564,6,0,B|172:192|232:168,1,75.0000028610231
364,120,64890,1,0,0:0:0:0:
364,120,64972,1,0,0:0:0:0:
364,120,65053,1,0,0:0:0:0:
312,284,65217,5,0,0:0:0:0:
156,268,65380,1,0,0:0:0:0:
200,88,65543,1,0,0:0:0:0:
252,212,65706,1,0,0:0:0:0:
80,180,65869,1,0,0:0:0:0:
232,116,66032,1,0,0:0:0:0:
172,280,66195,5,0,0:0:0:0:
288,144,66358,1,0,0:0:0:0:
320,328,66521,1,0,0:0:0:0:
196,180,66684,1,0,0:0:0:0:
368,224,66847,1,0,0:0:0:0:
232,328,67010,1,0,0:0:0:0:
192,168,67173,6,0,B|132:152|132:152|73:107,1,112.500004291535
340,284,67662,1,0,0:0:0:0:
340,284,67744,1,0,0:0:0:0:
340,284,67825,1,0,0:0:0:0:
200,248,67988,5,0,0:0:0:0:
372,176,68151,1,0,0:0:0:0:
332,312,68314,1,0,0:0:0:0:
228,120,68477,1,0,0:0:0:0:
320,196,68640,1,0,0:0:0:0:
148,232,68803,6,0,L|148:136,1,75.0000028610231
248,44,69130,1,0,0:0:0:0:
112,192,69293,5,0,0:0:0:0:
208,64,69456,1,0,0:0:0:0:
112,100,69619,1,0,0:0:0:0:
224,156,69782,1,0,0:0:0:0:
116,304,69945,1,0,0:0:0:0:
196,236,70108,1,0,0:0:0:0:
216,240,70189,5,0,0:0:0:0:
253,244,70270,1,0,0:0:0:0:
290,249,70352,1,0,0:0:0:0:
327,253,70433,1,0,0:0:0:0:
364,258,70515,1,0,0:0:0:0:
402,262,70596,1,0,0:0:0:0:
444,272,70760,2,0,P|444:312|424:364,1,75.0000028610231
344,200,71086,6,0,P|364:165|408:131,1,75.0000028610231
200,280,71412,1,0,0:0:0:0:
128,136,71575,1,0,0:0:0:0:
320,172,71738,1,0,0:0:0:0:
140,236,71901,1,0,0:0:0:0:
228,264,72064,5,0,0:0:0:0:
72,200,72227,1,0,0:0:0:0:
248,156,72390,1,0,0:0:0:0:
132,96,72553,1,0,0:0:0:0:
296,52,72717,1,0,0:0:0:0:
184,144,72880,1,0,0:0:0:0:
308,188,73043,1,0,0:0:0:0:
376,264,73206,5,0,0:0:0:0:
240,320,73369,1,0,0:0:0:0:
272,180,73532,1,0,0:0:0:0:
116,232,73695,1,0,0:0:0:0:
240,100,73858,5,0,0:0:0:0:
220,268,74021,1,0,0:0:0:0:
156,176,74184,1,0,0:0:0:0:
376,192,74347,1,0,0:0:0:0:
308,328,74510,1,0,0:0:0:0:
464,104,74673,2,0,L|452:208,1,75.0000028610231
440,304,74999,1,0,0:0:0:0:
308,300,75162,1,0,0:0:0:0:
388,136,75325,1,0,0:0:0:0:
212,184,75488,1,0,0:0:0:0:
203,220,75569,1,0,0:0:0:0:
195,257,75651,1,0,0:0:0:0:
104,184,75814,5,0,0:0:0:0:
312,232,75977,1,0,0:0:0:0:
184,100,76140,1,0,0:0:0:0:
228,320,76303,1,0,0:0:0:0:
276,124,76467,1,0,0:0:0:0:
120,280,76630,1,0,0:0:0:0:
296,320,76793,5,0,0:0:0:0:
400,176,76956,1,0,0:0:0:0:
176,208,77119,1,0,0:0:0:0:
334,129,77282,2,0,L|256:148,1,75.0000028610231
408,64,77608,5,0,0:0:0:0:
360,268,77771,1,0,0:0:0:0:
208,80,77934,1,0,0:0:0:0:
180,280,78097,1,0,0:0:0:0:
180,280,78178,1,0,0:0:0:0:
180,280,78260,1,0,0:0:0:0:
188,176,80217,5,0,0:0:0:0:
340,192,80380,1,0,0:0:0:0:
276,88,80543,1,0,0:0:0:0:
328,208,80706,1,0,0:0:0:0:
160,164,80869,2,0,P|120:172|80:188,1,75.0000028610231
24,288,81195,1,0,0:0:0:0:
200,288,81358,6,0,P|212:249|217:206,1,75.0000028610231
157,108,81684,1,0,0:0:0:0:
360,204,81847,2,0,P|320:212|280:228,1,75.0000028610231
224,328,82173,1,0,0:0:0:0:
212,176,82336,6,0,P|251:165|290:146,1,75.0000028610231
339,42,82662,1,0,0:0:0:0:
292,144,82825,1,0,0:0:0:0:
440,164,82988,1,0,0:0:0:0:
296,272,83151,1,0,0:0:0:0:
440,312,83314,5,4,0:0:0:0:
256,140,93749,5,0,0:0:0:0:
256,156,93912,1,0,0:0:0:0:
256,172,94075,1,0,0:0:0:0:
252,184,94238,2,0,P|244:222|228:260,2,75.0000028610231
156,228,94727,1,0,0:0:0:0:
360,232,94890,1,0,0:0:0:0:
236,328,95053,1,0,0:0:0:0:
176,208,95217,1,0,0:0:0:0:
248,320,95380,1,0,0:0:0:0:
332,192,95543,5,0,0:0:0:0:
208,68,95706,1,0,0:0:0:0:
208,56,96032,5,0,0:0:0:0:
112,168,96195,2,0,P|140:192|184:220,1,73.3333355712891
280,268,96521,6,0,L|196:268,1,75.0000028610231
76,268,96847,1,0,0:0:0:0:
164,176,97010,1,0,0:0:0:0:
280,268,97173,2,0,P|224:244|200:196,1,112.500004291535
216,156,97499,1,0,0:0:0:0:
300,116,97662,5,0,0:0:0:0:
424,176,97825,1,0,0:0:0:0:
356,64,97988,2,0,B|352:120|355:158|360:224,1,150.000005722046
312,320,98477,1,0,0:0:0:0:
424,248,98640,1,0,0:0:0:0:
272,236,98803,2,0,L|380:252,1,75.0000028610231
340,200,99130,5,0,0:0:0:0:
204,296,99293,1,0,0:0:0:0:
200,128,99456,1,0,0:0:0:0:
288,264,99619,1,0,0:0:0:0:
104,224,99782,1,0,0:0:0:0:
156,120,99945,6,0,P|180:140|244:148,1,75.0000028610231
292,80,100271,2,0,P|260:60|204:52,1,75.0000028610231
80,108,100597,1,0,0:0:0:0:
72,112,100923,5,0,0:0:0:0:
144,248,101086,1,0,0:0:0:0:
124,232,101412,5,0,0:0:0:0:
276,272,101575,1,0,0:0:0:0:
360,132,101738,6,0,L|272:132,1,75.0000028610231
232,228,102064,1,0,0:0:0:0:
404,264,102390,1,0,0:0:0:0:
140,144,102717,1,0,0:0:0:0:
344,68,103043,1,0,0:0:0:0:
184,244,103369,1,0,0:0:0:0:
240,300,103532,5,0,0:0:0:0:
272,292,103613,1,0,0:0:0:0:
308,285,103695,1,0,0:0:0:0:
380,169,103858,1,0,0:0:0:0:
280,192,104021,5,0,0:0:0:0:
312,184,104102,1,0,0:0:0:0:
348,177,104184,1,0,0:0:0:0:
380,169,104265,1,0,0:0:0:0:
416,162,104347,1,0,0:0:0:0:
324,112,104673,5,0,0:0:0:0:
176,188,104836,1,0,0:0:0:0:
312,148,104999,1,0,0:0:0:0:
212,248,105162,1,0,0:0:0:0:
404,304,105488,5,0,0:0:0:0:
216,320,105651,1,0,0:0:0:0:
336,240,105814,1,0,0:0:0:0:
228,192,105977,1,0,0:0:0:0:
88,296,106303,5,0,0:0:0:0:
176,144,106467,1,0,0:0:0:0:
216,304,106630,1,0,0:0:0:0:
128,216,106793,1,0,0:0:0:0:
264,156,106956,1,0,0:0:0:0:
396,160,107282,6,0,P|384:200|384:244,1,75.0000028610231
396,348,107608,1,0,0:0:0:0:
384,340,108097,5,0,0:0:0:0:
184,280,108260,1,0,0:0:0:0:
316,264,108423,1,0,0:0:0:0:
164,252,108586,1,0,0:0:0:0:
296,168,108749,1,0,0:0:0:0:
192,132,109238,5,0,0:0:0:0:
168,144,109319,1,0,0:0:0:0:
145,157,109401,1,0,0:0:0:0:
122,169,109482,1,0,0:0:0:0:
99,182,109564,1,0,0:0:0:0:
424,120,109890,6,0,P|436:208|408:280,1,150.000005722046
216,288,110543,2,0,B|276:284|276:284|240:236|240:212|264:188,1,150.000005722046
256,104,111032,1,0,0:0:0:0:
176,64,111195,2,0,B|156:96|156:96|112:76|112:76|116:116|120:152|100:192,1,187.500007152558
252,220,111847,2,0,L|168:280,1,75.0000028610231
188,128,112173,2,0,L|128:176,1,75.0000028610231
384,276,112499,2,0,L|320:336,1,75.0000028610231
320,160,112825,6,0,L|252:216,1,75.0000028610231
160,284,113151,2,0,L|164:204,1,75.0000028610231
164,88,113477,1,0,0:0:0:0:
392,192,113803,5,0,0:0:0:0:
144,164,113967,2,0,B|200:208|200:208|148:268,1,150.000005722046
372,216,114456,1,0,0:0:0:0:
152,304,114782,5,0,0:0:0:0:
240,280,114945,1,0,0:0:0:0:
88,236,115108,1,0,0:0:0:0:
412,64,115434,6,0,P|400:104|372:140,1,75.0000028610231
284,160,115760,2,0,P|310:191|350:213,1,75.0000028610231
308,292,116086,1,0,0:0:0:0:
332,184,116249,1,0,0:0:0:0:
176,228,116412,1,0,0:0:0:0:
256,180,116738,5,0,0:0:0:0:
144,304,117064,2,0,B|112:264|112:264|196:192,1,150.000005722046
356,180,117717,2,0,B|307:197|307:197|267:94,1,150.000005722046
48,224,118369,6,0,B|96:208|120:184|120:184|128:228|156:260|156:260|184:240|300:244,1,300.000011444092
426,217,119184,2,0,B|436:188|416:148|364:144|364:144|368:80|368:80|320:104,1,225.000008583069
156,192,119999,5,0,0:0:0:0:
256,304,120162,1,0,0:0:0:0:
169,165,120325,1,0,0:0:0:0:
308,208,120488,1,0,0:0:0:0:
182,138,120651,1,0,0:0:0:0:
308,208,120814,1,0,0:0:0:0:
408,136,120977,1,0,0:0:0:0:
336,40,121140,5,0,0:0:0:0:
314,70,121221,1,0,0:0:0:0:
285,94,121303,1,0,0:0:0:0:
250,102,121384,1,0,0:0:0:0:
217,84,121466,1,0,0:0:0:0:
203,54,121547,1,0,0:0:0:0:
239,44,121629,1,0,0:0:0:0:
276,49,121710,1,0,0:0:0:0:
307,69,121792,1,0,0:0:0:0:
329,99,121873,1,0,0:0:0:0:
342,134,121955,1,0,0:0:0:0:
349,171,122036,1,0,0:0:0:0:
384,208,122119,5,0,0:0:0:0:
369,242,122200,1,0,0:0:0:0:
348,273,122282,1,0,0:0:0:0:
322,300,122363,1,0,0:0:0:0:
291,321,122445,1,0,0:0:0:0:
264,332,122526,2,0,B|220:332|172:320|172:320|200:288|200:288|164:272|164:272|132:252|112:212|112:172|128:132,1,325
124,176,124075,6,4,L|152:152,1,25
266,123,124238,2,4,L|248:140,1,25
376,252,124564,6,0,P|400:244|424:228,3,37.5000014305115
360,268,124890,2,0,P|312:288|264:292,1,75.0000028610231
152,196,125217,2,0,P|200:176|248:172,1,75.0000028610231
360,164,125543,1,0,0:0:0:0:
220,252,125706,1,0,0:0:0:0:
276,100,125869,1,0,0:0:0:0:
364,248,126032,1,0,0:0:0:0:
152,268,126195,6,0,P|200:288|248:292,1,75.0000028610231
256,184,126521,2,0,P|236:136|232:88,1,75.0000028610231
312,80,126847,1,0,0:0:0:0:
164,204,127010,1,0,0:0:0:0:
352,184,127173,1,0,0:0:0:0:
228,291,127336,6,0,B|264:296|288:280|304:264|304:264|316:296|352:308,1,150.000005722046
120,288,127825,1,0,0:0:0:0:
224,208,127988,1,0,0:0:0:0:
64,192,128151,1,0,0:0:0:0:
152,132,128314,1,0,0:0:0:0:
64,68,128477,1,0,0:0:0:0:
152,148,128640,6,0,P|172:112|184:72,1,75.0000028610231
388,144,128967,2,0,P|407:177|417:213,1,75.0000028610231
180,224,129293,1,0,0:0:0:0:
336,208,129456,1,0,0:0:0:0:
240,304,129619,1,0,0:0:0:0:
168,220,129782,5,0,0:0:0:0:
280,296,129945,1,0,0:0:0:0:
352,184,130108,1,0,0:0:0:0:
240,144,130271,1,0,0:0:0:0:
240,144,130352,1,0,0:0:0:0:
240,144,130434,1,0,0:0:0:0:
204,260,130597,5,0,0:0:0:0:
352,332,130760,1,0,0:0:0:0:
296,168,130923,1,0,0:0:0:0:
240,344,131086,1,0,0:0:0:0:
384,240,131249,1,0,0:0:0:0:
448,84,131412,6,0,P|416:108|368:132,1,75.0000028610231
232,96,131738,2,0,B|260:100|280:116|280:116|296:88|312:68|312:68|348:44,1,150.000005722046
128,128,132227,1,0,0:0:0:0:
160,240,132390,2,0,B|167:284|220:299|220:299|239:273|288:308,1,150.000005722046
316,292,132880,1,0,0:0:0:0:
316,292,132961,1,0,0:0:0:0:
316,292,133043,1,0,0:0:0:0:
400,64,133206,5,0,0:0:0:0:
244,140,133369,1,0,0:0:0:0:
364,164,133532,1,0,0:0:0:0:
288,64,133695,1,0,0:0:0:0:
224,204,133858,1,0,0:0:0:0:
168,56,134021,1,0,0:0:0:0:
108,144,134184,1,0,0:0:0:0:
108,264,134347,5,0,0:0:0:0:
160,168,134510,1,0,0:0:0:0:
216,272,134673,1,0,0:0:0:0:
192,160,134836,1,0,0:0:0:0:
304,256,134999,1,0,0:0:0:0:
244,100,135162,1,0,0:0:0:0:
396,216,135325,1,0,0:0:0:0:
396,216,135407,5,0,0:0:0:0:
396,216,135488,1,0,0:0:0:0:
396,216,135570,1,0,0:0:0:0:
396,216,135651,1,0,0:0:0:0:
232,224,135814,6,0,P|272:248|328:260,1,75.0000028610231
120,240,136140,2,0,P|144:279|187:316,1,75.0000028610231
12,205,136467,2,0,P|16:251|39:303,1,75.0000028610231
204,148,136793,5,0,0:0:0:0:
160,296,136956,1,0,0:0:0:0:
276,252,137119,1,0,0:0:0:0:
120,160,137282,1,0,0:0:0:0:
288,172,137445,1,0,0:0:0:0:
200,292,137608,1,0,0:0:0:0:
360,228,137771,6,0,B|356:196|388:144|388:144|356:124|356:124|348:92,1,150.000005722046
152,156,138260,2,0,B|156:188|124:240|124:240|156:260|156:260|164:292,1,150.000005722046
300,304,138749,2,0,B|276:304|260:296|260:296|240:280|240:280|180:304|244:340,1,150.000005722046
256,344,139238,1,0,0:0:0:0:
164,116,145434,5,0,0:0:0:0:
176,292,145597,1,0,0:0:0:0:
340,192,145760,1,0,0:0:0:0:
192,220,145923,1,0,0:0:0:0:
480,92,146086,5,0,0:0:0:0:
408,200,146249,1,0,0:0:0:0:
260,168,146412,1,0,0:0:0:0:
124,220,146575,5,0,0:0:0:0:
240,84,146738,1,0,0:0:0:0:
372,204,146901,1,0,0:0:0:0:
200,132,147064,5,0,0:0:0:0:
400,104,147227,1,0,0:0:0:0:
460,296,147390,1,0,0:0:0:0:
296,112,147553,6,0,P|253:93|210:93,1,75.0000028610231
104,220,147880,1,0,0:0:0:0:
200,176,148043,1,0,0:0:0:0:
64,88,148206,1,0,0:0:0:0:
188,96,148369,5,0,0:0:0:0:
152,208,148532,2,0,B|112:208|76:268,1,100
80,280,149021,1,0,0:0:0:0:
328,172,149347,1,0,0:0:0:0:
176,300,149836,5,0,0:0:0:0:
372,296,149999,1,0,0:0:0:0:
276,276,150162,1,0,0:0:0:0:
196,312,150325,1,0,0:0:0:0:
352,292,150488,1,0,0:0:0:0:
408,288,150651,6,0,L|376:248,2,50
424,84,151303,6,0,L|372:104,1,50
208,200,151630,2,0,L|264:200,1,50
188,104,151956,1,0,0:0:0:0:
184,192,152445,5,0,0:0:0:0:
256,136,152608,1,0,0:0:0:0:
400,180,152771,1,0,0:0:0:0:
360,96,152934,1,0,0:0:0:0:
396,192,153097,1,0,0:0:0:0:
448,280,153260,1,0,0:0:0:0:
268,244,153423,1,0,0:0:0:0:
92,92,153912,6,0,B|128:112|144:104|144:104|132:152|164:212|164:212|176:180,1,200
424,192,155217,2,0,B|413:223|413:223|381:163|393:115|393:115|377:123|341:103,1,200
196,308,156521,2,0,B|228:244|228:244|272:312,1,150
128,144,157825,6,0,L|160:128,1,25
288,112,157988,2,0,L|256:128,1,25
119,178,158151,2,0,L|146:155,1,25
296,77,158314,2,0,L|269:100,1,25
121,214,158477,2,0,L|140:184,1,25
294,41,158640,2,0,L|274:70,1,25
284,252,158803,5,0,0:0:0:0:
258,232,158884,1,0,0:0:0:0:
224,216,158966,1,0,0:0:0:0:
196,208,159047,1,0,0:0:0:0:
164,204,159129,1,0,0:0:0:0:
136,188,159211,1,0,0:0:0:0:
120,148,159292,1,0,0:0:0:0:
119,99,159374,1,0,0:0:0:0:
144,64,159455,1,0,0:0:0:0:
184,48,159537,1,0,0:0:0:0:
376,164,159619,6,0,L|398:208,1,50
224,140,159782,2,0,L|169:121,1,50
144,128,159945,1,0,0:0:0:0:
112,148,160026,1,0,0:0:0:0:
272,256,160108,6,0,L|217:273,1,50
203,297,160271,1,0,0:0:0:0:
182,319,160352,1,0,0:0:0:0:
161,342,160434,1,0,0:0:0:0:
80,184,160923,6,0,P|104:184|135:167,1,50
256,72,161086,2,0,L|228:116,1,50
251,293,161249,2,0,P|274:270|281:251,1,50
388,264,161412,2,0,P|382:231|370:215,1,50
232,132,161575,2,0,P|238:165|250:181,1,50
156,180,161738,2,0,L|120:216,1,50
125,297,161901,1,0,0:0:0:0:
133,320,161982,1,0,0:0:0:0:
152,334,162064,6,0,P|182:342|202:339,1,50
300,307,162227,2,0,L|350:312,1,50
431,214,162390,1,0,0:0:0:0:
415,194,162472,1,0,0:0:0:0:
397,180,162553,2,0,P|344:149|277:152,1,100
198,85,162798,5,0,0:0:0:0:
206,114,162879,1,0,0:0:0:0:
215,143,162961,1,0,0:0:0:0:
226,172,163043,2,0,P|229:197|214:234,1,50
420,196,163206,2,0,B|368:204|368:204|355:246|315:299,1,150
122,264,163532,6,0,L|163:235,1,50
270,148,163695,2,0,L|223:173,1,50
93,245,163858,2,0,L|140:229,1,50
316,161,164021,1,0,0:0:0:0:
392,312,164184,5,0,0:0:0:0:
361,308,164265,1,0,0:0:0:0:
331,305,164347,1,0,0:0:0:0:
300,302,164428,1,0,0:0:0:0:
270,299,164510,1,0,0:0:0:0:
240,296,164591,1,0,0:0:0:0:
208,288,164673,1,0,0:0:0:0:
180,280,164755,1,0,0:0:0:0:
64,212,164836,6,0,L|60:152,1,50
76,52,164999,1,0,0:0:0:0:
160,160,165081,1,0,0:0:0:0:
168,32,165162,2,0,L|176:96,1,50
448,160,165488,6,0,L|400:184,1,50
448,204,167282,5,0,0:0:0:0:
365,109,167445,1,0,0:0:0:0:
295,211,167608,1,0,0:0:0:0:
213,115,167771,1,0,0:0:0:0:
143,217,167934,1,0,0:0:0:0:
60,121,168097,1,0,0:0:0:0:
60,121,168260,5,0,0:0:0:0:
327,275,168423,1,0,0:0:0:0:
176,349,168912,5,0,0:0:0:0:
416,155,169075,1,0,0:0:0:0:
112,144,179999,6,0,P|172:116|196:148,1,100
400,144,180977,6,0,P|340:116|316:148,1,100
81,279,195162,6,0,L|44:194,1,80
44,194,195406,1,8,0:0:0:0:
44,194,195488,1,8,0:0:0:0:
44,194,195569,1,8,0:0:0:0:
164,192,195814,6,0,L|127:106,1,80
127,106,196058,1,8,0:0:0:0:
127,106,196140,1,8,0:0:0:0:
127,106,196221,1,8,0:0:0:0:
277,223,196467,6,0,L|240:138,1,80
240,138,196711,1,8,0:0:0:0:
240,138,196793,1,8,0:0:0:0:
240,138,196874,1,8,0:0:0:0:
352,124,197119,6,0,L|315:38,1,80
315,38,197363,1,8,0:0:0:0:
315,38,197445,1,8,0:0:0:0:
315,38,197526,1,8,0:0:0:0:
465,169,197771,6,0,L|428:84,1,80
428,84,198015,1,8,0:0:0:0:
428,84,198097,1,8,0:0:0:0:
428,84,198178,1,8,0:0:0:0:
172,68,198260,6,0,P|148:108|120:132,1,80
64,180,198586,2,0,B|92:224|140:220|140:220|140:260|144:300|144:300|216:248|272:300|276:292,1,280
164,160,199238,5,0,0:0:0:0:
300,312,199564,5,0,0:0:0:0:
200,184,200651,2,4,L|180:220,1,25,4|0,0:0|0:0,0:0:0:0:
216,184,200787,2,4,L|196:220,1,25,4|0,0:0|0:0,0:0:0:0:
232,184,200950,2,0,B|272:184|316:208|332:176|352:144,1,125
432,132,201521,5,0,0:0:0:0:
360,308,202173,5,0,0:0:0:0:
279,251,202499,1,0,0:0:0:0:
180,248,202825,1,0,0:0:0:0:
152,76,203477,5,0,0:0:0:0:
232,132,203803,1,0,0:0:0:0:
331,135,204129,1,0,0:0:0:0:
332,268,204782,5,0,0:0:0:0:
332,268,205108,1,0,0:0:0:0:
332,268,205434,1,0,0:0:0:0:
188,264,206086,5,0,0:0:0:0:
176,256,206738,1,0,0:0:0:0:
452,96,207390,5,0,0:0:0:0:
196,124,208043,6,0,P|232:140|304:140,1,100
448,236,208695,5,0,0:0:0:0:
384,172,208858,1,0,0:0:0:0:
248,228,209021,1,0,0:0:0:0:
300,112,209347,1,0,0:0:0:0:
124,188,209673,1,0,0:0:0:0:
