osu file format v14

[General]
AudioFilename: audio.mp3
AudioLeadIn: 0
PreviewTime: 210578
Countdown: 1
SampleSet: None
StackLeniency: 0.3
Mode: 0
LetterboxInBreaks: 0
WidescreenStoryboard: 1

[Editor]
Bookmarks: 18268,39138,60007,70442,83322,104355,125225,135659,148540,159138,169572,180007,200877,211311,232018
DistanceSpacing: 0.6
BeatDivisor: 4
GridSize: 32
TimelineZoom: 1

[Metadata]
Title:Little Regret
TitleUnicode:リトルリグレット
Artist:sana
ArtistUnicode:鎖那
Creator:[C u r i]
Version:remap
Source:
Tags:好きになるその瞬間を HoneyWorks Come[Back]Home CBH Neoskylove W_h_i_t_e litoluna Kalibe Satellite
BeatmapID:1235334
BeatmapSetID:477569

[Difficulty]
HPDrainRate:7
CircleSize:4
OverallDifficulty:8.6
ApproachRate:9.4
SliderMultiplier:1.7
SliderTickRate:1

[Events]
//Background and Video events
0,0,"zOIZyQi.jpg",0,0
//Break Periods
//Storyboard Layer 0 (Background)
//Storyboard Layer 1 (Fail)
//Storyboard Layer 2 (Pass)
//Storyboard Layer 3 (Foreground)
//Storyboard Sound Samples

[TimingPoints]
1312,326.086956521739,4,2,1,50,1,0
2616,-100,4,2,1,70,0,0
18268,-125,4,2,1,60,0,0
28703,-111.111111111111,4,2,1,60,0,0
39138,-111.111111111111,4,2,1,60,0,0
49572,-125,4,2,1,50,0,0
54790,-111.111111111111,4,2,1,50,0,0
56094,-100,4,2,1,50,0,0
56746,-100,4,2,1,60,0,0
57398,-200,4,2,1,40,0,0
59355,-100,4,2,1,60,0,0
60007,-83.3333333333333,4,2,1,80,0,1
83322,-100,4,2,1,70,0,0
93920,-111.111111111111,4,2,1,60,0,0
104355,-111.111111111111,4,2,1,60,0,0
121311,-100,4,2,1,50,0,0
121964,-100,4,2,1,60,0,0
122616,-200,4,2,1,40,0,0
124572,-100,4,2,1,60,0,0
125225,-83.3333333333333,4,2,1,80,0,1
148540,-100,4,2,1,30,0,0
157833,-100,4,2,1,50,0,0
159138,-83.3333333333333,4,2,1,60,0,1
180007,-125,4,2,1,60,0,0
190442,-111.111111111111,4,2,1,40,0,0
200877,-166.666666666667,4,2,1,30,0,0
211311,-83.3333333333333,4,2,1,80,0,1
229572,-166.666666666667,4,2,1,50,0,0
230877,-100,4,2,1,50,0,0
232018,-83.3333333333333,4,2,1,80,0,1
242453,-83.3333333333333,4,2,1,80,0,0

[Colours]
Combo1 : 0,217,217
Combo2 : 23,139,255
Combo3 : 255,255,0
Combo4 : 237,168,131

[HitObjects]
154,93,1312,5,0,0:0:0:0:
105,235,1556,2,0,L|239:214,1,127.5
305,204,1882,1,0,0:0:0:0:
330,201,1964,1,0,0:0:0:0:
154,93,2208,1,0,0:0:0:0:
164,304,2453,2,0,L|210:296,1,42.5
407,272,2616,5,0,0:0:0:0:
407,272,3268,1,0,0:0:0:0:
319,116,3431,2,0,L|330:205,1,85
474,332,3757,6,0,P|427:295|321:343,1,170
412,188,4246,1,0,0:0:0:0:
412,188,4572,1,0,0:0:0:0:
410,209,4653,1,0,0:0:0:0:
409,230,4735,1,0,0:0:0:0:
319,116,4898,1,0,0:0:0:0:
426,68,5061,1,0,0:0:0:0:
212,158,5225,6,0,B|174:174|132:153|132:153|86:129|34:157,1,170
47,150,5877,1,0,0:0:0:0:
185,7,6040,2,0,L|177:91,1,85
107,384,6366,6,0,L|91:213,1,170
177,90,6855,1,0,0:0:0:0:
207,311,7018,2,0,L|202:254,1,42.5
198,181,7181,1,0,0:0:0:0:
212,342,7344,2,0,P|251:346|298:333,1,85
474,209,7670,6,0,P|397:190|329:257,1,170
429,362,8159,2,0,L|418:273,1,85
286,87,8485,2,0,L|275:171,1,85
400,161,8811,1,0,0:0:0:0:
241,265,8975,1,0,0:0:0:0:
231,25,9138,6,0,P|288:6|367:82,1,170
164,84,9627,1,0,0:0:0:0:
294,171,9790,2,0,P|286:89|276:50,1,85
51,39,10116,2,0,P|44:80|42:123,1,85
241,265,10442,6,0,P|173:210|74:248,1,170
215,148,10931,1,0,0:0:0:0:
146,341,11094,1,0,0:0:0:0:
325,255,11257,2,0,L|234:265,1,85
43,291,11583,1,0,0:0:0:0:
215,148,11746,5,0,0:0:0:0:
146,341,11909,2,0,L|163:246,1,85
326,152,12235,1,0,0:0:0:0:
75,176,12398,5,0,0:0:0:0:
266,294,12561,1,0,0:0:0:0:
279,67,12725,1,0,0:0:0:0:
73,198,12888,6,0,B|109:215|155:194|155:194|201:172|235:189,1,170
406,311,13377,1,0,0:0:0:0:
252,377,13540,2,0,L|265:293,1,85
438,318,13866,1,0,0:0:0:0:
323,135,14029,2,0,L|336:218,1,85
447,38,14355,6,0,P|392:25|318:123,1,170
508,164,14844,2,0,P|445:160|397:134,1,85
226,32,15170,2,0,P|163:36|115:62,1,85
62,214,15496,6,0,P|88:183|206:220,1,170
40,113,15985,1,0,0:0:0:0:
142,293,16148,2,0,L|132:229,2,42.5
2,327,16475,1,0,0:0:0:0:
202,354,16638,2,0,L|296:332,1,85
359,314,16882,1,0,0:0:0:0:
359,314,16964,6,0,P|365:255|346:207,1,85
199,126,17290,2,0,P|191:167|198:209,1,85
334,109,17616,1,0,0:0:0:0:
226,277,17779,1,0,0:0:0:0:
442,240,17942,2,0,L|354:230,1,85
199,126,18268,6,0,L|334:109,1,136
