osu file format v14

[General]
AudioFilename: audio.mp3
AudioLeadIn: 0
PreviewTime: 210578
Countdown: 1
SampleSet: Soft
StackLeniency: 0.7
Mode: 0
LetterboxInBreaks: 0
WidescreenStoryboard: 0

[Editor]
Bookmarks: 18268,39138,60007,70442,83322,104355,125225,135659,148540,159138,169572,180007,190442,200877,211311,232018
DistanceSpacing: 1
BeatDivisor: 4
GridSize: 32
TimelineZoom: 1

[Metadata]
Title:Little Regret
TitleUnicode:リトルリグレット
Artist:sana
ArtistUnicode:鎖那
Creator:[C u r i]
Version:Love
Source:
Tags:好きになるその瞬間を HoneyWorks Come[Back]Home CBH Neoskylove W_h_i_t_e litoluna Kalibe Satellite
BeatmapID:1020188
BeatmapSetID:477569

[Difficulty]
HPDrainRate:7
CircleSize:4
OverallDifficulty:8.6
ApproachRate:9.4
SliderMultiplier:1.7
SliderTickRate:1

[Events]
//Background and Video events
0,0,"zOIZyQi.jpg",0,0
//Break Periods
2,150207,155989
2,180207,189902
//Storyboard Layer 0 (Background)
//Storyboard Layer 1 (Fail)
//Storyboard Layer 2 (Pass)
//Storyboard Layer 3 (Foreground)
//Storyboard Sound Samples

[TimingPoints]
1312,326.086956521739,4,2,1,50,1,0
2616,-100,4,2,1,70,0,0
18268,-125,4,2,1,60,0,0
28703,-111.111111111111,4,2,1,60,0,0
39138,-100,4,2,1,60,0,0
49572,-100,4,2,1,50,0,0
56746,-100,4,2,1,60,0,0
57398,-200,4,2,1,40,0,0
59355,-100,4,2,1,60,0,0
60007,-83.3333333333333,4,2,1,80,0,1
83322,-100,4,2,1,70,0,0
93920,-111.111111111111,4,2,1,60,0,0
104355,-100,4,2,1,60,0,0
122616,-200,4,2,1,40,0,0
124572,-100,4,2,1,60,0,0
125225,-83.3333333333333,4,2,1,80,0,1
148540,-100,4,2,1,30,0,0
157833,-100,4,2,1,50,0,0
159138,-83.3333333333333,4,2,1,60,0,1
180007,-100,4,2,1,60,0,0
190442,-100,4,2,1,40,0,0
200877,-166.666666666667,4,2,1,30,0,0
211311,-83.3333333333333,4,2,1,80,0,1
229572,-166.666666666667,4,2,1,50,0,0
232018,-83.3333333333333,4,2,1,80,0,1
242453,-83.3333333333333,4,2,1,80,0,0

[Colours]
Combo1 : 0,217,217
Combo2 : 23,139,255
Combo3 : 255,255,0
Combo4 : 237,168,131

[HitObjects]
208,95,1312,5,8,0:3:0:0:
164,251,1556,1,8,0:3:0:0:
320,211,1801,1,4,0:3:0:0:
320,211,1882,1,8,0:3:0:0:
320,211,1964,1,8,0:3:0:0:
146,165,2208,1,8,0:3:0:0:
185,340,2453,2,0,P|214:329|245:298,1,42.5,4|8,2:3|2:3,0:0:0:0:
315,288,2616,6,0,P|232:297|163:250,1,170,4|8,0:0|0:0,0:0:0:0:
163,250,3268,1,2,0:0:0:0:
248,97,3431,2,0,P|248:136|258:207,1,85,8|0,0:0|0:0,0:0:0:0:
50,224,3757,6,0,P|56:140|57:45,1,170,4|0,0:0|0:0,0:0:0:0:
252,181,4246,2,0,P|210:183|168:189,1,85,8|0,0:0|0:0,0:0:0:0:
93,336,4572,1,8,0:3:0:0:
93,336,4654,1,0,0:3:0:0:
93,336,4735,1,8,0:3:0:0:
254,291,4898,1,4,0:3:0:0:
158,273,5061,1,0,0:0:0:0:
292,371,5225,6,0,P|340:320|321:235,1,127.5,4|0,0:0|0:0,0:0:0:0:
313,154,5551,2,0,P|314:221|334:261,1,85,0|0,0:0|0:0,0:0:0:0:
429,283,5877,1,2,0:0:0:0:
358,81,6040,2,0,P|298:71|255:92,1,85,8|0,0:0|0:0,0:0:0:0:
59,157,6366,6,0,P|129:141|242:178,1,170,4|2,0:0|0:0,0:0:0:0:
243,187,6773,1,0,0:0:0:0:
243,187,6855,2,0,L|252:240,1,42.5,8|0,0:0|0:0,0:0:0:0:
143,363,7018,2,0,L|150:321,1,42.5,4|0,0:0|0:0,0:0:0:0:
172,230,7181,1,0,0:0:0:0:
143,97,7344,2,0,L|150:138,1,42.5,4|0,0:0|0:0,0:0:0:0:
172,230,7507,1,0,0:0:0:0:
348,347,7670,6,0,B|362:304|344:263|344:263|324:215|351:152,1,170,4|0,0:0|0:0,0:0:0:0:
454,58,8159,2,0,P|395:80|361:80,1,85,8|0,0:0|0:0,0:0:0:0:
209,53,8485,1,2,0:0:0:0:
261,216,8648,1,0,0:0:0:0:
373,80,8811,1,8,0:0:0:0:
196,142,8975,1,0,0:0:0:0:
406,78,9138,6,0,P|403:138|413:219,1,127.5,0|0,0:0|0:0,0:0:0:0:
451,275,9464,1,8,0:0:0:0:
307,171,9627,1,0,0:0:0:0:
241,336,9790,2,0,P|243:280|236:242,1,85,2|0,0:0|0:0,0:0:0:0:
73,158,10116,2,0,P|138:136|211:147,1,127.5,8|0,0:0|0:0,0:0:0:0:
307,171,10442,6,0,P|251:164|204:148,1,85,4|0,0:0|0:0,0:0:0:0:
142,48,10768,1,8,0:0:0:0:
147,232,10931,1,0,0:0:0:0:
296,79,11094,1,4,0:0:0:0:
149,146,11257,1,0,0:0:0:0:
316,59,11420,1,8,0:0:0:0:
320,247,11583,6,0,P|321:283|328:340,1,85,2|4,3:0|0:0,0:0:0:0:
223,155,11909,2,0,P|228:112|229:70,1,85,2|8,3:0|0:0,0:0:0:0:
134,268,12235,1,2,3:0:0:0:
316,93,12398,5,4,0:0:0:0:
106,185,12561,1,0,0:0:0:0:
287,322,12725,1,12,0:0:0:0:
334,71,12888,6,0,P|266:90|154:83,1,170,4|2,0:0|0:0,0:0:0:0:
62,228,13377,1,4,0:0:0:0:
257,205,13540,1,2,3:0:0:0:
88,66,13703,2,0,L|100:172,1,85,2|2,0:0|3:0,0:0:0:0:
181,340,14029,2,0,L|190:255,1,85,8|2,0:0|3:0,0:0:0:0:
254,50,14355,6,0,L|269:195,1,127.5,4|0,0:0|0:0,0:0:0:0:
283,264,14681,1,8,0:0:0:0:
89,188,14844,2,0,P|135:184|191:174,1,85,2|4,3:0|0:0,0:0:0:0:
397,276,15170,2,0,P|355:269|312:265,1,85,2|8,3:0|0:0,0:0:0:0:
116,93,15496,6,0,P|182:79|275:156,1,170,4|0,0:0|0:0,0:0:0:0:
275,337,15985,1,8,0:0:0:0:
342,143,16148,1,0,0:0:0:0:
144,172,16311,1,0,0:0:0:0:
257,234,16475,1,0,0:0:0:0:
157,62,16638,1,8,0:0:0:0:
131,307,16801,1,0,0:0:0:0:
131,307,16882,1,0,0:0:0:0:
131,307,16964,5,0,0:0:0:0:
395,271,17127,1,0,0:0:0:0:
134,220,17290,1,8,0:0:0:0:
367,351,17453,1,0,0:0:0:0:
287,118,17616,1,2,0:0:0:0:
289,287,17779,1,2,0:0:0:0:
429,185,17942,2,0,L|329:193,1,85,8|0,0:0|0:0,0:0:0:0:
153,94,18268,6,0,P|215:100|301:122,1,136,2|0,0:0|0:0,0:0:0:0:
429,185,18757,1,2,3:0:0:0:
346,285,18920,2,0,P|339:253|338:213,1,68
357,42,19246,1,2,0:3:0:0:
228,121,19409,6,0,B|212:186|240:199|220:273,1,136
337,217,19898,1,0,0:0:0:0:
202,102,20061,2,0,P|194:137|195:185,1,68,0|2,0:0|3:0,0:0:0:0:
233,342,20388,2,0,P|233:305|223:254,1,68,2|0,3:0|0:0,0:0:0:0:
116,122,20714,1,2,3:0:0:0:
44,210,20877,6,0,B|95:201|95:201|130:208|130:208|190:201,1,136,2|0,3:0|0:0,0:0:0:0:
320,160,21366,1,0,0:0:0:0:
159,85,21529,1,0,0:0:0:0:
178,202,21692,2,0,L|197:285,1,68,0|2,0:0|3:0,0:0:0:0:
288,64,22018,1,0,0:0:0:0:
427,171,22181,6,0,P|361:150|291:141,1,136
136,166,22670,1,0,0:0:0:0:
216,302,22833,2,0,P|218:267|214:226,1,68,2|0,3:0|0:0,0:0:0:0:
193,43,23159,2,0,P|188:78|193:117,1,68,0|2,0:0|3:0,0:0:0:0:
291,255,23485,5,2,3:0:0:0:
329,113,23648,1,0,0:0:0:0:
163,145,23811,1,0,0:0:0:0:
334,191,23975,1,0,0:0:0:0:
163,145,24138,2,0,L|83:124,1,68,0|2,0:0|3:0,0:0:0:0:
326,97,24464,1,2,3:0:0:0:
197,54,24627,6,0,P|191:119|197:199,1,136
233,326,25116,1,0,0:0:0:0:
376,262,25279,2,0,L|290:242,1,68,0|2,0:0|3:0,0:0:0:0:
127,195,25605,2,0,L|198:189,1,68
368,157,25931,1,0,0:0:0:0:
211,105,26094,6,0,B|201:171|230:175|209:256,1,136,2|0,3:0|0:0,0:0:0:0:
59,205,26583,2,0,L|139:193,1,68
293,139,26909,1,0,0:0:0:0:
187,70,27072,1,0,0:0:0:0:
141,219,27235,6,0,P|137:252|146:308,1,68,0|2,0:0|3:0,0:0:0:0:
349,276,27561,2,0,P|282:266|204:244,1,136,2|0,3:0|0:0,0:0:0:0:
53,176,28051,1,0,0:0:0:0:
141,286,28214,1,2,3:0:0:0:
288,187,28377,1,0,0:0:0:0:
373,296,28540,1,2,3:0:0:0:
281,153,28703,6,0,B|274:101|274:101|284:58|284:58|279:-7,2,152.999995330811,4|2|2,0:0|0:0|0:0,0:0:0:0:
319,290,29518,1,0,0:0:0:0:
477,214,29681,2,0,P|440:202|386:197,1,76.4999976654053,2|0,0:0|0:0,0:0:0:0:
214,243,30007,5,2,0:0:0:0:
214,243,30170,2,0,P|253:244|295:237,1,76.4999976654053,0|2,0:0|0:0,0:0:0:0:
476,177,30496,2,0,P|437:175|387:187,1,76.4999976654053,0|2,0:0|0:0,0:0:0:0:
185,118,30822,2,0,P|220:133|272:140,1,76.4999976654053,0|2,0:0|0:0,0:0:0:0:
399,108,31148,1,0,0:0:0:0:
237,39,31311,5,2,0:0:0:0:
275,211,31475,1,0,0:0:0:0:
408,96,31638,1,2,0:0:0:0:
225,128,31801,2,0,B|209:202|245:203|217:295,1,152.999995330811,0|0,0:0|0:0,0:0:0:0:
305,125,32290,1,2,0:0:0:0:
131,159,32453,1,0,0:0:0:0:
308,277,32616,6,0,P|313:200|299:101,1,152.999995330811,2|2,3:0|0:0,0:0:0:0:
128,7,33105,2,0,P|123:84|137:183,1,152.999995330811,2|0,3:0|0:0,0:0:0:0:
379,137,33594,2,0,L|285:121,1,76.4999976654053,2|0,3:0|0:0,0:0:0:0:
131,159,33920,5,2,0:0:0:0:
243,81,34083,1,0,0:0:0:0:
305,245,34246,2,0,P|307:283|302:337,1,76.4999976654053,2|0,0:0|0:0,0:0:0:0:
161,218,34572,2,0,B|149:161|170:116|170:116|167:48,1,152.999995330811,2|2,0:0|0:0,0:0:0:0:
314,186,35061,6,0,L|221:174,1,76.4999976654053,0|2,0:0|0:0,0:0:0:0:
72,239,35388,2,0,L|164:229,1,76.4999976654053,0|2,0:0|0:0,0:0:0:0:
314,186,35714,1,0,0:0:0:0:
145,142,35877,1,2,0:0:0:0:
279,28,36040,2,0,B|285:66|285:66|282:120,1,76.4999976654053,0|2,0:0|0:0,0:0:0:0:
257,251,36366,1,0,0:0:0:0:
95,180,36529,6,0,B|146:171|146:171|190:178|190:178|264:170,2,152.999995330811,4|8|2,0:0|0:0|0:0,0:0:0:0:
163,264,37344,1,0,0:0:0:0:
210,94,37507,2,0,P|203:56|185:-1,1,76.4999976654053,8|0,0:0|0:0,0:0:0:0:
281,207,37833,6,0,P|356:232|448:246,1,152.999995330811,4|0,0:0|0:0,0:0:0:0:
183,174,38322,1,8,0:0:0:0:
156,170,38404,1,8,0:0:0:0:
129,172,38485,1,4,0:0:0:0:
281,207,38648,69,0,0:0:0:0:
128,295,38811,1,8,0:0:0:0:
158,271,38893,1,8,0:0:0:0:
195,263,38975,1,8,0:0:0:0:
232,265,39056,1,8,0:0:0:0:
270,283,39138,6,0,P|354:303|441:303,1,170,4|8,0:0|0:0,0:0:0:0:
368,173,39627,1,0,0:0:0:0:
224,177,39790,2,0,P|169:189|134:187,1,85,8|0,0:0|0:0,0:0:0:0:
338,95,40116,2,0,P|380:95|421:105,1,85,8|8,0:0|0:0,0:0:0:0:
224,177,40442,6,0,P|150:176|51:223,1,170,8|2,0:0|0:0,0:0:0:0:
170,303,40931,1,0,0:0:0:0:
311,333,41094,2,0,L|302:245,1,85,8|0,0:0|0:0,0:0:0:0:
232,92,41420,2,0,L|223:176,1,85,2|0,0:0|0:0,0:0:0:0:
223,176,41665,1,0,0:0:0:0:
223,176,41746,5,8,0:0:0:0:
389,272,41909,1,0,0:0:0:0:
311,128,42072,1,2,0:0:0:0:
220,272,42235,2,0,P|168:268|110:278,1,85,0|8,0:0|0:0,0:0:0:0:
363,197,42561,2,0,P|415:193|473:203,1,85,0|2,0:0|0:0,0:0:0:0:
306,287,42888,1,8,0:0:0:0:
311,128,43051,6,0,B|271:113|231:134|231:134|187:156|118:130,1,170,8|2,0:0|0:0,0:0:0:0:
184,49,43540,1,0,0:0:0:0:
281,216,43703,2,0,P|228:235|182:239,1,85,8|0,0:0|0:0,0:0:0:0:
280,31,44029,2,0,P|321:38|361:53,1,85,2|0,0:0|0:0,0:0:0:0:
361,53,44273,1,8,0:0:0:0:
361,53,44355,6,0,B|344:86|344:86|363:241,1,170,4|2,0:0|0:0,0:0:0:0:
431,326,44844,1,0,0:0:0:0:
281,301,45007,2,0,P|234:312|189:311,1,85,8|0,0:0|0:0,0:0:0:0:
30,238,45333,2,0,P|77:249|122:248,1,85,2|8,0:0|0:0,0:0:0:0:
235,86,45659,6,0,P|161:100|78:168,1,170,8|2,0:0|0:0,0:0:0:0:
117,334,46148,1,0,0:0:0:0:
276,185,46311,2,0,P|227:180|177:194,1,85,8|0,0:0|0:0,0:0:0:0:
349,261,46638,2,0,P|377:221|390:170,1,85,2|0,0:0|0:0,0:0:0:0:
246,289,46964,6,0,P|296:354|400:356,1,170,8|2,0:0|0:0,0:0:0:0:
471,258,47453,1,0,0:0:0:0:
337,176,47616,2,0,L|350:272,1,85,8|0,0:0|0:0,0:0:0:0:
278,369,47942,1,2,0:0:0:0:
253,209,48105,1,8,0:0:0:0:
125,312,48268,6,0,P|180:302|226:302,1,85,8|8,0:0|0:0,0:0:0:0:
365,322,48594,1,2,0:0:0:0:
253,209,48757,2,0,P|180:210|80:229,1,170,8|0,0:0|0:0,0:0:0:0:
208,301,49246,1,2,0:0:0:0:
340,200,49409,1,8,0:0:0:0:
340,200,49491,1,8,0:0:0:0:
340,200,49572,6,0,B|333:146|333:146|353:81|353:81|347:14,1,170,4|2,0:0|0:0,0:0:0:0:
216,134,50061,2,0,B|223:188|223:188|203:253|203:253|209:320,1,170
386,291,50551,2,0,P|328:282|294:286,1,85,2|0,0:0|0:0,0:0:0:0:
90,180,50877,6,0,P|153:188|269:162,1,170,8|2,0:0|0:0,0:0:0:0:
468,296,51366,2,0,P|385:276|301:283,1,170,0|0,0:0|0:0,0:0:0:0:
271,302,51773,1,0,0:0:0:0:
271,302,51855,2,0,L|211:291,1,42.5,2|0,0:0|0:0,0:0:0:0:
78,264,52018,2,0,L|138:253,1,42.5,0|0,0:0|0:0,0:0:0:0:
280,196,52181,6,0,B|262:151|274:111|274:111|290:66|262:17,1,170,8|2,0:0|0:0,0:0:0:0:
185,133,52670,2,0,P|188:186|201:230,1,85,0|2,0:0|0:0,0:0:0:0:
363,109,52996,2,0,P|365:66|355:22,1,85,0|2,0:0|0:0,0:0:0:0:
281,197,53322,2,0,P|314:202|336:210,1,42.5,0|0,0:0|0:0,0:0:0:0:
391,278,53485,5,8,0:0:0:0:
295,371,53648,2,0,L|287:271,1,85,0|2,0:0|0:0,0:0:0:0:
202,131,53975,1,0,0:0:0:0:
202,131,54138,2,0,L|195:215,1,85,2|0,0:0|0:0,0:0:0:0:
193,332,54464,1,4,0:0:0:0:
281,197,54627,1,0,0:0:0:0:
112,185,54790,5,4,0:0:0:0:
112,185,54953,1,0,0:0:0:0:
360,278,55116,1,8,0:0:0:0:
91,267,55279,1,0,0:0:0:0:
361,196,55442,1,2,0:0:0:0:
83,180,55605,1,0,0:0:0:0:
330,352,55768,1,8,0:0:0:0:
346,79,55931,1,8,0:0:0:0:
346,79,56013,1,8,0:0:0:0:
346,79,56094,5,4,0:0:0:0:
320,97,56175,1,0,0:0:0:0:
290,107,56257,1,0,0:0:0:0:
258,109,56338,1,0,0:0:0:0:
227,101,56420,1,2,0:0:0:0:
197,90,56501,1,0,0:0:0:0:
166,86,56583,1,2,3:0:0:0:
134,88,56664,1,8,0:0:0:0:
103,96,56746,5,8,0:0:0:0:
136,138,56827,1,8,0:0:0:0:
148,189,56909,1,8,0:0:0:0:
138,241,56990,1,8,0:0:0:0:
101,276,57072,1,8,0:0:0:0:
146,249,57154,1,8,0:0:0:0:
199,241,57235,1,8,0:0:0:0:
247,259,57317,1,8,0:0:0:0:
286,286,57398,6,0,B|315:321|353:323|389:303|389:303|438:359|543:357|579:253|563:158|403:169|458:263,1,467.5
467,365,59355,5,4,0:0:0:0:
340,197,59518,1,4,0:0:0:0:
341,197,60007,6,0,B|210:160|255:222|138:197,1,203.999993774414,4|8,0:0|0:0,0:0:0:0:
256,96,60496,1,0,0:0:0:0:
365,237,60659,2,0,P|411:255|470:263,1,101.999996887207,2|0,0:0|0:0,0:0:0:0:
235,287,60985,1,8,0:0:0:0:
337,115,61148,1,0,0:0:0:0:
475,227,61311,6,0,L|261:197,1,203.999993774414,2|8,0:0|0:0,0:0:0:0:
64,160,61801,1,0,0:0:0:0:
256,123,61964,1,2,0:0:0:0:
169,303,62127,1,0,0:0:0:0:
123,112,62290,2,0,P|119:61|144:4,1,101.999996887207,8|0,0:0|0:0,0:0:0:0:
398,153,62616,6,0,B|291:136|309:192|194:171,1,203.999993774414,0|8,0:0|0:0,0:0:0:0:
323,55,63105,1,0,0:0:0:0:
424,188,63268,2,0,P|434:237|421:296,1,101.999996887207,2|0,0:0|0:0,0:0:0:0:
211,223,63594,1,8,0:0:0:0:
311,100,63757,1,0,0:0:0:0:
89,106,63920,6,0,B|73:174|114:186|88:263,1,152.999995330811,2|0,0:0|0:0,0:0:0:0:
46,313,64246,2,0,P|90:297|158:301,1,101.999996887207,12|0,0:0|0:0,0:0:0:0:
360,348,64572,1,2,0:0:0:0:
209,229,64735,1,0,0:0:0:0:
355,61,64898,1,8,0:0:0:0:
355,61,64980,1,8,0:0:0:0:
355,61,65061,1,8,0:0:0:0:
355,61,65143,1,8,0:0:0:0:
355,61,65225,6,0,P|364:157|357:269,1,203.999993774414,4|8,0:0|0:0,0:0:0:0:
247,81,65714,1,0,0:0:0:0:
127,204,65877,2,0,L|246:188,1,101.999996887207,2|0,0:0|0:0,0:0:0:0:
452,152,66203,2,0,L|341:135,1,101.999996887207,8|0,0:0|0:0,0:0:0:0:
107,65,66529,6,0,B|102:125|102:125|120:195|120:195|111:278,1,203.999993774414,0|8,0:0|0:0,0:0:0:0:
221,91,67018,1,0,0:0:0:0:
383,194,67181,1,0,0:0:0:0:
201,252,67344,1,0,0:0:0:0:
230,15,67507,1,8,0:0:0:0:
422,109,67670,1,8,0:0:0:0:
422,109,67752,1,8,0:0:0:0:
422,109,67833,6,0,B|346:94|346:94|290:101|290:101|214:90,1,203.999993774414,4|8,0:0|0:0,0:0:0:0:
357,17,68322,1,0,0:0:0:0:
388,253,68485,1,2,0:0:0:0:
449,83,68648,1,0,0:0:0:0:
237,152,68811,2,0,P|184:163|128:166,1,101.999996887207,12|0,0:0|0:0,0:0:0:0:
406,208,69138,5,4,0:0:0:0:
235,63,69301,1,8,0:0:0:0:
113,211,69464,1,2,0:0:0:0:
54,19,69627,1,8,0:0:0:0:
269,89,69790,2,0,L|387:106,1,101.999996887207,12|2,0:0|0:0,0:0:0:0:
146,26,70116,1,12,0:0:0:0:
135,65,70197,1,8,0:0:0:0:
130,105,70279,1,8,0:0:0:0:
132,145,70360,1,8,0:0:0:0:
142,184,70442,6,0,P|230:241|332:251,1,203.999993774414,4|8,0:0|0:0,0:0:0:0:
455,176,70931,1,0,0:0:0:0:
300,60,71094,2,0,L|308:175,1,101.999996887207,2|0,0:0|0:0,0:0:0:0:
335,335,71420,1,8,0:0:0:0:
381,190,71583,1,0,0:0:0:0:
215,135,71746,6,0,P|145:142|93:163,1,101.999996887207,0|0,0:0|0:0,0:0:0:0:
326,251,72072,2,0,P|374:265|425:268,1,101.999996887207,8|0,0:0|0:0,0:0:0:0:
209,59,72398,2,0,P|218:148|219:232,1,152.999995330811,0|0,0:0|0:0,0:0:0:0:
179,282,72725,1,8,0:0:0:0:
115,152,72888,1,0,0:0:0:0:
311,211,73051,6,0,B|376:221|376:221|452:203|452:203|519:211,1,203.999993774414,0|8,0:0|0:0,0:0:0:0:
375,115,73540,1,0,0:0:0:0:
268,287,73703,2,0,L|373:306,1,101.999996887207,0|0,0:0|0:0,0:0:0:0:
228,211,74029,1,8,0:0:0:0:
271,374,74192,1,0,0:0:0:0:
311,211,74355,6,0,P|271:138|192:135,1,152.999995330811,0|0,0:0|0:0,0:0:0:0:
94,183,74681,2,0,P|143:171|184:141,1,101.999996887207,8|0,0:0|0:0,0:0:0:0:
303,27,75007,1,2,0:0:0:0:
103,92,75170,1,0,0:0:0:0:
295,158,75333,1,8,0:0:0:0:
295,158,75415,1,8,0:0:0:0:
295,158,75496,1,8,0:0:0:0:
295,158,75578,1,8,0:0:0:0:
295,158,75659,6,0,B|314:204|291:255|291:255|269:302|304:366,1,203.999993774414,12|8,0:0|0:0,0:0:0:0:
223,204,76148,1,0,0:0:0:0:
467,297,76311,2,0,P|408:300|354:291,1,101.999996887207,2|0,0:0|0:0,0:0:0:0:
121,207,76638,2,0,P|171:200|222:203,1,101.999996887207,8|0,0:0|0:0,0:0:0:0:
407,66,76964,6,0,L|416:263,1,152.999995330811,2|0,0:0|0:0,0:0:0:0:
365,293,77290,2,0,P|331:238|287:207,1,101.999996887207,8|0,0:0|0:0,0:0:0:0:
145,281,77616,1,0,0:0:0:0:
282,108,77779,1,0,0:0:0:0:
285,324,77942,1,8,0:0:0:0:
119,194,78105,1,8,0:0:0:0:
119,194,78186,1,8,0:0:0:0:
119,194,78268,6,0,P|104:133|214:50,1,203.999993774414,4|8,0:0|0:0,0:0:0:0:
303,179,78757,1,0,0:0:0:0:
119,194,78920,2,0,P|65:201|15:189,1,101.999996887207,0|0,0:0|0:0,0:0:0:0:
205,141,79246,2,0,L|216:261,1,101.999996887207,8|0,0:0|0:0,0:0:0:0:
326,329,79572,5,4,0:0:0:0:
145,292,79735,1,2,0:0:0:0:
350,311,79898,1,8,0:0:0:0:
163,370,80061,1,2,0:0:0:0:
202,187,80225,1,8,0:0:0:0:
418,249,80388,1,8,0:0:0:0:
153,276,80551,1,8,0:0:0:0:
124,247,80632,1,8,0:0:0:0:
108,210,80714,1,8,0:0:0:0:
106,169,80795,1,8,0:0:0:0:
121,131,80877,6,0,P|164:100|218:94,1,101.999996887207,4|2,0:0|0:0,0:0:0:0:
383,182,81203,1,0,0:0:0:0:
153,276,81366,1,4,0:0:0:0:
211,93,81529,1,2,0:0:0:0:
307,310,81692,1,0,0:0:0:0:
294,80,81855,1,4,0:0:0:0:
240,245,82018,1,2,0:0:0:0:
446,179,82181,5,2,0:0:0:0:
446,179,82344,2,0,L|337:186,1,101.999996887207,4|2,0:0|0:0,0:0:0:0:
160,261,82670,1,4,0:3:0:0:
227,64,82833,2,0,P|225:126|228:187,1,101.999996887207,4|2,0:0|0:0,0:0:0:0:
354,271,83159,5,12,0:0:0:0:
126,167,83322,1,4,0:0:0:0:
126,167,83811,6,0,B|186:158|186:158|230:168|230:168|313:162,1,170,4|2,0:0|0:0,0:0:0:0:
197,68,84301,1,0,0:0:0:0:
105,188,84464,2,0,P|63:196|4:199,1,85,8|0,0:0|0:0,0:0:0:0:
247,149,84790,6,0,P|329:151|425:165,1,170,4|8,0:0|0:0,0:0:0:0:
286,254,85279,1,0,0:0:0:0:
345,104,85442,1,2,0:0:0:0:
444,202,85605,1,0,0:0:0:0:
241,149,85768,2,0,L|131:138,1,85,8|0,0:0|0:0,0:0:0:0:
380,69,86094,6,0,B|409:144|361:153|396:247,1,170,4|8,0:0|0:0,0:0:0:0:
300,97,86583,1,0,0:0:0:0:
117,152,86746,2,0,L|214:162,1,85,2|0,0:0|0:0,0:0:0:0:
392,236,87072,1,8,0:0:0:0:
310,116,87235,1,0,0:0:0:0:
259,329,87398,5,4,0:0:0:0:
259,329,87561,1,0,0:0:0:0:
392,236,87725,2,0,B|438:237|494:253,1,85,8|0,0:0|0:0,0:0:0:0:
206,193,88051,2,0,B|161:192|118:207,1,85,4|2,0:0|0:0,0:0:0:0:
355,133,88377,1,4,0:0:0:0:
219,71,88540,6,0,P|217:149|235:258,1,170,4|2,0:0|0:0,0:0:0:0:
430,183,89029,2,0,L|332:162,1,85,8|0,0:0|0:0,0:0:0:0:
166,187,89355,1,2,0:0:0:0:
319,249,89518,1,0,0:0:0:0:
236,52,89681,1,8,0:0:0:0:
148,174,89844,1,0,0:0:0:0:
312,134,90007,6,0,L|498:120,1,170,4|8,0:0|0:0,0:0:0:0:
371,43,90496,1,0,0:0:0:0:
291,165,90659,2,0,P|285:208|295:267,1,85,8|0,0:0|0:0,0:0:0:0:
481,121,90985,1,8,0:0:0:0:
364,214,91148,6,0,B|264:219|296:169|181:191,1,170,4|0,0:0|0:0,0:0:0:0:
74,317,91638,2,0,P|110:299|144:252,1,85,2|0,0:0|0:0,0:0:0:0:
88,52,91964,2,0,P|87:96|113:149,1,85,8|0,0:0|0:0,0:0:0:0:
221,279,92290,1,8,0:0:0:0:
277,138,92453,1,2,0:0:0:0:
62,237,92616,5,0,0:0:0:0:
62,237,92779,1,2,0:0:0:0:
171,81,92942,2,0,P|180:120|186:178,1,85,0|2,0:0|0:0,0:0:0:0:
297,358,93268,2,0,P|296:315|305:260,1,85,8|0,0:0|0:0,0:0:0:0:
372,152,93594,1,8,0:0:0:0:
247,84,93757,1,0,0:0:0:0:
105,175,93920,6,0,P|173:159|271:169,1,152.999995330811,4|2,0:0|0:0,0:0:0:0:
398,227,94409,1,0,0:0:0:0:
398,227,94572,2,0,P|356:222|310:206,1,76.4999976654053,2|0,0:0|0:0,0:0:0:0:
191,135,94898,1,8,0:0:0:0:
18,166,95061,6,0,B|91:172|91:172|178:156,1,152.999995330811,0|0,0:0|0:0,0:0:0:0:
319,117,95551,1,2,0:0:0:0:
181,10,95714,2,0,L|194:97,1,76.4999976654053,8|2,0:0|0:0,0:0:0:0:
264,307,96040,1,0,0:0:0:0:
264,307,96203,2,0,L|273:213,1,76.4999976654053,8|0,0:0|0:0,0:0:0:0:
350,53,96529,6,0,B|372:118|342:134|366:213,1,152.999995330811,2|2,0:0|0:0,0:0:0:0:
511,175,97018,2,0,P|474:171|424:157,1,76.4999976654053,0|2,0:0|0:0,0:0:0:0:
202,109,97344,1,0,0:0:0:0:
202,109,97507,2,0,P|234:108|299:96,1,76.4999976654053,8|0,0:0|0:0,0:0:0:0:
504,63,97833,6,0,P|438:48|348:53,1,152.999995330811,2|8,0:0|0:0,0:0:0:0:
202,109,98322,1,0,0:0:0:0:
292,250,98485,2,0,L|298:163,1,76.4999976654053,2|0,3:0|0:0,0:0:0:0:
97,25,98811,2,0,L|109:127,1,76.4999976654053,8|0,0:0|0:0,0:0:0:0:
156,226,99138,5,2,0:0:0:0:
156,226,99301,1,0,0:0:0:0:
237,90,99464,1,0,0:0:0:0:
65,120,99627,1,2,3:0:0:0:
238,218,99790,2,0,P|271:228|334:236,1,76.4999976654053,2|0,0:0|0:0,0:0:0:0:
194,69,100116,1,8,0:0:0:0:
111,254,100279,1,0,0:0:0:0:
305,159,100442,6,0,B|313:196|313:196|311:252,1,76.4999976654053,2|0,0:0|0:0,0:0:0:0:
106,329,100768,1,0,0:0:0:0:
106,329,100931,2,0,B|103:297|103:297|113:239,1,76.4999976654053,8|2,0:0|0:0,0:0:0:0:
217,117,101257,1,0,0:0:0:0:
387,236,101420,2,0,B|350:240|350:240|306:233,1,76.4999976654053,8|0,0:0|0:0,0:0:0:0:
151,170,101746,6,0,P|76:153|-4:153,2,152.999995330811,4|2|2,0:0|0:0|0:0,0:0:0:0:
311,233,102561,1,0,0:0:0:0:
180,275,102725,2,0,P|144:281|91:288,1,76.4999976654053,2|0,0:0|0:0,0:0:0:0:
342,223,103051,6,0,P|416:226|502:246,1,152.999995330811,4|0,0:0|0:0,0:0:0:0:
238,185,103540,1,8,0:0:0:0:
219,170,103621,1,8,0:0:0:0:
203,151,103703,1,8,0:0:0:0:
342,223,103866,5,0,0:0:0:0:
190,332,104029,1,8,0:0:0:0:
156,337,104110,1,8,0:0:0:0:
122,332,104192,1,8,0:0:0:0:
90,319,104273,1,8,0:0:0:0:
62,298,104355,6,0,P|51:224|77:127,1,170,4|8,0:0|0:0,0:0:0:0:
208,183,104844,1,0,0:0:0:0:
245,61,105007,2,0,L|127:68,1,85,0|2,0:0|0:0,0:0:0:0:
56,193,105333,1,0,0:0:0:0:
235,172,105496,1,8,0:0:0:0:
334,47,105659,6,0,P|327:126|337:251,1,170,4|8,0:0|0:0,0:0:0:0:
245,298,106148,2,0,P|247:256|240:214,1,85,0|2,0:0|0:0,0:0:0:0:
343,353,106475,1,2,0:0:0:0:
175,163,106638,2,0,P|222:135|314:179,1,127.5,8|0,0:0|0:0,0:0:0:0:
331,216,106964,6,0,P|368:226|440:216,1,85,4|0,0:0|0:0,0:0:0:0:
240,214,107290,1,8,0:0:0:0:
370,56,107453,2,0,L|378:180,1,85,0|2,0:0|0:0,0:0:0:0:
279,294,107779,1,0,0:0:0:0:
289,150,107942,1,0,0:0:0:0:
336,326,108105,6,0,B|281:296|281:296|158:300,1,170,8|2,0:0|0:0,0:0:0:0:
26,227,108594,2,0,P|89:215|129:195,1,85,8|0,0:0|0:0,0:0:0:0:
194,96,108920,1,0,0:0:0:0:
176,273,109083,1,0,0:0:0:0:
88,112,109246,1,8,0:0:0:0:
275,181,109409,1,8,0:0:0:0:
275,181,109491,1,8,0:0:0:0:
275,181,109572,6,0,B|320:202|360:179|360:179|399:158|464:183,1,170,4|8,0:0|0:0,0:0:0:0:
403,256,110061,1,0,0:0:0:0:
316,109,110225,2,0,P|318:72|314:19,1,85,2|0,0:0|0:0,0:0:0:0:
275,181,110551,1,2,0:0:0:0:
403,256,110714,1,8,0:0:0:0:
253,346,110877,6,0,B|253:294|253:294|276:238|276:238|274:170,1,170,2|8,0:0|0:0,0:0:0:0:
153,64,111366,1,0,0:0:0:0:
168,276,111529,1,2,0:0:0:0:
228,113,111692,1,0,0:0:0:0:
68,136,111855,2,0,P|76:197|71:284,1,127.5,8|0,0:0|0:0,0:0:0:0:
29,346,112181,5,4,0:0:0:0:
205,328,112344,1,0,0:0:0:0:
115,195,112507,2,0,L|11:210,1,85,8|0,0:0|0:0,0:0:0:0:
205,328,112833,2,0,L|357:336,1,127.5,2|0,0:0|0:0,0:0:0:0:
411,342,113159,1,2,0:0:0:0:
264,217,113322,5,8,0:0:0:0:
205,140,113485,2,0,L|201:49,1,85,2|0,0:0|0:0,0:0:0:0:
350,172,113811,2,0,L|346:256,1,85,8|0,0:0|0:0,0:0:0:0:
153,247,114138,1,2,0:0:0:0:
264,217,114301,1,0,0:0:0:0:
389,102,114464,2,0,P|333:95|274:147,1,127.5,8|0,0:0|0:0,0:0:0:0:
264,217,114790,6,0,P|193:251|98:209,1,170,4|8,0:0|0:0,0:0:0:0:
44,112,115279,1,0,0:0:0:0:
178,79,115442,2,0,L|184:187,1,85,2|0,3:0|0:0,0:0:0:0:
75,301,115768,1,0,0:0:0:0:
47,139,115931,1,8,0:0:0:0:
260,105,116094,6,0,B|303:102|303:102|381:128|381:128|452:126,1,170,4|8,0:0|0:0,0:0:0:0:
297,194,116583,1,0,0:0:0:0:
414,302,116746,2,0,P|401:252|396:197,1,85,0|0,0:0|0:0,0:0:0:0:
225,101,117072,2,0,P|219:157|178:249,1,127.5,8|0,0:0|0:0,0:0:0:0:
144,281,117398,6,0,P|202:268|334:293,1,170,4|8,0:0|0:0,0:0:0:0:
394,356,117888,1,0,0:0:0:0:
478,200,118051,2,0,P|434:215|374:215,1,85,0|0,0:0|0:0,0:0:0:0:
288,148,118377,1,0,0:0:0:0:
389,32,118540,6,0,B|416:6|416:6|419:175,1,170,8|2,0:0|0:0,0:0:0:0:
218,191,119029,2,0,P|208:141|220:103,1,85,8|0,0:0|0:0,0:0:0:0:
338,251,119355,1,2,0:0:0:0:
284,63,119518,1,0,0:0:0:0:
147,208,119681,2,0,L|17:220,1,127.5,8|0,0:0|0:0,0:0:0:0:
26,138,120007,5,4,0:0:0:0:
26,138,120170,1,0,0:0:0:0:
47,309,120333,1,2,0:0:0:0:
104,101,120496,1,0,0:0:0:0:
133,327,120659,1,8,0:0:0:0:
186,140,120822,1,2,0:0:0:0:
234,318,120985,1,8,0:0:0:0:
263,59,121148,1,8,0:0:0:0:
315,319,121311,5,4,0:0:0:0:
346,312,121392,1,0,0:0:0:0:
377,306,121474,1,0,0:0:0:0:
408,300,121555,1,0,0:0:0:0:
439,293,121638,1,0,0:0:0:0:
407,286,121720,1,0,0:0:0:0:
376,280,121801,1,2,3:0:0:0:
345,274,121883,1,8,0:0:0:0:
311,267,121964,5,2,0:0:0:0:
355,235,122045,1,8,0:0:0:0:
370,185,122127,1,8,0:0:0:0:
351,137,122208,1,8,0:0:0:0:
307,109,122290,1,2,3:0:0:0:
272,149,122371,1,8,0:0:0:0:
224,171,122453,1,8,0:0:0:0:
171,172,122534,1,8,0:0:0:0:
123,150,122616,6,0,B|164:183|225:182|273:165|308:108|308:108|223:37|138:92,1,382.5,2|4,3:0|0:0,0:0:0:0:
333,279,124246,1,4,0:0:0:0:
46,292,124572,1,8,0:0:0:0:
85,307,124653,1,8,0:0:0:0:
126,316,124735,1,8,0:0:0:0:
169,318,124816,1,8,0:0:0:0:
211,313,124898,2,0,P|281:298|361:267,1,127.5,12|0,0:3|0:0,0:0:0:0:
416,250,125225,6,0,B|277:262|345:202|209:215,1,203.999993774414,4|8,0:0|0:0,0:0:0:0:
371,163,125714,1,0,0:0:0:0:
257,295,125877,1,2,0:0:0:0:
194,87,126040,1,0,0:0:0:0:
33,203,126203,2,0,B|83:207|146:192,1,101.999996887207,8|2,0:0|3:0,0:0:0:0:
312,62,126529,6,0,B|302:139|302:139|317:194|317:194|305:274,1,203.999993774414,2|8,0:0|0:0,0:0:0:0:
388,125,127018,1,0,0:0:0:0:
221,195,127181,1,2,0:0:0:0:
401,275,127344,1,0,0:0:0:0:
195,186,127507,2,0,P|141:182|87:189,1,101.999996887207,8|0,0:0|0:0,0:0:0:0:
367,121,127833,6,0,P|255:117|151:83,1,203.999993774414,4|8,0:0|0:0,0:0:0:0:
245,26,128322,1,0,0:0:0:0:
293,210,128485,1,2,0:0:0:0:
383,93,128648,1,0,0:0:0:0:
175,132,128811,2,0,P|123:139|57:126,1,101.999996887207,8|2,0:0|3:0,0:0:0:0:
303,33,129138,6,0,B|328:146|266:120|304:244,1,203.999993774414,2|8,0:0|0:0,0:0:0:0:
222,79,129627,1,0,0:0:0:0:
380,180,129790,1,2,0:0:0:0:
303,33,129953,1,0,0:0:0:0:
172,219,130116,1,8,0:0:0:0:
172,219,130197,1,8,0:0:0:0:
172,219,130279,1,8,0:0:0:0:
172,219,130360,1,8,0:0:0:0:
172,219,130442,6,0,B|250:209|250:209|292:220|292:220|378:215,1,203.999993774414,4|8,0:0|0:0,0:0:0:0:
259,323,130931,1,0,0:0:0:0:
155,118,131094,2,0,L|174:233,1,101.999996887207,2|0,0:0|0:0,0:0:0:0:
362,316,131420,2,0,L|375:202,1,101.999996887207,8|0,0:0|0:0,0:0:0:0:
259,33,131746,5,4,0:0:0:0:
279,245,131909,1,0,0:0:0:0:
462,135,132072,1,8,0:0:0:0:
205,85,132235,1,0,0:0:0:0:
373,214,132398,2,0,P|429:225|499:233,1,101.999996887207,0|0,0:0|0:0,0:0:0:0:
241,169,132725,2,0,P|188:169|140:175,1,101.999996887207,8|8,0:0|0:0,0:0:0:0:
58,218,132969,5,8,0:0:0:0:
58,218,133051,2,0,B|128:214|128:214|193:241|193:241|276:241,1,203.999993774414,4|8,0:0|0:0,0:0:0:0:
468,212,133540,1,0,0:0:0:0:
320,158,133703,2,0,L|208:144,1,101.999996887207,2|0,0:0|0:0,0:0:0:0:
398,262,134029,1,8,0:0:0:0:
303,69,134192,1,0,0:0:0:0:
237,297,134355,5,4,0:0:0:0:
422,191,134518,1,0,0:0:0:0:
195,120,134681,1,8,0:0:0:0:
229,338,134844,1,0,0:0:0:0:
410,222,135007,2,0,L|526:220,1,101.999996887207,4|0,0:0|0:0,0:0:0:0:
223,257,135333,2,0,P|193:255|144:243,1,50.9999984436036,8|8,0:0|0:0,0:0:0:0:
25,174,135496,2,0,P|52:173|80:167,1,50.9999984436036,8|8,0:0|0:0,0:0:0:0:
224,107,135659,6,0,B|292:99|292:99|433:123,1,203.999993774414,4|8,0:0|0:0,0:0:0:0:
287,201,136148,1,0,0:0:0:0:
142,120,136311,2,0,L|137:17,1,101.999996887207,2|0,0:0|0:0,0:0:0:0:
108,235,136638,1,8,0:0:0:0:
287,201,136801,1,0,0:0:0:0:
40,152,136964,6,0,P|7:256|74:339,1,203.999993774414,2|8,0:0|0:0,0:0:0:0:
246,328,137453,1,0,0:0:0:0:
157,109,137616,1,2,0:0:0:0:
147,334,137779,1,0,0:0:0:0:
247,118,137942,2,0,B|286:102|326:121|326:121|368:143|412:116,1,152.999995330811,8|0,0:0|0:0,0:0:0:0:
442,62,138268,6,0,P|417:132|453:266,1,203.999993774414,4|8,0:0|0:0,0:0:0:0:
347,357,138757,1,0,0:0:0:0:
184,275,138920,2,0,P|256:257|289:229,1,101.999996887207,2|0,0:0|0:0,0:0:0:0:
313,53,139246,1,8,0:0:0:0:
356,247,139409,1,2,3:0:0:0:
132,201,139572,6,0,P|99:273|145:361,1,152.999995330811,2|0,0:0|0:0,0:0:0:0:
184,275,139898,2,0,P|216:229|219:180,1,101.999996887207,8|0,0:0|0:0,0:0:0:0:
68,44,140225,1,2,3:0:0:0:
22,229,140388,1,2,3:0:0:0:
189,111,140551,1,8,0:0:0:0:
189,111,140632,1,8,0:0:0:0:
189,111,140714,1,8,0:0:0:0:
189,111,140795,1,8,0:0:0:0:
189,111,140877,6,0,B|249:108|249:108|316:137|316:137|388:134,1,203.999993774414,4|8,0:0|0:0,0:0:0:0:
450,39,141366,1,0,0:0:0:0:
285,224,141529,2,0,L|387:220,1,101.999996887207,2|0,0:0|0:0,0:0:0:0:
263,32,141855,2,0,L|161:38,1,101.999996887207,8|0,0:0|0:0,0:0:0:0:
297,301,142181,6,0,P|283:241|297:135,1,152.999995330811,2|0,0:0|0:0,0:0:0:0:
221,117,142507,2,0,P|167:138|100:122,1,101.999996887207,8|0,0:0|0:0,0:0:0:0:
285,224,142833,2,0,P|335:220|381:240,1,101.999996887207,2|0,0:0|0:0,0:0:0:0:
189,314,143159,1,8,0:0:0:0:
124,133,143322,1,8,0:0:0:0:
124,133,143404,1,8,0:0:0:0:
124,133,143485,6,0,P|135:69|265:28,1,203.999993774414,4|8,0:0|0:0,0:0:0:0:
388,167,143975,1,0,0:0:0:0:
199,256,144138,1,2,0:0:0:0:
293,105,144301,1,0,0:0:0:0:
190,278,144464,1,8,0:0:0:0:
380,283,144627,1,0,0:0:0:0:
290,82,144790,5,4,0:0:0:0:
236,351,144953,1,0,0:0:0:0:
207,69,145116,1,8,0:0:0:0:
319,358,145279,1,0,0:0:0:0:
238,142,145442,1,8,0:0:0:0:
380,283,145605,1,8,0:0:0:0:
187,282,145768,1,8,0:0:0:0:
187,282,145850,1,8,0:0:0:0:
187,282,145931,1,8,0:0:0:0:
187,282,146013,1,8,0:0:0:0:
187,282,146094,6,0,L|77:289,1,101.999996887207,4|2,0:0|0:0,0:0:0:0:
274,221,146420,1,0,0:0:0:0:
262,47,146583,1,4,0:0:0:0:
135,201,146746,1,2,0:0:0:0:
345,142,146909,1,0,0:0:0:0:
180,20,147072,2,0,L|186:150,1,101.999996887207,4|2,0:0|0:0,0:0:0:0:
338,301,147398,5,2,0:0:0:0:
270,109,147561,1,4,0:0:0:0:
324,330,147725,1,2,0:0:0:0:
160,204,147888,1,4,0:3:0:0:
362,136,148051,2,0,P|407:125|475:139,1,101.999996887207,4|2,0:0|0:0,0:0:0:0:
301,245,148377,1,12,0:0:0:0:
317,58,148540,1,4,0:0:0:0:
256,192,148703,12,0,150007,0:0:0:0:
256,192,156529,12,2,157833,0:0:0:0:
318,302,157996,5,0,0:0:0:0:
209,100,158159,1,0,0:0:0:0:
196,296,158322,1,0,0:0:0:0:
352,134,158485,2,0,L|416:128,3,42.5,8|8|8|8,0:0|0:0|0:0|0:0,0:0:0:0:
298,198,158811,2,0,L|239:191,3,42.5,8|8|8|8,0:0|0:0|0:0|0:0,0:0:0:0:
375,249,159138,6,0,L|495:267,1,101.999996887207,6|0,1:0|0:0,0:0:0:0:
329,108,159464,1,8,0:0:0:0:
215,289,159627,1,4,0:0:0:0:
95,210,159790,2,0,P|189:195|315:200,1,203.999993774414,2|8,1:0|0:0,0:0:0:0:
374,230,160197,1,8,0:0:0:0:
374,230,160279,2,0,L|315:215,1,50.9999984436036,8|8,0:0|0:0,0:0:0:0:
205,122,160442,6,0,B|169:210|225:215|192:335,1,203.999993774414,6|8,0:0|0:0,0:0:0:0:
95,210,160931,1,4,0:0:0:0:
292,150,161094,1,2,1:0:0:0:
107,86,161257,1,2,0:0:0:0:
318,159,161420,2,0,L|436:172,1,101.999996887207,2|2,1:0|1:0,0:0:0:0:
137,76,161746,6,0,B|208:66|208:66|261:73|261:73|357:63,1,203.999993774414,6|8,1:0|0:0,0:0:0:0:
207,157,162235,2,0,B|157:161|157:161|92:147,1,101.999996887207,6|0,1:0|0:0,0:0:0:0:
228,14,162561,1,8,0:0:0:0:
309,199,162725,1,8,0:0:0:0:
309,199,162806,1,8,0:0:0:0:
309,199,162888,1,8,0:0:0:0:
309,199,162969,1,8,0:0:0:0:
309,199,163051,6,0,B|427:231|390:170|525:220,1,203.999993774414,6|8,1:0|0:0,0:0:0:0:
415,282,163540,1,2,1:0:0:0:
358,128,163703,2,0,P|349:83|356:13,1,101.999996887207,2|2,0:0|0:0,0:0:0:0:
290,234,164029,1,8,0:0:0:0:
208,131,164192,1,2,0:0:0:0:
66,226,164355,6,0,B|130:214|130:214|189:223|189:223|283:212,1,203.999993774414,6|8,1:0|0:0,0:0:0:0:
476,167,164844,2,0,B|424:167|424:167|348:146,1,101.999996887207,2|0,1:0|0:0,0:0:0:0:
158,86,165170,1,2,1:0:0:0:
158,86,165333,2,0,B|206:88|206:88|270:107,1,101.999996887207,8|2,0:0|0:0,0:0:0:0:
409,253,165659,5,2,1:0:0:0:
325,69,165822,1,2,1:0:0:0:
242,299,165985,1,2,1:0:0:0:
411,232,166148,2,0,P|459:224|518:229,1,101.999996887207,2|2,1:0|0:0,0:0:0:0:
389,120,166475,1,2,1:0:0:0:
194,209,166638,2,0,P|140:208|81:183,1,101.999996887207,2|2,1:0|1:0,0:0:0:0:
60,126,166882,5,2,1:0:0:0:
60,126,166964,2,0,P|65:203|61:333,1,203.999993774414,4|2,0:0|1:0,0:0:0:0:
226,163,167453,1,2,1:0:0:0:
156,306,167616,5,0,0:0:0:0:
216,88,167779,1,2,0:0:0:0:
304,312,167942,5,8,0:0:0:0:
151,132,168105,1,8,0:0:0:0:
394,199,168268,5,4,0:0:0:0:
97,243,168431,1,4,0:0:0:0:
83,245,168920,5,4,0:0:0:0:
410,199,169083,1,2,0:0:0:0:
410,199,169572,6,0,L|276:179,1,101.999996887207,6|0,1:0|0:0,0:0:0:0:
165,147,169898,1,8,0:0:0:0:
220,338,170061,2,0,P|212:264|222:230,1,101.999996887207,2|0,1:0|0:0,0:0:0:0:
394,133,170388,2,0,P|333:176|299:185,1,101.999996887207,2|8,1:0|0:0,0:0:0:0:
145,131,170714,1,0,0:0:0:0:
117,309,170877,5,2,1:0:0:0:
144,108,171040,1,0,0:0:0:0:
111,337,171203,1,8,0:0:0:0:
310,250,171366,2,0,L|416:237,1,101.999996887207,2|0,1:0|0:0,0:0:0:0:
246,95,171692,2,0,L|140:82,1,101.999996887207,2|2,1:0|1:0,0:0:0:0:
41,202,172018,1,2,1:0:0:0:
245,188,172181,5,2,1:0:0:0:
58,113,172344,1,2,1:0:0:0:
87,324,172507,1,8,0:0:0:0:
296,272,172670,2,0,P|241:287|191:271,1,101.999996887207,2|0,1:0|0:0,0:0:0:0:
132,170,172996,1,2,1:0:0:0:
238,61,173159,2,0,L|247:184,1,101.999996887207,8|2,0:0|1:0,0:0:0:0:
180,300,173485,5,2,1:0:0:0:
357,229,173648,1,2,1:0:0:0:
175,194,173811,1,2,1:0:0:0:
365,336,173975,2,0,L|354:177,1,152.999995330811,2|0,1:0|0:0,0:0:0:0:
350,105,174301,1,2,0:0:0:0:
409,242,174464,2,0,P|342:262|302:245,1,101.999996887207,8|8,0:0|0:0,0:0:0:0:
78,208,174790,6,0,P|181:221|275:175,1,203.999993774414,6|8,1:0|0:0,0:0:0:0:
321,54,175279,1,0,0:0:0:0:
492,166,175442,2,0,P|432:152|369:164,1,101.999996887207,2|0,1:0|0:0,0:0:0:0:
341,223,175686,1,2,1:0:0:0:
341,223,175768,2,0,L|350:332,1,101.999996887207,0|2,0:0|1:0,0:0:0:0:
269,179,176094,5,4,0:0:0:0:
321,54,176257,1,2,1:0:0:0:
424,223,176420,1,2,1:0:0:0:
242,176,176583,2,0,P|166:171|73:183,1,152.999995330811,2|0,1:0|0:0,0:0:0:0:
36,231,176909,2,0,P|41:162|31:113,1,101.999996887207,0|2,0:0|1:0,0:0:0:0:
147,40,177235,1,8,0:0:0:0:
164,210,177398,5,2,1:0:0:0:
197,247,177479,1,0,0:0:0:0:
246,259,177561,1,0,0:0:0:0:
293,241,177642,1,0,0:0:0:0:
322,200,177725,2,0,P|321:167|312:131,1,50.9999984436036,2|0,1:0|0:0,0:0:0:0:
400,43,177888,2,0,P|395:68|395:93,1,50.9999984436036,0|0,0:0|0:0,0:0:0:0:
427,204,178051,5,2,1:0:0:0:
432,254,178132,1,0,0:0:0:0:
461,295,178214,1,0,0:0:0:0:
410,294,178295,1,0,0:0:0:0:
365,318,178377,5,8,0:0:0:0:
339,319,178458,1,8,0:0:0:0:
314,321,178540,1,8,0:0:0:0:
288,323,178621,1,8,0:0:0:0:
263,325,178703,5,4,0:0:0:0:
100,250,178866,1,8,0:3:0:0:
305,206,179029,1,8,0:3:0:0:
305,206,179110,1,0,0:0:0:0:
305,206,179192,1,4,0:0:0:0:
112,332,179355,1,0,0:0:0:0:
93,104,179518,1,8,0:3:0:0:
184,237,179681,1,8,0:0:0:0:
184,237,179763,1,8,0:0:0:0:
184,237,179844,2,0,L|241:238,1,50.9999984436036,8|8,0:0|0:0,0:0:0:0:
381,227,180007,5,4,0:0:0:0:
256,191,190442,5,4,0:0:0:0:
256,191,190605,1,0,0:0:0:0:
124,147,190768,2,0,P|81:136|35:128,1,85,2|0,0:0|0:0,0:0:0:0:
277,201,191094,2,0,P|366:201|471:180,1,170,8|2,0:0|0:0,0:0:0:0:
445,187,191583,1,0,0:0:0:0:
283,279,191746,5,2,0:0:0:0:
315,112,191909,1,0,0:0:0:0:
454,221,192072,2,0,P|413:216|353:200,1,85,2|0,0:0|0:0,0:0:0:0:
150,138,192398,2,0,P|237:139|329:103,1,170,8|2,0:0|0:0,0:0:0:0:
380,43,192888,1,0,0:0:0:0:
266,185,193051,6,0,P|261:225|271:279,1,85,2|0,0:0|0:0,0:0:0:0:
329,91,193377,1,2,0:0:0:0:
355,224,193540,1,0,0:0:0:0:
195,156,193703,2,0,B|124:148|124:148|81:176|23:162,1,170,8|2,0:0|0:0,0:0:0:0:
63,81,194192,1,0,0:0:0:0:
149,237,194355,5,2,0:0:0:0:
206,71,194518,1,0,0:0:0:0:
332,152,194681,2,0,L|437:172,1,85,2|0,0:0|0:0,0:0:0:0:
211,206,195007,2,0,L|42:224,1,170,8|2,0:0|0:0,0:0:0:0:
144,130,195496,1,0,0:0:0:0:
262,263,195659,6,0,B|344:284|343:228|441:269,1,170,4|2,0:0|0:0,0:0:0:0:
381,332,196148,1,0,0:0:0:0:
293,189,196311,2,0,P|290:146|303:87,1,85,8|0,0:0|0:0,0:0:0:0:
233,273,196638,1,2,0:0:0:0:
366,152,196801,1,0,0:0:0:0:
221,81,196964,6,0,B|152:73|152:73|101:84|101:84|39:79,1,170,8|2,0:0|0:0,0:0:0:0:
98,0,197453,1,0,0:0:0:0:
162,152,197616,1,8,0:0:0:0:
52,80,197779,1,0,0:0:0:0:
225,37,197942,2,0,P|263:28|323:30,1,85,2|0,0:0|0:0,0:0:0:0:
131,125,198268,6,0,B|104:210|153:210|117:303,1,170,8|2,0:0|0:0,0:0:0:0:
38,240,198757,1,0,0:0:0:0:
203,173,198920,2,0,L|298:165,1,85,2|0,0:0|0:0,0:0:0:0:
495,231,199246,2,0,L|411:217,1,85,2|0,0:0|0:0,0:0:0:0:
382,201,199491,1,0,0:0:0:0:
382,201,199572,5,2,0:0:0:0:
232,298,199735,1,0,0:0:0:0:
125,194,199898,2,0,P|120:150|130:104,1,85,2|0,0:0|0:0,0:0:0:0:
315,300,200225,2,0,P|271:305|225:295,1,85,2|0,0:0|0:0,0:0:0:0:
413,133,200551,2,0,P|418:177|408:223,1,85,2|2,0:0|3:0,0:0:0:0:
394,252,200795,1,2,3:0:0:0:
394,252,200877,6,0,P|320:256|258:186,1,152.999995330811,2|0,3:0|0:0,0:0:0:0:
257,71,201529,1,0,0:0:0:0:
257,71,201855,1,0,0:0:0:0:
187,140,202018,1,0,0:0:0:0:
348,173,202181,6,0,L|355:289,1,101.999996887207,2|0,3:0|0:0,0:0:0:0:
185,339,202833,2,0,L|178:223,1,101.999996887207,2|0,3:0|0:0,0:0:0:0:
187,140,203322,1,0,0:0:0:0:
275,283,203485,6,0,B|312:292|353:275|353:275|395:251|442:278,1,152.999995330811,2|0,3:0|0:0,0:0:0:0:
488,328,204138,1,2,3:0:0:0:
488,328,204464,1,0,0:0:0:0:
396,343,204627,1,0,0:0:0:0:
451,201,204790,6,0,P|443:151|446:82,1,101.999996887207,2|0,3:0|0:0,0:0:0:0:
346,35,205442,2,0,P|340:83|332:103,1,50.9999984436036,2|0,3:0|0:0,0:0:0:0:
451,201,205768,2,0,P|445:176|444:150,1,50.9999984436036,0|0,0:0|0:0,0:0:0:0:
337,305,206094,6,0,P|282:319|195:249,1,152.999995330811,2|0,3:0|0:0,0:0:0:0:
186,176,206746,2,0,L|179:108,1,50.9999984436036,2|0,3:0|0:0,0:0:0:0:
292,176,207072,2,0,L|286:226,1,50.9999984436036,0|0,0:0|0:0,0:0:0:0:
150,206,207398,6,0,L|138:94,1,101.999996887207,2|0,3:0|0:0,0:0:0:0:
297,125,208051,2,0,L|286:226,1,101.999996887207,2|0,3:0|0:0,0:0:0:0:
247,337,208703,6,0,B|284:346|325:329|325:329|367:305|414:332,1,152.999995330811,2|0,3:0|0:0,0:0:0:0:
469,373,209355,1,0,0:0:0:0:
471,284,209518,2,0,L|468:209,1,50.9999984436036,0|0,0:0|0:0,0:0:0:0:
461,91,209844,1,2,0:0:0:0:
461,91,210659,5,0,0:0:0:0:
391,168,210985,1,0,0:0:0:0:
76,62,211311,6,0,B|90:100|69:154|69:154|48:205|76:268,1,203.999993774414,4|8,0:0|0:0,0:0:0:0:
323,141,211801,1,0,0:0:0:0:
187,194,211964,2,0,L|85:204,1,101.999996887207,2|0,0:0|0:0,0:0:0:0:
293,244,212290,1,8,0:0:0:0:
202,91,212453,1,0,0:0:0:0:
24,168,212616,6,0,B|85:166|85:166|158:184|158:184|229:187,1,203.999993774414,2|8,0:0|0:0,0:0:0:0:
416,153,213105,1,0,0:0:0:0:
282,23,213268,2,0,P|275:79|284:132,1,101.999996887207,2|0,0:0|0:0,0:0:0:0:
330,334,213594,2,0,P|336:283|329:233,1,101.999996887207,8|0,0:0|0:0,0:0:0:0:
181,36,213920,6,0,B|158:133|205:140|169:241,1,203.999993774414,4|8,0:0|0:0,0:0:0:0:
69,160,214409,1,0,0:0:0:0:
266,88,214572,2,0,P|277:135|271:205,1,101.999996887207,2|0,0:0|0:0,0:0:0:0:
86,73,214898,1,8,0:0:0:0:
170,237,215061,1,2,3:0:0:0:
314,159,215225,6,0,P|388:141|479:137,1,152.999995330811,2|2,3:0|3:0,0:0:0:0:
498,146,215551,1,8,0:0:0:0:
407,39,215714,1,2,3:0:0:0:
293,181,215877,2,0,P|246:194|186:195,1,101.999996887207,2|0,0:0|0:0,0:0:0:0:
4,92,216203,1,8,0:0:0:0:
4,92,216284,1,8,0:0:0:0:
4,92,216366,1,8,0:0:0:0:
4,92,216447,1,8,0:0:0:0:
3,91,216529,6,0,P|69:114|154:109,1,152.999995330811,4|0,0:0|0:0,0:0:0:0:
184,87,216855,1,8,0:0:0:0:
156,280,217018,1,0,0:0:0:0:
309,241,217181,2,0,P|360:241|435:258,1,101.999996887207,2|0,0:0|0:0,0:0:0:0:
147,190,217507,2,0,P|98:178|46:154,1,101.999996887207,8|0,0:0|0:0,0:0:0:0:
251,68,217833,6,0,B|268:123|268:123|256:284,1,203.999993774414,4|8,0:0|0:0,0:0:0:0:
361,201,218322,1,0,0:0:0:0:
164,128,218485,1,2,0:0:0:0:
359,73,218648,1,0,0:0:0:0:
257,269,218811,1,8,0:0:0:0:
155,102,218975,1,8,0:0:0:0:
155,102,219056,1,8,0:0:0:0:
155,102,219138,6,0,B|268:91|228:128|361:121,1,203.999993774414,4|8,0:0|0:0,0:0:0:0:
297,32,219627,1,0,0:0:0:0:
193,187,219790,1,2,0:0:0:0:
135,63,219953,1,0,0:0:0:0:
356,121,220116,2,0,L|486:142,1,101.999996887207,8|0,0:0|0:0,0:0:0:0:
266,270,220442,6,0,P|273:162|263:58,1,203.999993774414,2|8,0:0|0:0,0:0:0:0:
181,176,220931,1,0,0:0:0:0:
356,121,221094,2,0,P|405:112|483:111,1,101.999996887207,0|8,0:0|0:0,0:0:0:0:
297,219,221420,1,8,0:0:0:0:
264,66,221583,1,8,0:0:0:0:
301,320,221746,6,0,P|303:270|296:215,1,101.999996887207,4|0,0:0|0:0,0:0:0:0:
102,115,222072,2,0,P|151:138|210:152,1,101.999996887207,8|0,0:0|0:0,0:0:0:0:
390,110,222398,1,2,0:0:0:0:
245,52,222561,1,0,0:0:0:0:
124,209,222725,2,0,B|116:259|116:259|129:325,1,101.999996887207,8|0,0:0|0:0,0:0:0:0:
331,202,223051,5,2,0:0:0:0:
204,256,223214,1,0,0:0:0:0:
390,309,223377,1,8,0:0:0:0:
310,132,223540,1,0,0:0:0:0:
129,208,223703,2,0,P|177:204|234:195,1,101.999996887207,2|0,0:0|0:0,0:0:0:0:
469,275,224029,2,0,P|415:267|358:251,1,101.999996887207,8|0,0:0|0:0,0:0:0:0:
235,115,224355,6,0,B|225:176|225:176|239:252|239:252|230:317,1,203.999993774414,4|8,0:0|0:0,0:0:0:0:
319,170,224844,1,0,0:0:0:0:
147,267,225007,1,2,0:0:0:0:
312,320,225170,1,0,0:0:0:0:
118,256,225333,2,0,P|63:256|7:267,1,101.999996887207,8|0,0:0|0:0,0:0:0:0:
245,188,225659,6,0,B|364:178|311:222|465:217,1,203.999993774414,4|8,0:0|0:0,0:0:0:0:
393,121,226148,1,0,0:0:0:0:
312,283,226311,1,2,0:0:0:0:
283,79,226475,1,0,0:0:0:0:
85,168,226638,1,8,0:0:0:0:
85,168,226719,1,8,0:0:0:0:
85,168,226801,1,8,0:0:0:0:
85,168,226882,1,8,0:0:0:0:
85,168,226964,6,0,B|154:158|154:158|208:167|208:167|297:161,1,203.999993774414,4|8,0:0|0:0,0:0:0:0:
454,115,227453,1,0,0:0:0:0:
277,34,227616,1,2,0:0:0:0:
252,240,227779,1,0,0:0:0:0:
382,40,227942,1,8,0:0:0:0:
421,199,228105,1,0,0:0:0:0:
234,129,228268,6,0,P|120:108|26:107,1,203.999993774414,2|8,0:0|0:0,0:0:0:0:
136,202,228757,1,0,0:0:0:0:
308,113,228920,2,0,P|359:103|413:106,1,101.999996887207,2|0,0:0|0:0,0:0:0:0:
200,47,229246,1,8,0:0:0:0:
200,47,229328,1,8,0:0:0:0:
200,47,229409,1,8,0:0:0:0:
200,47,229491,1,8,0:0:0:0:
200,47,229572,6,0,B|163:142|241:135|222:244|188:342|188:342|153:298|190:223,1,407.999987548829,2|8,3:0|0:0,0:0:0:0:
270,94,231040,1,0,0:0:0:0:
98,267,231203,5,8,0:0:0:0:
200,47,231366,1,0,0:0:0:0:
37,213,231529,5,8,0:0:0:0:
312,170,231692,1,8,0:0:0:0:
345,175,231773,1,8,0:0:0:0:
377,186,231855,1,8,0:0:0:0:
183,61,232018,6,0,P|170:153|178:278,1,203.999993774414,4|0,0:0|0:0,0:0:0:0:
464,154,232507,2,0,L|299:171,1,152.999995330811,4|0,0:0|0:0,0:0:0:0:
254,235,232833,1,2,0:0:0:0:
304,54,232996,1,2,3:0:0:0:
437,281,233159,2,0,L|336:293,1,101.999996887207,0|2,0:0|3:0,0:0:0:0:
18,235,233485,6,0,B|70:230|70:230|124:250|124:250|197:245,1,152.999995330811,4|0,0:0|0:0,0:0:0:0:
254,235,233811,1,8,0:0:0:0:
133,54,233975,1,2,3:0:0:0:
133,54,234138,2,0,L|138:172,1,101.999996887207,0|2,0:0|3:0,0:0:0:0:
336,293,234464,2,0,P|354:228|308:146,1,152.999995330811,8|8,0:0|0:0,0:0:0:0:
239,137,234790,6,0,B|138:156|138:156|77:152,1,152.999995330811,4|0,0:0|0:0,0:0:0:0:
9,103,235116,1,12,0:0:0:0:
93,272,235279,1,0,0:0:0:0:
87,62,235442,2,0,P|128:49|195:61,1,101.999996887207,2|2,0:0|3:0,0:0:0:0:
409,171,235768,2,0,P|335:152|248:190,1,152.999995330811,8|0,0:0|0:0,0:0:0:0:
219,253,236094,5,12,0:0:0:0:
273,39,236257,1,2,3:0:0:0:
244,279,236420,1,8,0:0:0:0:
54,170,236583,2,0,P|110:184|164:163,1,101.999996887207,2|8,3:0|0:3,0:0:0:0:
221,117,236828,1,8,0:3:0:0:
221,117,236909,2,0,L|289:108,1,50.9999984436036,8|8,0:3|0:3,0:0:0:0:
392,250,237072,2,0,L|324:241,1,50.9999984436036,4|0,0:3|0:0,0:0:0:0:
138,49,237235,6,0,L|162:275,1,203.999993774414,4|0,0:0|0:0,0:0:0:0:
386,310,237725,2,0,L|398:194,1,101.999996887207,12|0,0:0|0:0,0:0:0:0:
309,66,238051,1,2,3:0:0:0:
475,224,238214,1,0,0:0:0:0:
272,305,238377,2,0,B|236:294|199:314|199:314|162:334|123:317,1,152.999995330811,8|0,0:0|0:0,0:0:0:0:
70,257,238703,6,0,P|69:212|62:142,1,101.999996887207,2|0,3:0|0:0,0:0:0:0:
46,342,239029,1,8,0:0:0:0:
11,99,239192,2,0,P|61:81|119:102,1,101.999996887207,2|2,3:0|0:0,0:0:0:0:
164,251,239518,1,2,3:0:0:0:
57,81,239681,1,8,0:0:0:0:
97,309,239844,6,0,P|142:337|252:252,1,203.999993774414,12|2,0:0|0:0,0:0:0:0:
239,54,240333,1,8,0:0:0:0:
61,165,240496,1,0,0:0:0:0:
61,165,240578,1,0,0:0:0:0:
61,165,240659,1,2,0:0:0:0:
255,34,240822,1,0,0:0:0:0:
164,251,240985,1,8,0:0:0:0:
103,13,241148,1,2,3:0:0:0:
286,171,241311,5,2,0:0:0:0:
286,171,241393,1,2,3:0:0:0:
286,171,241475,2,0,L|356:165,1,50.9999984436036,2|0,3:0|0:0,0:0:0:0:
185,115,241638,2,0,L|134:110,1,50.9999984436036,8|0,0:0|0:0,0:0:0:0:
251,261,241801,2,0,L|301:256,1,50.9999984436036,2|0,3:0|0:0,0:0:0:0:
135,192,241964,1,2,0:0:0:0:
84,189,242045,1,0,0:0:0:0:
33,186,242127,2,0,L|-17:182,1,50.9999984436036,8|0,0:0|0:0,0:0:0:0:
139,25,242290,5,8,0:0:0:0:
189,342,242453,1,8,0:0:0:0:
