osu file format v14

[General]
AudioFilename: audio.mp3
AudioLeadIn: 0
PreviewTime: 65122
Countdown: 0
SampleSet: Soft
StackLeniency: 0.7
Mode: 3
LetterboxInBreaks: 0
SpecialStyle: 0
WidescreenStoryboard: 1

[Editor]
DistanceSpacing: 0.9
BeatDivisor: 4
GridSize: 4
TimelineZoom: 1.9

[Metadata]
Title:Kotonoha Clinic
TitleUnicode:Kotonoha Clinic
Artist:sana
ArtistUnicode:sana
Creator:Weegle
Version:Normal
Source:
Tags:kotonoha kurinikku vocaloid hatsune miku mezame-p meisa 7@ mztm
BeatmapID:950990
BeatmapSetID:442199

[Difficulty]
HPDrainRate:7
CircleSize:4
OverallDifficulty:7
ApproachRate:5
SliderMultiplier:1.4
SliderTickRate:1

[Events]
//Background and Video events
0,0,"idklol.jpg",0,0
//Break Periods
//Storyboard Layer 0 (Background)
//Storyboard Layer 1 (Fail)
//Storyboard Layer 2 (Pass)
//Storyboard Layer 3 (Foreground)
//Storyboard Sound Samples

[TimingPoints]
21811,397.350993377483,4,2,1,35,1,0
65519,-100,4,2,1,45,0,1
86181,-100,4,2,1,35,0,0
88963,-100,4,2,22,55,0,0

[HitObjects]
448,192,21811,5,0,0:0:0:0:
192,192,22009,1,0,0:0:0:0:
320,192,22208,1,0,0:0:0:0:
64,192,22605,1,0,0:0:0:0:
192,192,22804,1,0,0:0:0:0:
448,192,23003,1,0,0:0:0:0:
192,192,23400,1,0,0:0:0:0:
64,192,23599,1,0,0:0:0:0:
320,192,23797,1,0,0:0:0:0:
448,192,24195,1,0,0:0:0:0:
320,192,24393,1,0,0:0:0:0:
64,192,24592,1,0,0:0:0:0:
448,192,24989,1,2,0:0:0:0:
320,192,25188,1,0,0:0:0:0:
192,192,25387,1,8,0:0:0:0:
64,192,25387,1,0,0:0:0:0:
320,192,25585,1,0,0:0:0:0:
64,192,25784,1,2,0:0:0:0:
448,192,25983,1,2,0:0:0:0:
192,192,26181,1,8,0:0:0:0:
64,192,26181,1,0,0:0:0:0:
448,192,26380,1,0,0:0:0:0:
192,192,26579,1,2,0:0:0:0:
320,192,26777,1,0,0:0:0:0:
448,192,26976,1,8,0:0:0:0:
64,192,26976,1,0,0:0:0:0:
192,192,27175,1,0,0:0:0:0:
320,192,27373,1,2,0:0:0:0:
64,192,27572,1,2,0:0:0:0:
320,192,27771,1,2,0:0:0:0:
64,192,27969,1,4,0:0:0:0:
192,192,27969,1,8,0:0:0:0:
448,192,28168,1,6,0:0:0:0:
320,192,28168,1,0,0:0:0:0:
192,192,28367,1,0,0:0:0:0:
64,192,28565,1,8,0:0:0:0:
320,192,28764,1,0,0:0:0:0:
448,192,28963,1,2,0:0:0:0:
320,192,29161,1,2,0:0:0:0:
192,192,29360,1,8,0:0:0:0:
64,192,29360,1,0,0:0:0:0:
448,192,29758,1,2,0:0:0:0:
320,192,29956,1,0,0:0:0:0:
192,192,30155,1,8,0:0:0:0:
64,192,30155,1,0,0:0:0:0:
448,192,30354,1,0,0:0:0:0:
64,192,30552,1,2,0:0:0:0:
192,192,30751,1,2,0:0:0:0:
320,192,30950,1,8,0:0:0:0:
448,192,30950,1,0,0:0:0:0:
192,192,31347,1,2,0:0:0:0:
64,192,31546,1,0,0:0:0:0:
320,192,31744,1,0,0:0:0:0:
448,192,31744,1,8,0:0:0:0:
192,192,31943,1,0,0:0:0:0:
320,192,32142,1,2,0:0:0:0:
192,192,32340,1,2,0:0:0:0:
64,192,32539,1,8,0:0:0:0:
448,192,32539,1,0,0:0:0:0:
320,192,32738,1,0,0:0:0:0:
64,192,32936,1,2,0:0:0:0:
192,192,32936,1,0,0:0:0:0:
320,192,33334,1,8,0:0:0:0:
448,192,33334,1,0,0:0:0:0:
192,192,33731,1,0,0:0:0:0:
320,192,33731,1,2,0:0:0:0:
448,192,33930,1,2,0:0:0:0:
64,192,34128,1,8,0:0:0:0:
192,192,34327,1,0,0:0:0:0:
448,192,34526,1,2,0:0:0:0:
320,192,34526,1,0,0:0:0:0:
64,192,34923,1,8,0:0:0:0:
192,192,34923,1,0,0:0:0:0:
320,192,35122,1,0,0:0:0:0:
448,192,35320,1,8,0:0:0:0:
320,192,35519,1,2,0:0:0:0:
192,192,35718,1,2,0:0:0:0:
64,192,35718,1,0,0:0:0:0:
448,192,36115,1,4,0:0:0:0:
64,192,36115,1,2,0:0:0:0:
192,192,36314,1,0,0:0:0:0:
320,192,36512,1,8,0:0:0:0:
448,192,36512,1,0,0:0:0:0:
64,192,36711,1,0,0:0:0:0:
320,192,36910,1,2,0:0:0:0:
192,192,37109,1,2,0:0:0:0:
320,192,37307,1,0,0:0:0:0:
448,192,37307,1,0,0:0:0:0:
192,192,37705,1,2,0:0:0:0:
320,192,37903,1,0,0:0:0:0:
192,192,38102,1,8,0:0:0:0:
64,192,38102,1,0,0:0:0:0:
448,192,38301,1,0,0:0:0:0:
192,192,38499,1,2,0:0:0:0:
320,192,38698,1,2,0:0:0:0:
64,192,38897,1,8,0:0:0:0:
192,192,38897,1,0,0:0:0:0:
448,192,39095,1,0,0:0:0:0:
192,192,39294,1,2,0:0:0:0:
320,192,39294,1,4,0:0:0:0:
448,192,39691,1,0,0:0:0:0:
320,192,39691,1,2,0:0:0:0:
64,192,39890,1,2,0:0:0:0:
192,192,40089,1,2,0:0:0:0:
448,192,40287,1,2,0:0:0:0:
192,192,40486,1,8,0:0:0:0:
64,192,40486,1,0,0:0:0:0:
320,192,40685,1,0,0:0:0:0:
448,192,40883,1,2,0:0:0:0:
320,192,41082,1,0,0:0:0:0:
192,192,41281,1,2,0:0:0:0:
64,192,41479,1,0,0:0:0:0:
448,192,41678,1,2,0:0:0:0:
320,192,41877,1,0,0:0:0:0:
192,192,42075,1,2,0:0:0:0:
64,192,42274,1,0,0:0:0:0:
320,192,42473,1,4,0:0:0:0:
448,192,42473,1,2,0:0:0:0:
192,192,42671,1,0,0:0:0:0:
448,192,42870,1,8,0:0:0:0:
64,192,42870,1,0,0:0:0:0:
192,192,43069,1,0,0:0:0:0:
448,192,43267,1,2,0:0:0:0:
320,192,43466,1,2,0:0:0:0:
64,192,43665,1,8,0:0:0:0:
192,192,43665,1,0,0:0:0:0:
320,192,43863,1,0,0:0:0:0:
192,192,44062,1,2,0:0:0:0:
320,192,44261,1,0,0:0:0:0:
192,192,44460,1,8,0:0:0:0:
64,192,44460,1,0,0:0:0:0:
448,192,44658,1,2,0:0:0:0:
192,192,44857,1,2,0:0:0:0:
320,192,45056,1,2,0:0:0:0:
192,192,45254,1,8,0:0:0:0:
64,192,45254,1,0,0:0:0:0:
448,192,45652,1,2,0:0:0:0:
320,192,45850,1,0,0:0:0:0:
192,192,46049,1,8,0:0:0:0:
64,192,46049,1,0,0:0:0:0:
448,192,46248,1,2,0:0:0:0:
320,192,46446,1,2,0:0:0:0:
192,192,46645,1,2,0:0:0:0:
448,192,46844,1,8,0:0:0:0:
64,192,46844,1,0,0:0:0:0:
192,192,47042,1,0,0:0:0:0:
448,192,47241,128,0,47638:0:0:0:0:
320,192,47241,1,2,0:0:0:0:
192,192,47638,128,2,48036:0:0:0:0:
320,192,48036,128,2,48433:0:0:0:0:
192,192,48433,1,2,0:0:0:0:
448,192,48632,1,0,0:0:0:0:
64,192,48830,1,6,0:0:0:0:
192,192,48830,1,0,0:0:0:0:
320,192,49228,1,8,0:0:0:0:
448,192,49228,1,0,0:0:0:0:
192,192,49426,1,2,0:0:0:0:
448,192,49625,1,2,0:0:0:0:
64,192,49625,1,0,0:0:0:0:
320,192,49824,1,2,0:0:0:0:
192,192,50022,1,0,0:0:0:0:
448,192,50420,1,4,0:0:0:0:
320,192,50420,1,2,0:0:0:0:
320,192,50817,1,4,0:0:0:0:
192,192,50817,1,2,0:0:0:0:
448,192,51214,1,6,0:0:0:0:
64,192,51214,1,0,0:0:0:0:
192,192,51413,1,2,0:0:0:0:
320,192,51612,1,8,0:0:0:0:
448,192,51612,1,0,0:0:0:0:
192,192,51810,1,0,0:0:0:0:
64,192,52009,1,2,0:0:0:0:
192,192,52208,1,0,0:0:0:0:
448,192,52407,1,8,0:0:0:0:
320,192,52407,1,0,0:0:0:0:
64,192,52605,1,0,0:0:0:0:
192,192,52804,1,2,0:0:0:0:
320,192,53003,1,2,0:0:0:0:
64,192,53201,1,0,0:0:0:0:
192,192,53201,1,8,0:0:0:0:
448,192,53599,1,0,0:0:0:0:
64,192,53599,1,0,0:0:0:0:
448,192,53996,1,2,0:0:0:0:
320,192,53996,1,0,0:0:0:0:
64,192,54195,1,0,0:0:0:0:
192,192,54393,1,2,0:0:0:0:
320,192,54592,1,0,0:0:0:0:
448,192,54791,1,10,0:0:0:0:
64,192,54791,1,0,0:0:0:0:
192,192,55188,1,4,0:0:0:0:
320,192,55188,1,2,0:0:0:0:
64,192,55585,1,2,0:0:0:0:
320,192,55585,1,0,0:0:0:0:
192,192,55983,1,2,0:0:0:0:
64,192,55983,1,0,0:0:0:0:
448,192,56181,1,8,0:0:0:0:
192,192,56380,1,8,0:0:0:0:
320,192,56579,1,8,0:0:0:0:
64,192,56777,128,10,57175:0:0:0:0:
320,192,57175,1,2,0:0:0:0:
192,192,57373,1,0,0:0:0:0:
448,192,57572,128,0,58168:0:0:0:0:
320,192,58168,1,0,0:0:0:0:
192,192,58367,1,2,0:0:0:0:
64,192,58367,1,4,0:0:0:0:
448,192,58764,1,8,0:0:0:0:
320,192,58764,1,0,0:0:0:0:
192,192,58963,1,0,0:0:0:0:
64,192,59161,1,2,0:0:0:0:
192,192,59360,1,2,0:0:0:0:
64,192,59559,1,4,0:0:0:0:
448,192,59559,1,2,0:0:0:0:
192,192,59758,1,0,0:0:0:0:
448,192,59956,1,2,0:0:0:0:
320,192,60155,1,0,0:0:0:0:
64,192,60354,1,0,0:0:0:0:
448,192,60552,1,2,0:0:0:0:
64,192,60751,1,8,0:0:0:0:
192,192,60751,1,0,0:0:0:0:
320,192,60950,1,0,0:0:0:0:
448,192,61148,1,0,0:0:0:0:
192,192,61347,1,8,0:0:0:0:
320,192,61546,1,10,0:0:0:0:
448,192,61744,1,0,0:0:0:0:
64,192,61943,1,0,0:0:0:0:
320,192,62142,1,2,0:0:0:0:
448,192,62340,1,0,0:0:0:0:
320,192,62539,1,0,0:0:0:0:
192,192,62738,1,0,0:0:0:0:
64,192,62936,1,8,0:0:0:0:
448,192,63135,1,2,0:0:0:0:
320,192,63135,1,4,0:0:0:0:
64,192,63532,1,8,0:0:0:0:
448,192,63532,1,0,0:0:0:0:
192,192,63930,1,2,0:0:0:0:
64,192,63930,1,0,0:0:0:0:
448,192,64128,1,2,0:0:0:0:
192,192,64327,1,8,0:0:0:0:
320,192,64526,1,8,0:0:0:0:
448,192,64724,128,6,65122:0:0:0:0:
320,192,65122,128,6,65519:0:0:0:0:
64,192,65519,1,6,0:0:0:0:
192,192,65718,1,0,0:0:0:0:
448,192,65916,1,8,0:0:0:0:
320,192,66115,1,0,0:0:0:0:
64,192,66314,1,2,0:0:0:0:
192,192,66512,1,0,0:0:0:0:
448,192,66711,1,8,0:0:0:0:
320,192,66910,1,0,0:0:0:0:
64,192,67109,1,2,0:0:0:0:
192,192,67307,1,0,0:0:0:0:
448,192,67506,1,8,0:0:0:0:
192,192,67705,1,0,0:0:0:0:
320,192,67903,1,2,0:0:0:0:
192,192,68102,1,0,0:0:0:0:
64,192,68301,1,8,0:0:0:0:
448,192,68301,1,0,0:0:0:0:
320,192,68698,1,6,0:0:0:0:
448,192,68698,1,0,0:0:0:0:
192,192,68897,1,0,0:0:0:0:
64,192,69095,1,8,0:0:0:0:
448,192,69095,1,0,0:0:0:0:
320,192,69294,1,0,0:0:0:0:
192,192,69493,1,2,0:0:0:0:
448,192,69691,1,0,0:0:0:0:
192,192,69890,1,8,0:0:0:0:
64,192,69890,1,0,0:0:0:0:
448,192,70089,1,0,0:0:0:0:
320,192,70188,1,0,0:0:0:0:
192,192,70287,1,2,0:0:0:0:
192,192,70685,1,2,0:0:0:0:
64,192,70685,1,4,0:0:0:0:
320,192,70883,1,0,0:0:0:0:
64,192,71082,1,2,0:0:0:0:
448,192,71082,1,4,0:0:0:0:
192,192,71479,1,8,0:0:0:0:
64,192,71479,1,0,0:0:0:0:
448,192,71678,1,8,0:0:0:0:
192,192,71877,1,6,0:0:0:0:
320,192,71877,1,0,0:0:0:0:
64,192,72274,1,8,0:0:0:0:
192,192,72274,1,0,0:0:0:0:
320,192,72473,1,0,0:0:0:0:
448,192,72671,1,2,0:0:0:0:
192,192,73069,1,8,0:0:0:0:
64,192,73069,1,0,0:0:0:0:
448,192,73267,1,0,0:0:0:0:
320,192,73466,1,2,0:0:0:0:
320,192,73863,1,8,0:0:0:0:
448,192,73863,1,0,0:0:0:0:
64,192,74062,1,0,0:0:0:0:
192,192,74261,1,2,0:0:0:0:
448,192,74658,1,12,0:0:0:0:
64,192,74658,1,2,0:0:0:0:
192,192,75056,1,2,0:0:0:0:
320,192,75056,1,4,0:0:0:0:
448,192,75254,1,0,0:0:0:0:
320,192,75453,1,0,0:0:0:0:
192,192,75652,1,0,0:0:0:0:
64,192,75850,128,2,76248:0:0:0:0:
192,192,76248,128,6,76645:0:0:0:0:
448,192,76645,1,4,0:0:0:0:
320,192,76844,1,0,0:0:0:0:
64,192,77042,1,8,0:0:0:0:
192,192,77241,1,0,0:0:0:0:
448,192,77440,1,2,0:0:0:0:
320,192,77638,1,0,0:0:0:0:
192,192,77738,1,0,0:0:0:0:
64,192,77837,1,8,0:0:0:0:
448,192,78036,1,0,0:0:0:0:
320,192,78135,1,0,0:0:0:0:
192,192,78234,1,2,0:0:0:0:
320,192,78433,1,0,0:0:0:0:
64,192,78632,1,8,0:0:0:0:
192,192,78731,1,0,0:0:0:0:
320,192,78830,1,0,0:0:0:0:
192,192,79029,1,2,0:0:0:0:
64,192,79228,1,0,0:0:0:0:
320,192,79426,1,10,0:0:0:0:
448,192,79426,1,4,0:0:0:0:
192,192,79625,1,0,0:0:0:0:
64,192,79824,1,2,0:0:0:0:
448,192,79824,1,4,0:0:0:0:
320,192,80022,1,0,0:0:0:0:
64,192,80221,1,8,0:0:0:0:
192,192,80221,1,0,0:0:0:0:
448,192,80420,1,0,0:0:0:0:
320,192,80618,1,2,0:0:0:0:
192,192,80817,1,0,0:0:0:0:
448,192,81016,1,8,0:0:0:0:
64,192,81016,1,0,0:0:0:0:
320,192,81214,1,0,0:0:0:0:
192,192,81413,1,2,0:0:0:0:
448,192,81810,1,10,0:0:0:0:
320,192,81810,1,4,0:0:0:0:
192,192,82009,1,0,0:0:0:0:
448,192,82208,1,6,0:0:0:0:
64,192,82208,1,0,0:0:0:0:
64,192,82605,1,8,0:0:0:0:
192,192,82605,1,0,0:0:0:0:
320,192,82804,1,0,0:0:0:0:
448,192,83003,1,2,0:0:0:0:
64,192,83003,1,0,0:0:0:0:
192,192,83201,1,0,0:0:0:0:
320,192,83400,1,8,0:0:0:0:
448,192,83599,1,0,0:0:0:0:
192,192,83797,1,2,0:0:0:0:
64,192,83797,1,0,0:0:0:0:
320,192,84195,1,8,0:0:0:0:
448,192,84195,1,0,0:0:0:0:
64,192,84393,1,8,0:0:0:0:
192,192,84592,1,6,0:0:0:0:
448,192,84592,1,0,0:0:0:0:
320,192,84989,1,8,0:0:0:0:
64,192,84989,1,0,0:0:0:0:
192,192,85188,1,0,0:0:0:0:
448,192,85387,1,8,0:0:0:0:
192,192,85585,1,8,0:0:0:0:
320,192,85784,1,2,0:0:0:0:
64,192,85983,1,0,0:0:0:0:
448,192,86181,128,6,86579:0:0:0:0:
192,192,86579,128,2,86976:0:0:0:0:
320,192,86976,1,2,0:0:0:0:
64,192,87175,1,0,0:0:0:0:
448,192,87373,1,2,0:0:0:0:
320,192,87572,1,0,0:0:0:0:
192,192,87771,128,0,88168:0:0:0:0:
64,192,88367,1,0,0:0:0:0:
320,192,88565,128,0,88963:0:0:0:0:
192,192,88963,1,4,0:0:0:0:
