osu file format v14

[General]
AudioFilename: audio.mp3
AudioLeadIn: 0
PreviewTime: 21799
Countdown: 0
SampleSet: Soft
StackLeniency: 0.7
Mode: 0
LetterboxInBreaks: 0
WidescreenStoryboard: 1

[Editor]
DistanceSpacing: 1.5
BeatDivisor: 2
GridSize: 4
TimelineZoom: 1

[Metadata]
Title:Kotonoha Clinic
TitleUnicode:言の葉クリニック
Artist:sana
ArtistUnicode:鎖那
Creator:Synxx3
Version:Normal
Source:
Tags:(un)sentimental spica [-Reol] Mezame-P
BeatmapID:1053159
BeatmapSetID:487830

[Difficulty]
HPDrainRate:4
CircleSize:3.3
OverallDifficulty:3
ApproachRate:5
SliderMultiplier:0.89999990463257
SliderTickRate:1

[Events]
//Background and Video events
0,0,"bg.jpg",0,0
//Break Periods
2,88753,99274
2,131270,134241
2,150740,154903
2,184118,198612
2,200012,207552
//Storyboard Layer 0 (Background)
//Storyboard Layer 1 (Fail)
//Storyboard Layer 2 (Pass)
//Storyboard Layer 3 (Foreground)
//Storyboard Sound Samples

[TimingPoints]
21799,397.350993377483,4,2,1,70,1,0
65507,-100,4,2,1,70,0,1
88553,-100,4,2,1,70,0,0
135441,-90.9090909090909,4,2,1,70,0,0
160474,-100,4,2,1,70,0,0
163653,-100,4,2,1,70,0,1
183918,-100,4,2,1,70,0,0

[HitObjects]
100,188,21799,6,0,P|132:116|160:112,1,89.999990463257,0|8,0:0|0:0,0:0:0:0:
264,76,22593,1,0,0:0:0:0:
396,120,22991,1,0,0:0:0:0:
428,256,23388,2,0,P|352:272|328:264,1,89.999990463257,0|8,0:0|0:0,0:0:0:0:
208,268,24183,2,0,L|144:312,2,44.9999952316285
108,176,24977,6,0,P|64:100|72:72,1,89.999990463257,0|8,0:0|0:0,0:0:0:0:
200,92,25772,1,0,0:0:0:0:
292,192,26169,1,0,0:0:0:0:
216,304,26567,2,0,P|156:328|120:304,1,89.999990463257,0|8,0:0|0:0,0:0:0:0:
32,232,27361,1,0,0:0:0:0:
164,204,27759,1,0,0:0:0:0:
284,264,28156,6,0,P|308:208|368:192,1,89.999990463257,0|8,0:0|0:0,0:0:0:0:
464,168,28951,1,0,0:0:0:0:
372,68,29348,1,0,0:0:0:0:
240,88,29746,6,0,P|184:120|184:176,1,89.999990463257,0|8,0:0|0:0,0:0:0:0:
260,248,30540,1,0,0:0:0:0:
124,256,30938,1,0,0:0:0:0:
36,152,31335,2,0,P|32:84|60:56,1,89.999990463257,0|8,0:0|0:0,0:0:0:0:
180,72,32130,2,0,P|292:72|304:76,1,89.999990463257
316,192,32924,5,0,0:0:0:0:
196,252,33322,1,8,0:0:0:0:
136,132,33719,1,0,0:0:0:0:
240,48,34116,2,8,P|308:32|348:36,1,89.999990463257,0|0,0:0|0:0,0:0:0:0:
428,124,34911,1,0,0:0:0:0:
332,216,35308,1,4,0:0:0:0:
64,236,36103,6,0,P|16:168|24:156,1,89.999990463257,0|8,0:0|0:0,0:0:0:0:
108,80,36898,2,0,P|188:48|220:52,1,89.999990463257,0|8,0:0|0:0,0:0:0:0:
312,108,37693,2,0,P|368:168|376:196,1,89.999990463257,0|8,0:0|0:0,0:0:0:0:
292,284,38487,2,4,P|220:304|192:296,1,89.999990463257,0|4,0:0|0:0,0:0:0:0:
60,212,42461,6,0,P|124:288|152:296,1,89.999990463257,0|8,0:0|0:0,0:0:0:0:
248,280,43255,2,0,P|316:276|340:264,1,89.999990463257,0|8,0:0|0:0,0:0:0:0:
452,196,44050,2,0,P|444:116|424:96,1,89.999990463257,0|8,0:0|0:0,0:0:0:0:
308,84,44845,2,0,P|264:68|236:68,2,44.9999952316285,0|0|8,0:0|0:0|0:0,0:0:0:0:
132,172,45640,5,0,0:0:0:0:
216,280,46037,1,8,0:0:0:0:
336,216,46434,1,0,0:0:0:0:
336,80,46832,1,8,0:0:0:0:
204,96,47229,2,0,P|172:64|128:44,2,89.999990463257,0|8|0,0:0|0:0|0:0,0:0:0:0:
116,200,48421,1,8,0:0:0:0:
220,284,48818,1,0,0:0:0:0:
332,208,49216,2,0,P|372:236|392:240,2,44.9999952316285,8|0|0,0:0|0:0|0:0,0:0:0:0:
88,92,50408,5,0,0:0:0:0:
84,228,50805,1,8,0:0:0:0:
204,292,51202,1,0,0:0:0:0:
340,304,51600,2,0,P|392:260|396:236,1,89.999990463257,8|0,0:0|0:0,0:0:0:0:
364,112,52395,2,0,L|408:88,2,44.9999952316285,8|0|0,0:0|0:0|0:0,0:0:0:0:
124,240,53587,5,0,0:0:0:0:
232,160,53984,1,8,0:0:0:0:
332,68,54381,2,0,L|372:36,2,44.9999952316285,0|0|8,0:0|0:0|0:0,0:0:0:0:
436,152,55176,1,0,0:0:0:0:
368,268,55573,1,8,0:0:0:0:
288,160,55971,1,0,0:0:0:0:
156,128,56368,6,0,P|184:60|200:52,1,89.999990463257,8|0,0:0|0:0,0:0:0:0:
328,52,57163,2,0,L|384:52,2,44.9999952316285,8|0|0,0:0|0:0|0:0,0:0:0:0:
348,320,58355,2,0,P|284:320|248:312,1,89.999990463257,0|8,0:0|0:0,0:0:0:0:
204,192,59149,2,0,P|280:168|332:176,1,89.999990463257,0|8,0:0|0:0,0:0:0:0:
172,100,59944,1,0,0:0:0:0:
68,188,60342,1,8,0:0:0:0:
160,284,60739,1,0,0:0:0:0:
428,264,61534,6,0,P|448:176|448:160,1,89.999990463257,0|8,0:0|0:0,0:0:0:0:
332,108,62328,2,0,L|264:76,2,44.9999952316285,0|0|8,0:0|0:0|0:0,0:0:0:0:
256,192,63123,12,0,64712,0:0:0:0:
52,128,65507,6,0,P|92:88|144:72,1,89.999990463257,0|8,0:0|0:0,0:0:0:0:
256,68,66302,2,0,P|328:72|364:88,1,89.999990463257
336,212,67097,2,0,P|244:228|220:216,1,89.999990463257,0|8,0:0|0:0,0:0:0:0:
116,248,67891,2,0,L|140:316,2,44.9999952316285
124,112,68686,6,0,P|168:76|228:72,1,89.999990463257,0|8,0:0|0:0,0:0:0:0:
332,84,69481,2,0,L|376:96,2,44.9999952316285
268,204,70275,1,0,0:0:0:0:
136,236,70673,2,0,P|112:236|56:208,2,44.9999952316285,8|0|0,0:0|0:0|0:0,0:0:0:0:
320,316,71467,6,0,P|352:300|380:280,2,44.9999952316285
388,200,72262,2,0,L|472:204,2,44.9999952316285,8|0|0,0:0|0:0|0:0,0:0:0:0:
280,116,73057,2,0,L|180:116,3,89.999990463257,8|0|0|0,0:0|0:0|0:0|0:0,0:0:0:0:
224,48,75044,6,0,P|248:148|252:164,1,89.999990463257,0|8,0:0|0:0,0:0:0:0:
288,264,75838,1,0,0:0:0:0:
288,264,76236,1,0,0:0:0:0:
156,292,76633,6,0,P|84:276|68:240,1,89.999990463257,0|8,0:0|0:0,0:0:0:0:
56,132,77428,2,0,P|100:60|140:40,1,89.999990463257,0|8,0:0|0:0,0:0:0:0:
212,136,78222,1,0,0:0:0:0:
304,236,78620,2,8,L|312:292,2,44.9999952316285,8|0|0,0:0|0:0|0:0,0:0:0:0:
100,240,79812,5,0,0:0:0:0:
84,108,80209,1,8,0:0:0:0:
216,72,80606,2,0,P|256:128|252:164,1,89.999990463257,0|8,0:0|0:0,0:0:0:0:
204,272,81401,1,0,0:0:0:0:
340,280,81798,2,0,L|404:280,2,44.9999952316285,8|0|0,0:0|0:0|0:0,0:0:0:0:
108,140,82991,5,0,0:0:0:0:
180,256,83388,2,0,L|184:320,2,44.9999952316285,8|0|0,0:0|0:0|0:0,0:0:0:0:
356,156,84381,2,0,L|320:124,1,44.9999952316285,0|8,0:0|0:0,0:0:0:0:
120,156,85176,2,0,L|80:112,1,44.9999952316285,0|8,0:0|0:0,0:0:0:0:
276,40,85971,2,0,L|360:44,1,44.9999952316285
388,160,86567,1,8,0:0:0:0:
76,288,87560,6,0,P|104:312|144:312,1,44.9999952316285,0|8,0:0|0:0,0:0:0:0:
308,264,88355,2,0,P|300:220|288:212,1,44.9999952316285,0|8,0:0|0:0,0:0:0:0:
136,156,100474,5,0,0:0:0:0:
164,288,100871,1,0,0:0:0:0:
300,280,101269,1,0,0:0:0:0:
380,172,101666,1,8,0:0:0:0:
256,116,102063,2,0,P|176:136|164:160,1,89.999990463257
156,272,102858,2,0,L|88:292,2,44.9999952316285,0|0|8,0:0|0:0|0:0,0:0:0:0:
288,248,103653,5,0,0:0:0:0:
372,140,104050,1,0,0:0:0:0:
260,64,104448,1,0,0:0:0:0:
208,188,104845,1,8,0:0:0:0:
120,288,105242,2,0,P|68:280|36:256,2,89.999990463257
256,300,106434,2,0,P|332:308|360:304,1,89.999990463257,8|0,0:0|0:0,0:0:0:0:
480,288,107229,2,0,P|500:220|484:176,1,89.999990463257
240,120,108421,6,0,L|164:104,2,44.9999952316285
200,248,109216,2,0,P|256:304|296:312,1,89.999990463257,0|8,0:0|0:0,0:0:0:0:
392,268,110010,1,0,0:0:0:0:
472,156,110408,1,0,0:0:0:0:
336,164,110805,2,0,L|208:168,1,89.999990463257,0|8,0:0|0:0,0:0:0:0:
112,168,111600,5,0,0:0:0:0:
152,296,111997,2,0,P|208:304|248:296,1,89.999990463257,8|0,0:0|0:0,0:0:0:0:
368,252,112792,2,0,P|372:176|336:144,3,89.999990463257,8|0|8|0,0:0|0:0|0:0|0:0,0:0:0:0:
244,112,114381,2,0,P|172:88|144:88,3,89.999990463257,8|0|8|0,0:0|0:0|0:0|0:0,0:0:0:0:
272,332,116368,5,0,0:0:0:0:
400,288,116765,1,0,0:0:0:0:
468,172,117163,1,0,0:0:0:0:
364,84,117560,2,0,L|280:148,1,89.999990463257,8|0,0:0|0:0,0:0:0:0:
208,244,118355,2,0,L|176:296,2,44.9999952316285,8|0|0,0:0|0:0|0:0,0:0:0:0:
460,144,119547,6,0,P|400:80|368:72,1,89.999990463257,0|8,0:0|0:0,0:0:0:0:
272,44,120342,1,0,0:0:0:0:
136,52,120739,1,0,0:0:0:0:
88,176,121136,2,0,L|128:256,3,89.999990463257,0|8|0|8,0:0|0:0|0:0|0:0,0:0:0:0:
256,296,122726,2,0,P|332:296|348:288,1,89.999990463257,0|8,0:0|0:0,0:0:0:0:
428,188,123520,1,0,0:0:0:0:
160,148,124315,6,0,L|204:252,1,89.999990463257,0|8,0:0|0:0,0:0:0:0:
316,288,125110,2,0,L|276:192,1,89.999990463257,0|8,0:0|0:0,0:0:0:0:
236,76,125904,1,0,0:0:0:0:
364,116,126302,1,8,0:0:0:0:
460,212,126699,1,0,0:0:0:0:
204,304,127494,5,0,0:0:0:0:
108,212,127891,1,8,0:0:0:0:
92,76,128289,1,0,0:0:0:0:
224,52,128686,1,8,0:0:0:0:
256,192,129083,12,0,131070,0:0:0:0:
160,312,135441,6,0,L|76:224,1,98.9999925308227,0|8,0:0|0:0,0:0:0:0:
116,92,136236,2,0,P|172:28|224:24,1,98.9999925308227
328,40,137030,2,0,P|424:104|440:124,1,98.9999925308227,0|8,0:0|0:0,0:0:0:0:
372,236,137825,2,0,P|280:300|272:300,1,98.9999925308227
152,280,138620,2,0,P|56:232|32:208,1,98.9999925308227,0|8,0:0|0:0,0:0:0:0:
64,88,139414,6,0,P|140:44|184:48,1,98.9999925308227
228,168,140209,2,0,L|232:284,1,98.9999925308227,0|8,0:0|0:0,0:0:0:0:
84,272,141004,2,0,L|84:160,1,98.9999925308227
208,88,141798,1,0,0:0:0:0:
340,152,142196,1,8,0:0:0:0:
228,248,142593,1,0,0:0:0:0:
376,248,142991,1,0,0:0:0:0:
248,324,143388,2,0,L|119:323,1,98.9999925308227,0|8,0:0|0:0,0:0:0:0:
20,248,144183,1,0,0:0:0:0:
140,160,144580,1,0,0:0:0:0:
264,240,144977,6,0,L|308:292,2,49.4999962654113,0|0|8,0:0|0:0|0:0,0:0:0:0:
328,104,145772,2,0,L|376:68,2,49.4999962654113
180,120,146567,2,0,L|120:72,2,49.4999962654113,0|0|8,0:0|0:0|0:0,0:0:0:0:
92,240,147361,2,0,L|40:252,2,49.4999962654113
236,276,148156,2,0,P|300:292|340:288,1,98.9999925308227,0|8,0:0|0:0,0:0:0:0:
440,188,148951,2,0,P|404:128|360:104,1,98.9999925308227
236,104,149746,2,0,P|152:104|112:120,1,98.9999925308227,0|8,0:0|0:0,0:0:0:0:
80,244,150540,1,0,0:0:0:0:
208,152,156103,6,2,L|176:112,2,49.4999962654113
316,256,156898,2,2,L|368:308,2,49.4999962654113
168,240,157693,2,2,L|96:280,6,49.4999962654113
264,128,159282,2,2,L|304:88,4,49.4999962654113
280,264,160474,5,0,0:0:0:0:
396,200,160871,2,0,L|500:272,2,89.999990463257
304,100,162063,1,0,0:0:0:0:
168,84,162461,2,0,P|100:96|80:112,1,89.999990463257
144,228,163255,1,0,0:0:0:0:
272,272,163653,1,4,0:0:0:0:
400,320,164050,6,0,P|504:312|520:304,1,89.999990463257,0|2,0:0|0:0,0:0:0:0:
492,184,164845,2,0,P|408:156|384:156,1,89.999990463257,0|2,0:0|0:0,0:0:0:0:
276,116,165640,1,0,0:0:0:0:
144,140,166037,2,0,L|64:136,2,44.9999952316285,2|0|0,0:0|0:0|0:0,0:0:0:0:
360,300,167229,6,0,P|440:232|448:216,1,89.999990463257,0|2,0:0|0:0,0:0:0:0:
352,136,168024,2,0,P|264:140|232:152,1,89.999990463257,0|2,0:0|0:0,0:0:0:0:
160,224,168818,1,0,0:0:0:0:
248,324,169216,1,2,0:0:0:0:
384,308,169613,1,0,0:0:0:0:
164,152,170408,5,0,0:0:0:0:
296,132,170805,2,0,L|276:84,2,44.9999952316285,0|0|6,0:0|0:0|0:0,0:0:0:0:
76,292,171997,2,0,P|176:320|192:320,1,89.999990463257,0|10,0:0|0:0,0:0:0:0:
296,300,172792,2,2,P|312:216|292:180,1,89.999990463257,0|10,0:0|0:0,0:0:0:0:
216,120,173587,1,0,0:0:0:0:
84,152,173984,2,0,L|8:120,2,44.9999952316285
140,276,174779,1,10,0:0:0:0:
272,296,175176,6,0,P|360:300|388:292,1,89.999990463257,0|10,0:0|0:0,0:0:0:0:
456,204,175971,2,0,P|432:148|396:120,1,89.999990463257,0|10,0:0|0:0,0:0:0:0:
284,88,176765,1,0,0:0:0:0:
152,56,177163,2,0,L|88:40,2,44.9999952316285
492,276,178752,2,0,L|504:320,2,44.9999952316285,2|0|0,0:0|0:0|0:0,0:0:0:0:
384,196,179547,1,2,0:0:0:0:
268,128,179944,1,2,0:0:0:0:
156,204,180342,1,8,0:0:0:0:
252,284,180739,2,0,P|348:288|376:276,1,89.999990463257,0|8,0:0|0:0,0:0:0:0:
408,176,181534,2,0,L|460:172,2,44.9999952316285
276,144,182328,5,8,0:0:0:0:
140,144,182726,1,0,0:0:0:0:
72,260,183123,1,0,0:0:0:0:
204,284,183520,1,8,0:0:0:0:
340,272,183918,1,0,0:0:0:0:
220,204,199812,5,2,0:0:0:0:
256,192,208752,12,0,215706,0:0:0:0:
