osu file format v14

[General]
AudioFilename: kc.mp3
AudioLeadIn: 0
PreviewTime: 171612
Countdown: 0
SampleSet: Soft
StackLeniency: 0.6
Mode: 0
LetterboxInBreaks: 0
WidescreenStoryboard: 1

[Editor]
Bookmarks: 36044,50343,51932,100409,108438,116385,117974,129100,184729
DistanceSpacing: 0.7
BeatDivisor: 4
GridSize: 4
TimelineZoom: 1

[Metadata]
Title:Kotonoha Clinic
TitleUnicode:言の葉クリニック
Artist:sana
ArtistUnicode:鎖那
Creator:Kite
Version:Moroi
Source:
Tags:(un)sentimental unsentimental spica めざめP Mezame-P つなまる Tuna Maru tsunamaru mztm meisa 7@ 初音ミク hatsune miku vocaloid ruru_ tsuitta
BeatmapID:907200
BeatmapSetID:419189

[Difficulty]
HPDrainRate:6.2
CircleSize:4.4
OverallDifficulty:8.4
ApproachRate:8.8
SliderMultiplier:1.9
SliderTickRate:1

[Events]
//Background and Video events
0,0,"kc.jpg",0,0
//Break Periods
2,161083,163035
2,201418,208135
//Storyboard Layer 0 (Background)
//Storyboard Layer 1 (Fail)
//Storyboard Layer 2 (Pass)
//Storyboard Layer 3 (Foreground)
//Storyboard Sound Samples

[TimingPoints]
21811,397.350993377483,4,2,1,70,1,0
21811,-111.111111111111,4,2,1,70,0,0
24989,-100,4,2,1,70,0,0
36115,-200,4,2,1,70,0,0
39294,-133.333333333333,4,2,1,70,0,0
42473,-100,4,2,1,70,0,0
50420,-71.4285714285714,4,2,1,70,0,0
51612,-100,4,2,1,70,0,0
53599,-90.9090909090909,4,2,1,70,0,0
53897,-100,4,2,1,70,0,0
65122,-66.6666666666667,4,2,1,70,0,0
65519,397.350993377483,4,2,1,70,1,1
65519,-83.3333333333333,4,2,1,70,0,1
75055,-100,4,2,1,70,0,1
76247,-125,4,2,1,70,0,1
76644,-83.3333333333333,4,2,1,70,0,1
83002,-100,4,2,1,70,0,1
87571,-200,4,2,1,70,0,1
89360,-133.333333333333,4,2,1,70,0,0
91843,-133.333333333333,4,2,1,50,0,0
92141,-181.818181818182,4,2,1,70,0,0
92538,-133.333333333333,4,2,1,70,0,0
100485,-100,4,2,1,70,0,0
116379,-71.4285714285714,4,2,1,70,0,0
117571,-100,4,2,1,70,0,0
119558,-90.9090909090909,4,2,1,70,0,0
119856,-100,4,2,1,70,0,0
135452,-90.9090909090909,4,2,1,70,0,0
151346,-133.333333333333,4,2,1,70,0,0
163664,-90.9090909090909,4,2,1,70,0,0
164062,-111.111111111111,4,2,1,70,0,0
167240,-90.9090909090909,4,2,1,70,0,0
171611,-66.6666666666667,4,2,1,70,0,0
172009,-83.3333333333333,4,2,1,70,0,1
182936,-133.333333333333,4,2,1,70,0,1
184426,-100,4,2,1,50,0,1
184724,-100,4,2,1,70,0,1
199823,-133.333333333333,4,2,1,70,0,0
214922,-133.333333333333,4,2,99,70,0,0

[Colours]
Combo1 : 247,117,120
Combo2 : 242,157,249

[HitObjects]
49,332,21811,6,0,L|143:345,1,85.4999973907472,2|0,0:0|0:0,0:0:0:0:
237,361,22208,1,2,0:3:0:0:
461,317,22605,1,0,0:0:0:0:
349,340,22804,1,0,0:0:0:0:
237,361,23003,1,2,0:3:0:0:
69,180,23400,6,0,P|54:133|67:91,1,85.4999973907472,2|0,0:0|0:0,0:0:0:0:
159,24,23797,1,2,0:3:0:0:
367,104,24195,1,0,0:0:0:0:
233,142,24393,1,0,0:0:0:0:
159,24,24592,1,2,0:3:0:0:
435,170,24989,6,0,P|445:215|431:262,1,95,10|0,0:0|0:0,0:0:0:0:
336,328,25387,2,0,L|234:339,1,95,2|0,0:3|0:0,0:0:0:0:
159,349,25685,1,8,0:0:0:0:
159,349,25784,1,8,0:0:0:0:
55,264,25983,1,0,0:0:0:0:
169,184,26181,2,0,P|185:128|170:94,1,95,4|0,0:3|0:0,0:0:0:0:
51,31,26579,5,8,0:0:0:0:
51,31,26777,1,0,0:0:0:0:
169,184,26976,2,0,L|266:174,1,95,2|0,0:3|0:0,0:0:0:0:
349,168,27274,1,0,0:0:0:0:
349,168,27373,6,0,L|379:165,2,23.75,8|0|8,0:0|0:0|0:0,0:0:0:0:
230,284,27572,2,0,L|217:312,2,23.75,2|0|0,0:3|0:0|0:0,0:0:0:0:
188,123,27771,2,0,L|171:98,2,23.75,8|0|0,0:0|0:0|0:0,0:0:0:0:
256,192,27969,1,4,0:0:0:0:
398,107,28168,6,0,P|354:89|309:100,1,95,8|0,0:3|0:0,0:0:0:0:
256,192,28565,1,2,0:1:0:0:
456,162,28764,1,0,0:0:0:0:
456,162,28863,1,8,0:0:0:0:
456,162,28963,2,0,P|473:116|464:71,1,95,8|0,0:0|0:0,0:0:0:0:
285,23,29360,1,4,0:3:0:0:
285,23,29559,1,0,0:0:0:0:
179,117,29758,6,0,L|77:132,1,95,8|0,0:0|0:0,0:0:0:0:
6,84,30155,1,2,0:1:0:0:
141,217,30354,1,0,0:0:0:0:
141,217,30453,1,8,0:0:0:0:
141,217,30552,2,0,P|151:264|134:308,1,95,8|0,0:0|0:0,0:0:0:0:
12,195,30950,2,0,L|7:99,1,95,4|0,0:3|0:0,0:0:0:0:
125,28,31347,5,10,0:0:0:0:
234,158,31546,1,0,0:0:0:0:
234,158,31744,1,2,0:1:0:0:
337,71,31943,1,0,0:0:0:0:
337,71,32042,1,8,0:0:0:0:
337,71,32142,1,8,0:0:0:0:
133,114,32340,1,0,0:0:0:0:
400,116,32539,2,0,P|415:78|401:25,1,95,4|0,0:3|0:0,0:0:0:0:
133,114,32936,6,0,P|124:153|146:204,1,95,10|0,0:0|0:0,0:0:0:0:
254,265,33334,1,2,0:1:0:0:
310,171,33532,1,0,0:0:0:0:
310,171,33632,1,8,0:0:0:0:
310,171,33731,1,8,0:0:0:0:
356,349,33930,1,8,0:0:0:0:
348,107,34128,2,0,P|305:89|258:107,1,95,4|0,0:3|0:0,0:0:0:0:
184,348,34526,6,0,B|216:383|275:370|297:337|297:337|328:332|359:350,1,190,10|2,0:0|0:1,0:0:0:0:
234,291,35122,1,0,0:0:0:0:
227,271,35221,1,0,0:0:0:0:
221,249,35320,2,8,L|231:216,4,23.75,8|8|8|8|8,0:1|0:1|0:1|0:1|0:1,0:1:0:0:
57,337,35718,1,10,0:0:0:0:
292,168,36115,6,0,B|306:167|318:163|318:163|326:158|340:161,1,47.5,12|0,0:0|0:0,0:0:0:0:
226,283,36512,2,0,B|240:282|252:278|252:278|260:273|274:276,1,47.5,2|0,0:0|0:0,0:0:0:0:
133,150,36910,2,0,B|147:149|159:145|159:145|167:140|181:143,1,47.5,8|0,0:0|0:0,0:0:0:0:
57,337,37307,2,0,B|71:336|83:332|83:332|91:327|105:330,1,47.5,2|0,0:3|0:0,0:0:0:0:
312,244,37705,6,0,P|323:213|320:191,1,47.5,12|0,0:0|0:0,0:0:0:0:
174,270,38102,2,0,P|178:302|191:320,1,47.5,2|0,0:0|0:0,0:0:0:0:
207,157,38499,2,0,P|181:146|152:147,1,47.5,8|0,0:0|0:0,0:0:0:0:
43,286,38897,2,0,P|70:285|97:273,1,47.5,2|0,0:3|0:0,0:0:0:0:
285,114,39294,5,12,0:0:0:0:
299,92,39691,2,0,P|350:81|406:85,1,106.875004076958,8|8,0:0|0:0,0:0:0:0:
484,104,40089,1,8,0:0:0:0:
475,243,40287,1,0,0:0:0:0:
381,173,40486,1,2,0:3:0:0:
413,354,40685,1,0,0:0:0:0:
475,243,40883,5,8,0:0:0:0:
265,304,41082,1,0,0:0:0:0:
439,173,41281,1,2,0:3:0:0:
319,357,41479,1,0,0:0:0:0:
369,144,41678,1,2,0:3:0:0:
396,360,41877,1,2,0:3:0:0:
295,166,42075,1,2,0:3:0:0:
454,314,42274,1,0,0:0:0:0:
255,229,42473,6,0,L|161:222,1,95,12|0,0:0|0:0,0:0:0:0:
25,281,42870,1,2,0:1:0:0:
116,138,43069,1,0,0:0:0:0:
116,138,43168,1,8,0:0:0:0:
116,138,43267,2,0,P|130:89|110:41,1,95,8|0,0:0|0:0,0:0:0:0:
25,281,43665,1,4,0:3:0:0:
49,295,43764,1,0,0:0:0:0:
73,309,43863,1,0,0:0:0:0:
97,324,43963,1,0,0:0:0:0:
121,338,44062,6,0,L|217:349,1,95,10|0,0:0|0:0,0:0:0:0:
388,305,44460,1,2,0:1:0:0:
270,219,44658,1,0,0:0:0:0:
270,219,44758,1,8,0:0:0:0:
270,219,44857,2,0,P|252:165|263:128,1,95,8|0,0:0|0:0,0:0:0:0:
443,22,45254,1,4,0:3:0:0:
442,174,45453,1,8,0:3:0:0:
301,36,45652,5,12,0:0:0:0:
450,181,45850,1,0,0:0:0:0:
308,42,46049,2,0,L|214:32,1,95,2|0,0:1|0:0,0:0:0:0:
130,17,46347,1,8,0:0:0:0:
130,17,46446,1,8,0:0:0:0:
46,182,46645,1,0,0:0:0:0:
226,157,46844,1,4,0:3:0:0:
193,332,47042,1,0,0:0:0:0:
152,140,47241,6,0,P|200:87|300:142,1,190,12|8,0:0|0:0,0:0:0:0:
344,265,47837,1,0,0:0:0:0:
344,265,48036,2,0,P|381:282|434:275,1,95,8|0,0:0|0:0,0:0:0:0:
492,177,48433,1,8,0:0:0:0:
325,246,48632,1,0,0:0:0:0:
506,161,48830,6,0,P|522:117|505:69,1,95,12|0,0:0|0:0,0:0:0:0:
377,12,49228,1,2,0:1:0:0:
328,223,49426,1,0,0:0:0:0:
287,103,49625,2,8,L|279:80,2,23.75,8|8|8,0:1|0:1|0:1,0:1:0:0:
297,133,49824,1,8,0:0:0:0:
377,12,50022,1,8,0:3:0:0:
100,210,50420,6,0,P|110:285|223:273,1,199.499993911743,12|0,0:0|0:0,0:0:0:0:
333,113,50817,2,0,P|262:84|216:187,1,199.499993911743,8|8,0:0|0:0,0:0:0:0:
300,363,51214,2,0,P|360:316|293:224,1,199.499993911743,8|0,0:0|0:0,0:0:0:0:
100,210,51612,5,8,0:0:0:0:
57,328,51810,1,0,0:0:0:0:
107,187,52009,2,0,L|101:88,1,95,10|0,0:0|0:0,0:0:0:0:
201,14,52407,1,2,0:1:0:0:
284,121,52605,1,0,0:0:0:0:
284,121,52705,1,8,0:0:0:0:
284,121,52804,2,0,P|326:139|375:123,1,95,8|0,0:0|0:0,0:0:0:0:
472,32,53201,1,4,0:3:0:0:
485,230,53400,1,0,0:0:0:0:
216,164,53599,6,0,B|218:128|196:106|196:106|201:57|259:38,1,156.750004783631,12|8,0:0|0:0,0:0:0:0:
140,159,53996,2,0,P|93:176|49:162,1,95,8|0,0:0|0:0,0:0:0:0:
11,50,54393,1,4,0:3:0:0:
17,269,54592,1,0,0:0:0:0:
216,164,54791,1,8,0:1:0:0:
230,139,54890,1,8,0:1:0:0:
244,114,54989,1,8,0:1:0:0:
258,89,55089,1,8,0:1:0:0:
273,65,55188,6,0,P|319:50|364:63,1,95,12|0,0:0|0:0,0:0:0:0:
375,282,55585,2,0,P|329:297|284:284,1,95,2|0,0:1|0:0,0:0:0:0:
221,228,55883,1,8,0:0:0:0:
221,228,55983,1,8,0:0:0:0:
142,313,56181,2,8,L|138:348,4,23.75,8|8|8|8|8,0:1|0:1|0:1|0:1|0:1,0:1:0:0:
50,231,56579,1,8,0:1:0:0:
48,212,56678,1,8,0:1:0:0:
47,193,56777,6,0,L|71:101,1,95,8|8,0:1|0:1,0:0:0:0:
146,38,57075,1,8,0:1:0:0:
146,38,57175,2,0,L|170:130,1,95,2|0,0:0|0:0,0:0:0:0:
242,191,57473,1,0,0:0:0:0:
242,191,57572,5,8,0:3:0:0:
256,174,57969,1,2,0:3:0:0:
273,158,58367,6,0,P|314:142|362:159,1,95,12|0,0:0|0:0,0:0:0:0:
472,289,58764,1,2,0:1:0:0:
481,171,58963,2,8,L|482:138,4,23.75,8|8|8|8|8,0:1|0:1|0:1|0:1|0:0,0:1:0:0:
472,289,59360,1,8,0:0:0:0:
317,217,59559,2,0,P|296:154|340:96,1,142.5,4|0,0:3|0:0,0:0:0:0:
405,66,59956,6,0,P|361:80|310:71,1,95,12|0,0:0|0:0,0:0:0:0:
241,38,60254,1,8,0:0:0:0:
241,38,60354,1,8,0:0:0:0:
80,108,60552,1,0,0:0:0:0:
230,164,60751,2,0,P|245:215|226:254,1,95,2|0,0:3|0:0,0:0:0:0:
95,340,61148,1,2,0:3:0:0:
52,231,61347,6,8,L|56:205,4,23.75,8|8|8|8|8,0:1|0:1|0:1|0:1|0:0,0:1:0:0:
95,340,61744,1,0,0:0:0:0:
181,258,61943,2,0,P|227:246|270:262,1,95,2|8,0:3|0:0,0:0:0:0:
331,326,62241,1,8,0:3:0:0:
331,326,62340,2,0,B|401:338|401:338|434:330,1,95,2|0,0:3|0:0,0:0:0:0:
501,296,62638,1,0,0:0:0:0:
501,296,62738,1,4,0:3:0:0:
462,143,62936,5,0,0:0:0:0:
462,143,63036,1,0,0:0:0:0:
462,143,63135,2,0,P|410:72|319:108,1,190,12|8,0:0|0:0,0:0:0:0:
256,224,63731,1,0,0:0:0:0:
256,224,63830,1,8,0:0:0:0:
256,224,63930,1,8,0:0:0:0:
366,289,64128,1,8,0:0:0:0:
133,239,64327,2,8,L|102:241,4,23.75,8|8|8|8|8,0:1|0:1|0:1|0:1|0:1,0:1:0:0:
256,224,64724,5,12,0:0:0:0:
273,214,65122,6,0,P|294:161|176:133,1,213.750008153916,2|0,0:3|0:0,0:0:0:0:
131,192,65519,6,0,P|93:202|63:198,1,56.9999982604981,12|0,0:0|0:0,0:0:0:0:
51,34,65717,2,0,P|82:23|114:25,1,56.9999982604981,2|0,0:3|0:0,0:0:0:0:
12,153,65916,2,0,P|1:115|5:85,1,56.9999982604981,8|0,0:0|0:0,0:0:0:0:
170,73,66115,2,0,P|179:104|176:136,1,56.9999982604981,2|0,0:3|0:0,0:0:0:0:
51,34,66313,6,0,P|82:24|114:27,1,56.9999982604981,8|0,0:0|0:0,0:0:0:0:
131,192,66512,2,0,P|99:201|67:200,1,56.9999982604981,2|0,0:3|0:0,0:0:0:0:
170,73,66711,2,0,P|179:104|178:137,1,56.9999982604981,8|0,0:0|0:0,0:0:0:0:
12,153,66909,2,0,P|2:121|5:89,1,56.9999982604981,2|0,0:3|0:0,0:0:0:0:
131,192,67108,6,0,P|93:202|63:198,1,56.9999982604981,8|0,0:0|0:0,0:0:0:0:
51,34,67307,2,0,P|82:23|114:25,1,56.9999982604981,2|0,0:3|0:0,0:0:0:0:
272,155,67505,1,8,0:0:0:0:
272,155,67605,1,0,0:0:0:0:
272,155,67704,2,0,P|300:154|327:145,1,56.9999982604981,2|0,0:3|0:0,0:0:0:0:
414,77,67903,6,0,P|338:130|398:231,1,227.999993041992,8|8,0:0|0:0,0:0:0:0:
444,75,68499,2,8,L|474:72,4,28.4999991302491,8|8|8|8|12,0:1|0:1|0:1|0:1|0:0,0:1:0:0:
227,96,68896,1,2,0:3:0:0:
411,154,69095,1,8,0:0:0:0:
146,116,69293,1,2,0:3:0:0:
411,154,69492,6,0,P|428:215|403:255,1,113.999996520996,8|2,0:0|0:3,0:0:0:0:
137,217,69889,2,0,P|120:156|145:116,1,113.999996520996,8|2,0:0|0:3,0:0:0:0:
216,71,70187,1,0,0:0:0:0:
216,71,70287,1,12,0:0:0:0:
286,205,70485,1,2,0:3:0:0:
397,37,70684,1,8,0:0:0:0:
467,171,70883,1,2,0:3:0:0:
295,129,71081,6,0,P|221:162|279:281,1,227.999993041992,12|8,0:0|0:0,0:0:0:0:
299,106,71677,2,8,L|303:75,4,28.4999991302491,8|8|8|8|12,0:1|0:1|0:1|0:1|0:0,0:1:0:0:
284,204,72075,1,2,0:3:0:0:
466,98,72273,1,8,0:0:0:0:
415,231,72472,1,2,0:3:0:0:
201,112,72671,5,8,0:0:0:0:
391,150,72869,1,2,0:3:0:0:
146,162,73068,2,0,P|125:116|154:53,1,113.999996520996,8|2,0:0|0:3,0:0:0:0:
393,216,73466,2,0,B|409:273|381:331|337:335|337:335|359:306|410:313,1,227.999993041992,12|8,0:0|0:0,0:0:0:0:
499,345,74062,1,2,0:3:0:0:
442,157,74260,2,0,P|390:137|338:158,1,113.999996520996,12|2,0:0|0:3,0:0:0:0:
185,275,74658,1,12,0:0:0:0:
131,170,74856,2,8,P|131:153|134:140,2,28.4999991302491,8|8|8,0:1|0:1|0:1,0:1:0:0:
166,139,75055,6,0,P|146:200|48:158,1,190,12|0,0:0|0:0,0:0:0:0:
45,64,75651,1,2,0:3:0:0:
45,64,75850,2,0,L|49:30,3,23.75,0|0|0|2,0:0|0:0|0:0|0:3,0:0:0:0:
58,136,76247,6,0,L|47:251,1,114,2|0,0:0|0:0,0:0:0:0:
128,371,76644,6,0,P|162:377|187:371,1,56.9999982604981,12|0,0:0|0:0,0:0:0:0:
279,305,76843,2,0,P|293:280|297:252,1,56.9999982604981,2|0,0:3|0:0,0:0:0:0:
264,141,77042,2,0,P|245:119|219:107,1,56.9999982604981,8|0,0:0|0:0,0:0:0:0:
103,104,77240,2,0,P|77:115|57:135,1,56.9999982604981,2|0,0:3|0:0,0:0:0:0:
19,246,77439,6,0,P|21:274|34:299,1,56.9999982604981,8|0,0:0|0:0,0:0:0:0:
128,371,77638,1,2,0:3:0:0:
161,363,77737,1,0,0:0:0:0:
194,355,77836,2,0,P|219:302|199:248,1,113.999996520996,8|2,0:0|0:3,0:0:0:0:
142,190,78134,1,0,0:0:0:0:
142,190,78234,6,0,P|135:156|139:129,1,56.9999982604981,8|0,0:0|0:0,0:0:0:0:
187,49,78432,1,2,0:3:0:0:
220,44,78532,1,0,0:0:0:0:
254,39,78631,1,8,0:0:0:0:
287,34,78730,1,0,0:0:0:0:
320,29,78830,2,0,L|379:36,1,56.9999982604981,2|0,0:3|0:0,0:0:0:0:
462,32,79028,2,0,P|360:38|370:140,1,227.999993041992,8|12,0:0|0:0,0:0:0:0:
474,182,79624,1,2,0:3:0:0:
417,341,79823,5,4,0:0:0:0:
466,160,80022,1,2,0:3:0:0:
392,351,80220,1,8,0:0:0:0:
466,160,80419,1,2,0:3:0:0:
367,361,80618,6,0,P|311:378|258:351,1,113.999996520996,8|2,0:0|0:3,0:0:0:0:
163,228,81015,1,8,0:0:0:0:
60,349,81214,1,2,0:3:0:0:
198,279,81413,2,0,P|222:213|104:208,1,227.999993041992,12|12,0:0|0:0,0:0:0:0:
60,349,82009,1,2,0:3:0:0:
215,282,82207,2,0,P|239:216|117:169,1,227.999993041992,12|8,0:0|0:0,0:0:0:0:
60,349,82803,2,8,L|57:377,2,28.4999991302491,8|8|8,0:1|0:1|0:1,0:1:0:0:
80,321,83002,6,0,L|73:227,1,95,12|2,0:0|0:3,0:0:0:0:
71,139,83300,1,2,0:3:0:0:
71,139,83399,1,2,0:3:0:0:
148,49,83598,1,2,0:3:0:0:
241,129,83797,2,0,P|294:146|337:131,1,95,8|0,0:0|0:0,0:0:0:0:
435,53,84194,1,8,0:0:0:0:
456,222,84393,5,2,0:3:0:0:
456,222,84492,1,0,0:0:0:0:
456,222,84591,1,12,0:0:0:0:
277,248,84790,1,2,0:3:0:0:
471,136,84989,1,8,0:0:0:0:
435,308,85187,5,2,0:3:0:0:
359,160,85386,2,8,L|360:137,4,23.75,8|8|8|8|8,0:1|0:1|0:1|0:1|0:1,0:1:0:0:
357,188,85684,1,8,0:1:0:0:
355,216,85783,1,8,0:1:0:0:
354,244,85883,1,8,0:1:0:0:
353,272,85982,1,8,0:1:0:0:
271,87,86181,5,12,0:0:0:0:
271,87,86379,1,2,0:3:0:0:
146,353,86578,5,8,0:0:0:0:
271,87,86975,1,8,0:0:0:0:
146,353,87373,1,8,0:0:0:0:
64,308,87571,6,0,L|57:259,1,47.5,2|4,0:3|0:0,0:0:0:0:
353,132,88366,2,0,L|360:181,1,47.5,2|2,0:3|0:3,0:0:0:0:
353,132,88962,1,2,0:0:0:0:
332,44,89360,5,12,0:0:0:0:
175,86,89558,1,2,0:3:0:0:
332,44,89757,1,8,0:0:0:0:
175,86,89956,1,2,0:3:0:0:
332,44,90154,1,8,0:0:0:0:
175,86,90353,1,2,0:3:0:0:
332,44,90552,1,8,0:0:0:0:
175,86,90750,1,2,0:3:0:0:
259,82,90949,5,8,0:0:0:0:
102,40,91148,1,2,0:3:0:0:
259,82,91346,5,8,0:0:0:0:
102,40,91545,1,2,0:3:0:0:
259,82,91744,1,8,0:0:0:0:
102,40,91942,2,8,L|75:35,2,17.812500679493
183,62,92141,2,0,L|261:82,1,78.3750023918153,8|0,0:0|0:0,0:0:0:0:
342,104,92538,5,12,0:0:0:0:
296,266,92737,1,2,0:3:0:0:
342,104,92936,1,8,0:0:0:0:
296,266,93134,1,2,0:3:0:0:
342,104,93333,1,8,0:0:0:0:
296,266,93532,1,2,0:3:0:0:
342,104,93730,1,8,0:0:0:0:
296,266,93929,1,2,0:3:0:0:
322,185,94128,5,8,0:0:0:0:
328,353,94326,1,2,0:3:0:0:
322,185,94525,1,8,0:0:0:0:
328,353,94724,1,2,0:3:0:0:
322,185,94922,1,8,0:0:0:0:
328,353,95121,1,2,0:3:0:0:
322,185,95320,2,0,L|274:281,1,106.875004076958,8|0,0:0|0:0,0:0:0:0:
228,353,95717,5,12,0:0:0:0:
36,309,95916,1,2,0:3:0:0:
228,353,96115,1,8,0:0:0:0:
36,309,96313,1,2,0:3:0:0:
228,353,96512,1,8,0:0:0:0:
36,309,96711,1,2,0:3:0:0:
228,353,96909,1,8,0:0:0:0:
36,309,97108,1,2,0:3:0:0:
268,150,97307,5,8,0:0:0:0:
141,302,97505,1,2,0:3:0:0:
268,150,97704,1,8,0:0:0:0:
141,302,97903,1,2,0:3:0:0:
268,150,98101,1,8,0:0:0:0:
141,302,98300,1,2,0:3:0:0:
268,150,98499,1,8,0:0:0:0:
141,302,98697,1,2,0:3:0:0:
167,198,98896,5,12,0:0:0:0:
399,90,99293,1,8,0:0:0:0:
376,344,99691,5,8,0:0:0:0:
167,198,99889,1,2,0:3:0:0:
399,90,100088,1,8,0:0:0:0:
417,109,100485,6,0,P|435:156|424:200,1,95,12|0,0:0|0:0,0:0:0:0:
275,315,100883,1,2,0:1:0:0:
246,312,100982,1,0,0:0:0:0:
217,309,101081,1,0,0:0:0:0:
188,306,101181,1,8,0:0:0:0:
159,303,101280,2,0,L|61:291,1,95,8|0,0:0|0:0,0:0:0:0:
199,197,101677,2,0,P|219:151|208:109,1,95,4|0,0:3|0:3,0:3:0:0:
81,26,102075,5,8,0:0:0:0:
45,156,102273,1,0,0:0:0:0:
45,156,102472,1,2,0:1:0:0:
172,55,102671,1,0,0:0:0:0:
172,55,102770,1,8,0:0:0:0:
172,55,102869,2,0,P|220:46|259:66,1,95,8|0,0:0|0:0,0:0:0:0:
344,185,103267,1,4,0:3:0:0:
344,185,103466,1,0,0:0:0:0:
220,239,103664,6,0,P|205:287|222:331,1,95,8|0,0:0|0:0,0:0:0:0:
291,378,103962,1,0,0:0:0:0:
291,378,104062,1,2,0:1:0:0:
439,309,104260,1,0,0:0:0:0:
439,309,104360,1,8,0:0:0:0:
439,309,104459,1,8,0:0:0:0:
332,279,104658,1,0,0:0:0:0:
480,210,104856,1,4,0:3:0:0:
332,279,105055,1,0,0:0:0:0:
480,210,105254,6,0,P|492:160|479:120,1,95,12|0,0:0|0:0,0:0:0:0:
379,33,105651,1,2,0:1:0:0:
289,151,105850,1,0,0:0:0:0:
289,151,105949,1,8,0:0:0:0:
289,151,106048,1,8,0:0:0:0:
183,56,106247,1,0,0:0:0:0:
351,102,106446,2,0,P|367:145|355:191,1,95,4|0,0:3|0:0,0:0:0:0:
100,271,106843,6,0,P|39:181|73:120,1,190,12|2,0:0|0:1,0:0:0:0:
183,56,107439,1,0,0:0:0:0:
183,56,107538,1,8,0:0:0:0:
183,56,107638,1,8,0:0:0:0:
289,151,107836,1,8,0:0:0:0:
379,33,108035,1,10,0:0:0:0:
379,33,108432,5,12,0:0:0:0:
425,195,108631,1,0,0:0:0:0:
456,97,108830,1,2,0:1:0:0:
456,97,108929,1,0,0:0:0:0:
456,97,109028,2,0,L|472:51,1,47.5,2|8,0:3|0:0,0:0:0:0:
425,195,109227,6,0,L|431:297,1,95,8|0,0:0|0:0,0:0:0:0:
440,377,109525,1,0,0:0:0:0:
440,377,109624,2,0,P|415:381|393:378,1,47.5,2|0,0:3|0:0,0:0:0:0:
332,326,109823,2,0,P|308:323|285:327,1,47.5,2|0,0:3|0:0,0:0:0:0:
207,366,110022,6,0,L|105:374,1,95,8|0,0:0|0:0,0:0:0:0:
17,299,110419,1,2,0:1:0:0:
90,194,110618,1,0,0:0:0:0:
90,194,110717,1,8,0:0:0:0:
90,194,110817,1,8,0:0:0:0:
203,265,111015,1,0,0:0:0:0:
125,127,111214,2,0,P|72:113|36:129,1,95,2|0,0:3|0:0,0:0:0:0:
203,265,111611,5,12,0:0:0:0:
419,215,111810,1,0,0:0:0:0:
287,185,112009,1,2,0:1:0:0:
479,262,112207,1,0,0:0:0:0:
479,262,112307,1,8,0:0:0:0:
479,262,112406,2,0,P|492:205|480:170,1,95,8|0,0:0|0:0,0:0:0:0:
429,106,112704,1,0,0:0:0:0:
429,106,112803,1,10,0:0:0:0:
287,185,113002,1,0,0:0:0:0:
182,59,113201,6,0,P|132:46|87:66,1,95,12|0,0:0|0:0,0:0:0:0:
164,222,113598,2,0,P|186:224|213:217,2,47.5,2|0|0,0:1|0:0|0:0,0:0:0:0:
85,204,113896,1,8,0:0:0:0:
85,204,113995,1,8,0:0:0:0:
27,351,114194,1,8,0:0:0:0:
33,147,114393,2,0,P|76:127|126:145,1,95,2|0,0:3|0:0,0:0:0:0:
247,267,114790,6,0,P|323:287|363:246,1,142.5,12|0,0:0|0:0,0:0:0:0:
381,184,115187,2,0,P|376:235|397:275,1,95,2|0,0:1|0:0,0:0:0:0:
500,358,115585,1,8,0:0:0:0:
283,368,115783,1,8,0:0:0:0:
508,374,115982,1,8,0:3:0:0:
412,152,116379,6,0,P|357:99|276:178,1,199.499993911743,12|0,0:0|0:0,0:0:0:0:
288,371,116777,2,0,P|361:350|334:240,1,199.499993911743,8|8,0:0|0:0,0:0:0:0:
160,154,117174,2,0,P|141:227|251:259,1,199.499993911743,8|0,0:0|0:0,0:0:0:0:
412,152,117571,5,8,0:0:0:0:
468,33,117770,1,0,0:0:0:0:
403,176,117969,2,0,L|413:278,1,95,10|0,0:0|0:0,0:0:0:0:
327,373,118366,1,2,0:1:0:0:
232,273,118565,1,0,0:0:0:0:
232,273,118664,1,8,0:0:0:0:
232,273,118764,2,0,P|185:258|142:273,1,95,8|0,0:0|0:0,0:0:0:0:
41,357,119161,1,12,0:0:0:0:
75,165,119360,1,0,0:0:0:0:
233,348,119558,6,0,P|285:328|299:236,1,156.750004783631,12|0,0:0|0:0,0:0:0:0:
251,173,119956,1,2,0:1:0:0:
299,57,120154,2,8,L|301:28,4,23.75,8|8|8|8|8,0:1|0:1|0:1|0:1|0:0,0:1:0:0:
251,173,120552,1,0,0:0:0:0:
167,79,120750,2,0,P|95:61|43:107,1,142.5,12|0,0:0|0:0,0:0:0:0:
15,189,121148,5,12,0:0:0:0:
20,275,121545,1,2,0:1:0:0:
25,361,121942,1,8,0:0:0:0:
25,361,122340,5,8,0:0:0:0:
20,275,122538,1,2,0:3:0:0:
15,189,122737,2,0,L|24:94,1,95,12|0,0:0|0:0,0:0:0:0:
121,18,123134,1,2,0:1:0:0:
200,123,123333,1,0,0:0:0:0:
200,123,123432,1,8,0:0:0:0:
200,123,123532,2,0,P|247:144|287:132,1,95,8|0,0:0|0:0,0:0:0:0:
422,35,123929,1,10,0:0:0:0:
314,33,124128,1,0,0:0:0:0:
461,159,124326,6,0,P|477:210|462:248,1,95,12|0,0:0|0:0,0:0:0:0:
368,348,124724,1,2,0:1:0:0:
323,233,124922,2,8,L|323:204,4,23.75,8|8|8|8|8,0:1|0:1|0:1|0:1|0:1,0:1:0:0:
239,332,125320,2,8,L|239:355,4,23.75,8|8|8|8|8,0:1|0:1|0:1|0:1|0:1,0:1:0:0:
164,232,125717,5,8,0:1:0:0:
164,232,125817,1,8,0:1:0:0:
164,232,125916,2,0,P|116:214|75:227,1,95,12|0,0:0|0:0,0:0:0:0:
71,338,126313,2,0,P|119:356|160:343,1,95,2|0,0:1|0:0,0:0:0:0:
279,251,126711,1,8,0:0:0:0:
397,364,126909,1,2,0:3:0:0:
279,251,127108,1,10,0:0:0:0:
397,364,127307,1,2,0:3:0:0:
279,251,127505,5,12,0:0:0:0:
435,205,127704,1,0,0:0:0:0:
397,364,127903,1,2,0:1:0:0:
373,278,128101,5,0,0:0:0:0:
373,278,128201,1,8,0:0:0:0:
373,278,128300,1,8,0:0:0:0:
494,304,128499,1,0,0:0:0:0:
278,340,128697,1,2,0:0:0:0:
435,205,128896,5,8,0:1:0:0:
435,205,128995,1,8,0:1:0:0:
435,205,129095,1,12,0:0:0:0:
441,104,129293,1,2,0:3:0:0:
435,205,129492,1,2,0:0:0:0:
441,104,129691,1,2,0:3:0:0:
435,205,129889,1,8,0:1:0:0:
441,104,130088,1,2,0:3:0:0:
435,205,130287,1,0,0:0:0:0:
367,47,130485,5,8,0:1:0:0:
367,47,130585,1,8,0:1:0:0:
367,47,130684,1,12,0:0:0:0:
302,204,130883,1,2,0:3:0:0:
367,47,131081,1,2,0:0:0:0:
302,204,131280,1,2,0:3:0:0:
367,47,131479,1,8,0:1:0:0:
302,204,131677,1,2,0:3:0:0:
367,47,131876,1,0,0:0:0:0:
212,241,132075,5,8,0:1:0:0:
212,241,132174,1,8,0:1:0:0:
212,241,132273,1,12,0:0:0:0:
188,47,132472,1,2,0:3:0:0:
212,241,132671,1,2,0:0:0:0:
188,47,132869,1,2,0:3:0:0:
212,241,133068,1,8,0:1:0:0:
188,47,133267,1,2,0:3:0:0:
212,241,133466,1,0,0:0:0:0:
91,26,133664,5,8,0:1:0:0:
91,26,133764,1,8,0:1:0:0:
91,26,133863,1,12,0:0:0:0:
51,263,134062,1,2,0:3:0:0:
91,26,134260,1,2,0:0:0:0:
51,263,134459,1,2,0:3:0:0:
91,26,134658,1,8,0:1:0:0:
51,263,134856,1,2,0:3:0:0:
91,26,135055,1,0,0:0:0:0:
51,263,135254,1,2,0:3:0:0:
188,47,135452,6,0,P|215:38|241:43,1,52.2500015945435,12|0,0:0|0:0,0:0:0:0:
312,98,135651,2,0,P|337:101|362:92,1,52.2500015945435,2|0,0:3|0:0,0:0:0:0:
430,28,135850,2,0,P|414:76|432:126,1,104.500003189087,8|2,0:0|0:3,0:0:0:0:
495,190,136148,1,0,0:0:0:0:
495,190,136247,2,0,P|497:223|490:251,1,52.2500015945435,8|0,0:0|0:0,0:0:0:0:
447,309,136446,1,2,0:3:0:0:
431,323,136545,1,0,0:0:0:0:
415,337,136644,2,0,L|309:355,1,104.500003189087,8|2,0:0|0:3,0:0:0:0:
77,280,137042,5,8,0:0:0:0:
77,280,137141,1,0,0:0:0:0:
77,280,137240,2,0,P|72:247|75:227,1,52.2500015945435,2|0,0:3|0:0,0:0:0:0:
120,154,137439,1,8,0:0:0:0:
140,150,137538,1,0,0:0:0:0:
160,151,137638,1,2,0:3:0:0:
180,155,137737,1,0,0:0:0:0:
199,162,137836,6,0,L|212:213,1,52.2500015945435,8|0,0:0|0:0,0:0:0:0:
249,294,138035,2,0,P|306:316|347:296,1,104.500003189087,2|8,0:3|0:0,0:0:0:0:
407,229,138333,1,0,0:0:0:0:
407,229,138432,1,2,0:0:0:0:
201,37,138631,6,0,P|172:32|147:37,1,52.2500015945435,12|0,0:0|0:0,0:0:0:0:
91,95,138830,2,0,P|65:99|39:93,1,52.2500015945435,2|0,0:3|0:0,0:0:0:0:
170,121,139028,1,8,0:0:0:0:
169,120,139128,2,0,P|187:167|173:217,1,104.500003189087
111,282,139426,1,8,0:0:0:0:
113,302,139525,1,0,0:0:0:0:
115,322,139624,1,2,0:3:0:0:
117,342,139724,1,0,0:0:0:0:
120,362,139823,1,8,0:0:0:0:
223,92,140220,5,8,0:0:0:0:
234,74,140320,1,0,0:0:0:0:
245,56,140419,2,0,P|276:51|297:55,1,52.2500015945435,2|0,0:3|0:0,0:0:0:0:
375,102,140618,1,8,0:0:0:0:
375,102,140717,2,0,P|390:129|394:150,1,52.2500015945435,0|2,0:0|0:3,0:0:0:0:
381,233,140916,5,0,0:0:0:0:
381,233,141015,2,0,P|336:269|285:264,1,104.500003189087,8|2,0:0|0:3,0:0:0:0:
207,226,141313,1,0,0:0:0:0:
207,226,141413,1,12,0:0:0:0:
144,350,141611,1,2,0:0:0:0:
26,249,141810,6,0,P|11:197|33:155,1,104.500003189087,12|2,0:0|0:3,0:0:0:0:
167,69,142207,2,0,L|272:63,1,104.500003189087,8|2,0:0|0:3,0:0:0:0:
376,56,142505,1,0,0:0:0:0:
376,56,142605,2,0,P|386:87|385:115,1,52.2500015945435,8|0,0:0|0:0,0:0:0:0:
348,191,142803,1,2,0:3:0:0:
348,191,142903,1,0,0:0:0:0:
348,191,143002,2,0,P|336:255|351:294,1,104.500003189087,8|2,0:0|0:3,0:0:0:0:
402,366,143300,5,0,0:0:0:0:
402,366,143399,2,0,L|454:372,2,52.2500015945435,8|0|2,0:0|0:0|0:3,0:0:0:0:
305,350,143697,1,0,0:0:0:0:
305,350,143797,2,0,L|202:336,1,104.500003189087,8|2,0:0|0:3,0:0:0:0:
102,323,144095,5,0,0:0:0:0:
102,323,144194,2,0,P|92:294|96:274,1,52.2500015945435,8|0,0:0|0:0,0:0:0:0:
135,190,144393,1,2,0:3:0:0:
135,190,144492,1,0,0:0:0:0:
135,190,144591,2,0,L|239:177,1,104.500003189087,12|2,0:0|0:0,0:0:0:0:
465,142,144989,6,0,P|483:97|465:43,1,104.500003189087,12|2,0:0|0:3,0:0:0:0:
377,16,145287,1,0,0:0:0:0:
377,16,145386,1,8,0:0:0:0:
343,208,145585,1,2,0:3:0:0:
343,208,145684,1,0,0:0:0:0:
343,208,145783,2,0,P|306:220|292:218,1,52.2500015945435,8|0,0:0|0:0,0:0:0:0:
210,199,145982,1,2,0:3:0:0:
408,94,146181,1,12,0:0:0:0:
217,206,146379,5,0,0:0:0:0:
217,206,146479,1,0,0:0:0:0:
217,206,146578,2,0,L|209:314,1,104.500003189087,8|2,0:0|0:3,0:0:0:0:
144,376,146876,1,0,0:0:0:0:
144,376,146975,2,0,L|109:276,1,104.500003189087,8|2,0:0|0:3,0:0:0:0:
76,185,147273,5,0,0:0:0:0:
76,185,147373,2,0,P|68:154|70:132,1,52.2500015945435,8|0,0:0|0:0,0:0:0:0:
126,53,147571,1,2,0:3:0:0:
156,46,147671,1,0,0:0:0:0:
186,39,147770,1,12,0:0:0:0:
216,32,147869,1,0,0:0:0:0:
246,25,147969,1,2,0:3:0:0:
319,206,148168,6,0,P|349:215|376:211,1,52.2500015945435,12|0,0:0|0:0,0:0:0:0:
450,175,148366,1,2,0:3:0:0:
450,175,148466,1,0,0:0:0:0:
450,175,148565,2,0,P|478:129|467:77,1,104.500003189087,8|2,0:0|0:3,0:0:0:0:
415,16,148863,1,0,0:0:0:0:
415,16,148962,2,0,P|388:13|364:22,1,52.2500015945435,8|0,0:0|0:0,0:0:0:0:
322,97,149161,2,0,P|296:105|271:103,1,52.2500015945435,2|0,0:3|0:0,0:0:0:0:
192,75,149360,1,10,0:0:0:0:
172,59,149757,5,8,0:0:0:0:
172,59,149856,1,0,0:0:0:0:
172,59,149956,2,0,P|177:91|169:114,1,52.2500015945435,2|0,0:3|0:0,0:0:0:0:
110,175,150154,1,8,0:0:0:0:
113,195,150254,1,0,0:0:0:0:
116,215,150353,1,2,0:3:0:0:
119,235,150452,2,0,L|126:287,1,52.2500015945435,0|8,0:0|0:0,0:0:0:0:
215,237,150651,2,0,P|267:219|311:239,1,104.500003189087
375,302,150949,1,10,0:0:0:0:
456,134,151148,1,0,0:0:0:0:
375,302,151346,5,12,0:0:0:0:
350,108,151744,1,8,0:0:0:0:
375,302,152141,1,8,0:0:0:0:
364,205,152340,1,2,0:3:0:0:
350,108,152538,1,8,0:0:0:0:
95,43,152936,5,8,0:0:0:0:
64,302,153333,1,8,0:0:0:0:
95,43,153730,1,8,0:0:0:0:
80,174,153929,1,2,0:3:0:0:
64,302,154128,1,8,0:0:0:0:
401,240,154525,5,12,0:0:0:0:
64,302,154922,1,8,0:0:0:0:
401,240,155320,1,8,0:0:0:0:
232,271,155518,1,2,0:3:0:0:
64,302,155717,1,12,0:0:0:0:
399,69,156115,5,2,0:3:0:0:
357,151,156313,1,0,0:3:0:0:
450,146,156512,1,2,0:0:0:0:
180,62,156909,5,2,0:3:0:0:
161,152,157108,1,0,0:3:0:0:
92,90,157307,1,2,0:0:0:0:
298,355,157704,5,2,0:3:0:0:
280,264,157903,1,0,0:0:0:0:
210,324,158101,1,2,0:3:0:0:
353,198,158300,1,0,0:0:0:0:
257,169,158499,2,0,P|243:127|245:101,1,71.2500027179719,2|0,0:3|0:0,0:0:0:0:
299,20,158896,1,2,0:0:0:0:
362,348,159293,5,2,0:3:0:0:
428,274,159492,1,0,0:0:0:0:
331,253,159691,1,2,0:3:0:0:
506,205,159889,1,0,0:0:0:0:
458,118,160088,2,0,P|414:110|384:116,1,71.2500027179719,2|0,0:3|0:0,0:0:0:0:
300,162,160485,1,2,0:3:0:0:
300,162,160684,1,0,0:0:0:0:
231,56,160883,5,2,0:0:0:0:
69,209,163664,6,0,P|51:255|78:313,1,104.500003189087,12|0,0:0|0:0,0:0:0:0:
185,364,164062,1,12,0:0:0:0:
185,364,164260,1,2,0:3:0:0:
377,326,164459,1,8,0:0:0:0:
377,326,164658,1,2,0:3:0:0:
244,250,164856,1,8,0:0:0:0:
244,250,165055,1,2,0:3:0:0:
436,212,165254,2,0,P|447:170|431:130,1,85.4999973907472,12|2,0:0|0:3,0:0:0:0:
295,33,165651,5,4,0:0:0:0:
205,128,165850,2,8,L|201:154,4,21.3749993476868,8|8|8|8|8,0:1|0:1|0:1|0:1|0:0,0:1:0:0:
111,45,166247,2,8,L|107:23,4,21.3749993476868,8|8|8|8|8,0:1|0:1|0:1|0:1|0:0,0:1:0:0:
47,171,166644,1,8,0:1:0:0:
47,171,166744,1,8,0:1:0:0:
47,171,166843,2,0,L|36:264,1,85.4999973907472,8|8,0:0|0:1,0:0:0:0:
177,78,167240,6,0,P|224:59|273:75,1,104.500003189087,12|2,0:0|0:3,0:0:0:0:
387,216,167638,1,8,0:0:0:0:
446,80,167836,1,2,0:3:0:0:
370,239,168035,2,0,L|361:343,1,104.500003189087,8|2,0:0|0:3,0:0:0:0:
463,172,168432,1,8,0:0:0:0:
268,213,168631,1,2,0:3:0:0:
463,172,168830,6,0,P|482:128|469:74,1,104.500003189087,8|2,0:0|0:3,0:0:0:0:
281,20,169227,1,8,0:0:0:0:
281,20,169426,1,2,0:3:0:0:
220,158,169624,2,0,P|133:191|101:98,1,209.000006378174,8|12,0:0|0:0,0:0:0:0:
238,166,170220,2,8,L|265:183,4,26.1250007972718,8|8|8|8|12,0:1|0:1|0:1|0:1|0:0,0:1:0:0:
220,158,170817,5,8,0:0:0:0:
194,45,171015,2,8,L|186:13,4,26.1250007972718,8|8|8|8|2,0:1|0:1|0:1|0:1|0:0,0:1:0:0:
220,158,171611,2,0,P|133:191|99:98,1,213.750008153916,8|0,0:0|0:0,0:0:0:0:
192,26,172009,6,0,P|226:20|251:26,1,56.9999982604981,4|0,0:0|0:0,0:0:0:0:
343,92,172207,2,0,P|357:117|361:145,1,56.9999982604981,2|0,0:3|0:0,0:0:0:0:
328,256,172406,2,0,P|309:278|283:290,1,56.9999982604981,8|0,0:0|0:0,0:0:0:0:
167,293,172605,2,0,P|141:282|121:262,1,56.9999982604981,2|0,0:3|0:0,0:0:0:0:
83,151,172803,6,0,P|85:123|98:98,1,56.9999982604981,8|0,0:0|0:0,0:0:0:0:
192,26,173002,1,2,0:3:0:0:
226,23,173101,1,0,0:0:0:0:
260,21,173201,2,0,P|290:77|273:131,1,113.999996520996,8|2,0:0|0:3,0:0:0:0:
220,192,173499,1,0,0:0:0:0:
220,192,173598,6,0,P|212:229|221:260,1,56.9999982604981,12|0,0:0|0:0,0:0:0:0:
259,329,173797,1,2,0:3:0:0:
293,333,173896,1,0,0:0:0:0:
326,337,173995,1,8,0:0:0:0:
359,342,174095,1,0,0:0:0:0:
393,347,174194,2,0,L|449:335,1,56.9999982604981,2|0,0:3|0:0,0:0:0:0:
326,337,174393,2,0,P|278:265|379:213,1,227.999993041992,8|12,0:0|0:0,0:0:0:0:
480,288,174989,1,2,0:3:0:0:
487,115,175187,5,12,0:0:0:0:
480,288,175386,1,2,0:3:0:0:
487,115,175585,1,8,0:0:0:0:
480,288,175783,1,2,0:3:0:0:
468,94,175982,2,0,P|430:76|364:102,1,113.999996520996,8|2,0:0|0:3,0:0:0:0:
273,244,176379,1,8,0:0:0:0:
199,116,176578,5,2,0:3:0:0:
199,116,176677,1,0,0:0:0:0:
199,116,176777,6,0,P|127:95|75:167,1,170.999994781494,12|0,0:0|0:0,0:0:0:0:
72,250,177174,2,0,L|65:369,1,113.999996520996,12|2,0:0|0:3,0:0:0:0:
225,190,177571,2,0,P|279:170|328:196,1,113.999996520996,12|2,0:0|0:3,0:0:0:0:
369,266,177869,1,0,0:0:0:0:
369,266,177969,1,8,0:0:0:0:
454,148,178168,6,8,L|457:120,2,28.4999991302491,8|8|8,0:1|0:1|0:1,0:1:0:0:
441,186,178366,2,8,L|444:214,6,28.4999991302491,8|8|8|8|8|8|8,0:1|0:1|0:1|0:1|0:1|0:1|0:1,0:1:0:0:
408,164,178764,5,12,0:0:0:0:
335,329,178962,2,8,L|336:357,4,28.4999991302491,8|8|8|8|8,0:1|0:1|0:1|0:1|0:0,0:1:0:0:
310,184,179360,1,2,0:3:0:0:
218,304,179558,2,0,P|160:324|117:299,1,113.999996520996,8|2,0:0|0:3,0:0:0:0:
79,218,179856,1,0,0:0:0:0:
79,218,179956,5,12,0:0:0:0:
121,86,180154,1,2,0:3:0:0:
169,174,180353,1,8,0:0:0:0:
341,31,180552,1,2,0:3:0:0:
356,208,180750,6,8,L|358:236,4,28.4999991302491,8|8|8|8|8,0:1|0:1|0:1|0:1|0:1,0:1:0:0:
353,172,181048,1,8,0:1:0:0:
350,138,181148,1,8,0:1:0:0:
347,103,181247,1,8,0:1:0:0:
344,69,181346,1,8,0:1:0:0:
297,302,181545,5,12,0:0:0:0:
297,302,181744,1,2,0:3:0:0:
479,136,181942,1,8,0:0:0:0:
297,302,182340,5,8,0:0:0:0:
479,136,182737,1,8,0:0:0:0:
470,228,182936,6,0,L|463:302,1,71.2500027179719,2|4,0:3|0:0,0:0:0:0:
479,136,183333,1,2,0:3:0:0:
470,228,183532,1,8,0:0:0:0:
292,225,183730,2,0,L|284:149,1,71.2500027179719,2|2,0:3|0:0,0:0:0:0:
277,44,184128,1,8,0:1:0:0:
277,44,184227,1,8,0:1:0:0:
277,44,184326,1,8,0:1:0:0:
115,28,184525,6,8,L|90:24,4,23.75,8|8|8|8|12,0:0|0:0|0:0|0:0|0:0,0:0:0:0:
173,132,184922,1,2,0:3:0:0:
173,132,185022,1,0,0:0:0:0:
173,132,185121,1,8,0:0:0:0:
277,44,185320,1,2,0:3:0:0:
366,152,185518,1,8,0:0:0:0:
173,132,185717,1,2,0:3:0:0:
366,152,185916,1,8,0:0:0:0:
173,132,186115,1,2,0:3:0:0:
408,62,186313,5,12,0:0:0:0:
434,257,186512,1,2,0:3:0:0:
434,257,186611,1,0,0:0:0:0:
434,257,186711,1,8,0:0:0:0:
300,244,186909,1,2,0:3:0:0:
481,166,187108,1,8,0:0:0:0:
450,359,187307,1,2,0:3:0:0:
481,166,187505,1,12,0:0:0:0:
450,359,187704,1,2,0:3:0:0:
375,166,187903,5,12,0:0:0:0:
266,298,188101,1,2,0:3:0:0:
266,298,188201,1,0,0:0:0:0:
266,298,188300,2,0,P|208:316|177:302,1,95,8|2,0:0|0:3,0:0:0:0:
89,192,188697,1,8,0:0:0:0:
19,360,188896,1,2,0:3:0:0:
89,192,189095,1,8,0:0:0:0:
19,360,189293,1,2,0:3:0:0:
152,229,189492,6,0,P|166:181|145:140,1,95,8|2,0:0|0:3,0:0:0:0:
80,94,189790,1,0,0:0:0:0:
80,94,189889,1,12,0:0:0:0:
18,258,190088,1,0,0:0:0:0:
37,172,190287,1,8,0:0:0:0:
105,359,190485,1,0,0:0:0:0:
37,172,190684,1,8,0:0:0:0:
105,359,190883,2,8,P|127:366|140:371,3,23.75,8|8|8|8,0:1|0:1|0:1|0:1,0:1:0:0:
307,310,191280,5,4,0:0:0:0:
307,310,191379,1,0,0:0:0:0:
307,310,191479,2,0,P|329:266|315:221,1,95,8|2,0:0|0:3,0:0:0:0:
261,166,191777,1,0,0:0:0:0:
261,166,191876,1,8,0:0:0:0:
120,221,192075,1,2,0:3:0:0:
249,69,192273,1,8,0:0:0:0:
120,221,192472,6,8,P|98:228|84:233,4,23.75,8|8|8|8|8,0:1|0:1|0:1|0:1|0:0,0:1:0:0:
252,266,192869,1,2,0:3:0:0:
252,266,192969,1,0,0:0:0:0:
252,266,193068,2,0,P|264:318|243:360,1,95,8|2,0:0|0:3,0:0:0:0:
70,374,193466,1,8,0:0:0:0:
30,185,193664,1,2,0:3:0:0:
70,374,193863,1,12,0:0:0:0:
30,185,194062,1,2,0:3:0:0:
171,338,194260,5,12,0:0:0:0:
54,280,194459,1,2,0:3:0:0:
54,280,194558,1,0,0:0:0:0:
54,280,194658,1,8,0:0:0:0:
214,204,194856,1,2,0:3:0:0:
134,244,195055,1,8,0:0:0:0:
333,296,195254,1,2,0:3:0:0:
134,244,195452,1,8,0:0:0:0:
333,296,195651,1,2,0:3:0:0:
141,159,195850,6,0,P|125:113|138:69,1,95,12|2,0:0|0:3,0:0:0:0:
200,16,196148,1,0,0:0:0:0:
200,16,196247,1,12,0:0:0:0:
364,75,196446,1,2,0:3:0:0:
255,100,196644,1,12,0:0:0:0:
474,53,196843,1,2,0:3:0:0:
255,100,197042,1,8,0:0:0:0:
474,53,197240,6,8,L|499:47,4,23.75,8|8|8|8|12,0:1|0:1|0:1|0:1|0:0,0:1:0:0:
341,173,197638,1,2,0:3:0:0:
341,173,197836,1,8,0:0:0:0:
111,107,198035,6,8,L|86:101,4,23.75,8|8|8|8|12,0:1|0:1|0:1|0:1|0:0,0:1:0:0:
193,280,198432,1,2,0:3:0:0:
193,280,198631,1,8,0:0:0:0:
440,231,198830,6,8,L|464:224,4,23.75,8|8|8|8|12,0:1|0:1|0:1|0:1|0:0,0:1:0:0:
411,238,199128,1,8,0:1:0:0:
382,244,199227,1,8,0:1:0:0:
354,251,199326,1,8,0:1:0:0:
326,257,199426,1,8,0:1:0:0:
102,215,199624,6,8,L|77:208,4,23.75,8|8|8|8|2,0:1|0:1|0:1|0:1|0:0,0:1:0:0:
256,192,208764,12,0,214922,0:0:0:0:
