osu file format v14

[General]
AudioFilename: Kotoba no Iranai Yakusoku.mp3
AudioLeadIn: 0
PreviewTime: 62833
Countdown: 0
SampleSet: Soft
StackLeniency: 0.7
Mode: 0
LetterboxInBreaks: 0
WidescreenStoryboard: 0

[Editor]
DistanceSpacing: 1.2
BeatDivisor: 4
GridSize: 8
TimelineZoom: 2.7

[Metadata]
Title:Kotoba no Iranai Yakusoku(TV size)
TitleUnicode:言葉のいらない約束(TV size)
Artist:sana
ArtistUnicode:sana
Creator:MugiwaraSekai
Version:Normal
Source:NARUTO-ナルト-疾風伝
Tags:shippuden shippuuden ending 33 鎖那 honeyworks ed hokage
BeatmapID:851613
BeatmapSetID:390807

[Difficulty]
HPDrainRate:4.5
CircleSize:3
OverallDifficulty:4.5
ApproachRate:5
SliderMultiplier:1.2
SliderTickRate:1

[Events]
//Background and Video events
Video,0,"optc.flv"
0,0,"naruto_BG.png",0,0
//Break Periods
//Storyboard Layer 0 (Background)
//Storyboard Layer 1 (Fail)
//Storyboard Layer 2 (Pass)
//Storyboard Layer 3 (Foreground)
//Storyboard Sound Samples

[TimingPoints]
1069,352.941176470588,4,2,2,25,1,0
1069,-117.647058823529,4,2,2,25,0,0
12362,-117.647058823529,4,2,0,55,0,0
12716,-117.647058823529,4,2,1,55,0,0
13774,-117.647058823529,4,2,0,55,0,0
14127,-117.647058823529,4,2,1,55,0,0
15186,-117.647058823529,4,2,0,55,0,0
15539,-117.647058823529,4,2,1,55,0,0
16598,-117.647058823529,4,2,0,55,0,0
16951,-117.647058823529,4,2,1,55,0,0
18010,-117.647058823529,4,2,0,55,0,0
18363,-117.647058823529,4,2,1,55,0,0
19421,-117.647058823529,4,2,0,55,0,0
19774,-117.647058823529,4,2,1,55,0,0
20127,-117.647058823529,4,2,1,55,0,0
20833,-117.647058823529,4,2,0,55,0,0
21186,-117.647058823529,4,2,1,55,0,0
22245,-117.647058823529,4,3,1,55,0,0
23657,-117.647058823529,4,2,2,25,0,0
33539,-117.647058823529,4,2,2,55,0,0
34951,-117.647058823529,4,2,1,55,0,0
35304,-117.647058823529,4,2,1,55,0,0
40598,-117.647058823529,4,2,0,55,0,0
40951,-117.647058823529,4,2,1,55,0,0
44833,-117.647058823529,4,2,3,35,0,0
45010,-117.647058823529,4,2,1,55,0,0
46068,-117.647058823529,4,2,0,55,0,0
46951,-117.647058823529,4,2,1,55,0,0
49068,-117.647058823529,4,2,0,55,0,0
49774,-117.647058823529,4,2,1,55,0,0
51892,-117.647058823529,4,2,0,55,0,0
52598,-117.647058823529,4,2,1,55,0,0
54716,-117.647058823529,4,2,0,55,0,0
55421,-117.647058823529,4,2,1,55,0,0
56127,-117.647058823529,4,2,0,55,0,0
56480,-117.647058823529,4,2,1,55,0,0
57010,-117.647058823529,4,2,69,55,0,0
60363,-117.647058823529,4,2,1,25,0,0
61774,-117.647058823529,4,2,1,75,0,0
63186,-117.647058823529,4,2,0,55,0,1
63539,-117.647058823529,4,2,69,55,0,1
66010,-117.647058823529,4,2,3,35,0,1
66363,-117.647058823529,4,2,69,35,0,1
68833,-117.647058823529,4,2,0,55,0,1
69186,-117.647058823529,4,2,69,55,0,1
70245,-117.647058823529,4,1,0,35,0,1
70598,-117.647058823529,4,2,69,55,0,1
71657,-117.647058823529,4,2,3,35,0,1
72010,-117.647058823529,4,2,69,55,0,1
72716,-117.647058823529,4,2,1,35,0,1
74127,-117.647058823529,4,2,0,55,0,1
74833,-117.647058823529,4,2,1,35,0,1
75186,-117.647058823529,4,2,69,55,0,1
77304,-117.647058823529,4,2,3,35,0,1
77657,-117.647058823529,4,2,69,55,0,1
80127,-117.647058823529,4,2,0,55,0,1
80480,-117.647058823529,4,2,69,55,0,1
82951,-117.647058823529,4,2,3,35,0,1
83039,-117.647058823529,4,2,69,55,0,1
85774,-117.647058823529,4,2,0,25,0,0

[Colours]
Combo1 : 159,175,198
Combo2 : 40,80,138
Combo3 : 203,174,135
Combo4 : 58,40,145

[HitObjects]
112,120,1069,6,0,L|78:222,1,102.000001945496,0|8,0:0|0:0,0:0:0:0:
169,299,1774,2,0,L|203:192,1,102.000001945496,0|8,0:0|0:0,0:0:0:0:
280,109,2480,6,0,P|330:93|399:124,1,102.000001945496,0|8,0:0|0:0,0:0:0:0:
373,228,3186,2,0,P|324:240|276:224,1,102.000001945496,0|8,0:0|0:0,0:0:0:0:
170,286,3892,6,0,B|212:199|136:172|177:83,1,204.000003890991
295,68,4951,2,0,L|347:95,1,51.0000009727478,8|0,0:0|0:0,0:0:0:0:
398,110,5304,6,0,P|422:153|412:202,1,102.000001945496,0|8,0:0|0:0,0:0:0:0:
326,291,6010,1,0,0:0:0:0:
205,270,6363,1,8,0:0:0:0:
89,228,6716,6,0,L|74:95,1,102.000001945496,0|8,0:0|0:0,0:0:0:0:
170,47,7421,2,0,L|185:180,1,102.000001945496,0|8,0:0|0:0,0:0:0:0:
199,270,8127,5,0,0:0:0:0:
318,296,8480,1,8,0:0:0:0:
323,173,8833,1,0,0:0:0:0:
443,193,9186,1,8,0:0:0:0:
256,192,9539,12,0,10951,0:0:0:0:
149,193,12363,6,0,P|204:208|260:192,1,102.000001945496,4|2,0:0|0:0,0:0:0:0:
274,79,13068,2,0,P|323:70|372:84,1,102.000001945496,2|0,0:0|0:0,0:0:0:0:
424,116,13598,1,8,0:0:0:0:
460,164,13774,6,0,P|484:220|492:284,1,102.000001945496,4|2,0:0|0:0,0:0:0:0:
368,256,14480,2,0,P|352:208|344:176,2,76.5000014591217,2|2|8,0:0|0:0|0:0,0:0:0:0:
328,304,15186,6,0,P|283:314|229:342,1,102.000001945496,4|2,0:0|0:0,0:0:0:0:
128,272,15892,2,0,L|136:215,1,51.0000009727478,2|0,0:0|0:0,0:0:0:0:
192,200,16245,2,0,L|213:147,1,51.0000009727478,2|8,0:0|0:0,0:0:0:0:
248,104,16598,6,0,P|296:85|369:86,1,102.000001945496,4|2,0:0|0:0,0:0:0:0:
430,171,17304,2,0,P|452:137|480:106,2,76.5000014591217,2|2|8,0:0|0:0|0:0,0:0:0:0:
425,232,18010,6,0,P|377:251|304:250,1,102.000001945496,4|2,0:0|0:0,0:0:0:0:
205,265,18716,2,0,L|165:201,1,51.0000009727478,2|0,0:0|0:0,0:0:0:0:
171,161,19068,2,0,L|163:105,1,51.0000009727478,2|8,0:0|0:0,0:0:0:0:
207,67,19421,6,0,P|266:36|308:36,1,102.000001945496,4|2,0:0|0:0,0:0:0:0:
408,92,20127,2,0,L|407:35,2,51.0000009727478,2|0|2,0:0|0:0|0:0,0:0:0:0:
387,150,20657,1,8,0:0:0:0:
359,204,20833,6,0,P|300:235|258:235,1,102.000001945496,4|2,0:0|0:0,0:0:0:0:
158,295,21539,2,0,L|86:295,2,51.0000009727478,2|0|2,0:0|0:0|0:0,0:0:0:0:
217,310,22068,1,8,0:0:0:0:
274,331,22245,6,0,P|322:347|370:379,1,102.000001945496,4|4,0:0|0:0,0:0:0:0:
460,297,22951,1,4,0:0:0:0:
496,180,23304,1,4,0:0:0:0:
424,80,23657,6,0,P|376:64|320:80,1,102.000001945496,0|8,0:0|0:0,0:0:0:0:
281,191,24363,2,0,P|231:202|184:186,1,102.000001945496,0|8,0:0|0:0,0:0:0:0:
104,92,25068,6,0,P|104:148|80:189,1,102.000001945496,0|8,0:0|0:0,0:0:0:0:
153,286,25774,2,0,P|117:321|101:385,1,102.000001945496,0|8,0:0|0:0,0:0:0:0:
222,352,26480,6,0,P|322:354|400:278,1,204.000003890991
403,163,27539,1,8,0:0:0:0:
403,163,27716,6,0,P|331:168|278:232,1,153.000002918243,0|8,0:0|0:0,0:0:0:0:
313,343,28598,1,0,0:0:0:0:
198,298,28951,1,8,0:0:0:0:
103,233,29304,6,0,B|-28:241,1,102.000001945496,0|8,0:0|0:0,0:0:0:0:
51,127,30010,1,0,0:0:0:0:
164,81,30363,1,8,0:0:0:0:
241,178,30716,6,0,B|342:171,1,102.000001945496,0|8,0:0|0:0,0:0:0:0:
444,239,31421,1,0,0:0:0:0:
369,335,31774,1,8,0:0:0:0:
268,265,32127,6,0,P|175:239|161:142,1,204.000003890991
250,60,33186,1,8,0:0:0:0:
353,125,33539,5,2,0:0:0:0:
353,125,33716,2,0,P|368:172|354:221,1,102.000001945496
333,279,34245,2,0,L|303:332,2,51.0000009727478,2|0|2,0:0|0:0|0:0,0:0:0:0:
210,284,34951,6,0,L|169:181,1,102.000001945496,2|8,0:0|0:0,0:0:0:0:
49,178,35657,2,0,L|90:75,1,102.000001945496,2|8,0:0|0:0,0:0:0:0:
203,45,36363,5,2,0:0:0:0:
286,134,36716,1,8,0:0:0:0:
407,126,37068,2,0,L|457:114,2,51.0000009727478,2|8|8,0:0|0:0|0:0,0:0:0:0:
349,234,37774,6,0,P|303:257|235:252,1,102.000001945496,0|8,0:0|0:0,0:0:0:0:
143,202,38480,2,0,P|113:256|116:303,1,102.000001945496,0|8,0:0|0:0,0:0:0:0:
111,356,39010,1,0,0:0:0:0:
111,356,39186,6,0,P|172:346|229:359,1,102.000001945496,0|8,0:0|0:0,0:0:0:0:
323,302,39892,2,0,L|356:242,1,51.0000009727478,2|8,0:0|0:0,0:0:0:0:
398,222,40245,2,0,L|400:169,1,51.0000009727478,8|0,0:0|0:0,0:0:0:0:
349,136,40598,6,0,L|309:42,1,102.000001945496,4|8,0:0|0:0,0:0:0:0:
186,50,41304,2,0,L|153:110,1,51.0000009727478
111,130,41657,2,0,L|109:183,1,51.0000009727478,8|0,0:0|0:0,0:0:0:0:
160,216,42010,6,0,L|199:309,1,102.000001945496,0|8,0:0|0:0,0:0:0:0:
320,332,42716,2,0,L|342:384,2,51.0000009727478,2|8|8,0:0|0:0|0:0,0:0:0:0:
376,223,43421,6,0,P|388:169|370:120,1,102.000001945496,0|8,0:0|0:0,0:0:0:0:
257,85,44127,2,0,P|242:133|254:182,1,102.000001945496,0|8,0:0|0:0,0:0:0:0:
221,234,44657,1,0,0:0:0:0:
221,234,44833,6,0,P|171:234|121:261,1,102.000001945496,8|2,0:0|0:0,0:0:0:0:
199,354,45539,1,2,0:0:0:0:
299,283,45892,1,2,0:0:0:0:
337,163,46245,6,0,P|411:225|414:330,2,204.000003890991,4|8|2,0:0|0:0|0:0,0:0:0:0:
283,128,47833,1,8,0:0:0:0:
248,245,48186,1,2,0:0:0:0:
248,245,48363,2,0,L|128:245,1,102.000001945496,8|2,0:0|0:0,0:0:0:0:
89,138,49068,6,0,B|185:80|185:187|296:120,2,204.000003890991,4|8|2,0:0|0:0|0:0,0:0:0:0:
61,193,50657,1,8,0:0:0:0:
167,254,51010,1,2,0:0:0:0:
167,254,51186,2,0,L|282:254,1,102.000001945496,8|2,0:0|0:0,0:0:0:0:
284,132,51892,6,0,B|190:198|190:81|85:140|88:138,2,204.000003890991,4|8|2,0:0|0:0|0:0,0:0:0:0:
345,128,53480,1,8,0:0:0:0:
294,239,53833,1,2,0:0:0:0:
294,239,54010,2,0,L|296:351,1,102.000001945496,8|2,0:0|0:0,0:0:0:0:
175,316,54716,6,0,B|213:216|130:216|179:112,1,204.000003890991,4|8,0:0|0:0,0:0:0:0:
282,58,55774,1,2,0:0:0:0:
391,112,56127,6,4,L|359:224,1,102.000001945496,4|0,0:0|0:0,0:0:0:0:
341,268,56657,1,0,0:0:0:0:
317,324,56833,2,0,L|298:371,2,51.0000009727478,8|4|0,0:0|0:0|0:0,0:0:0:0:
256,192,57539,12,0,60363,0:0:0:0:
72,256,61774,6,8,L|128:224,1,51.0000009727478
286,283,62480,2,8,L|240:305,1,51.0000009727478
223,127,63186,6,0,P|255:95|319:79,1,102.000001945496,4|8,0:0|0:0,0:0:0:40:soft-hitclap69.wav
430,90,63892,2,0,L|466:49,2,51.0000009727478,2|0|8,0:0|0:0|0:0,0:0:0:0:
400,143,64421,1,0,0:0:0:0:
362,192,64598,6,0,P|330:224|266:240,1,102.000001945496,4|8,0:0|0:0,0:0:0:40:soft-hitclap69.wav
153,241,65304,2,0,L|113:285,2,51.0000009727478,2|0|8,0:0|0:0|0:0,0:0:0:0:
194,195,65833,1,0,0:0:0:0:
227,143,66010,6,0,P|259:111|323:95,1,102.000001945496,4|8,0:0|0:0,0:0:0:40:soft-hitclap69.wav
430,126,66716,1,2,0:0:0:0:
401,244,67068,1,8,0:0:0:0:
286,287,67421,6,0,P|241:279|191:232,2,102.000001945496,4|8|0,0:0|0:0|0:0,0:0:0:0:
347,292,68304,1,0,0:0:0:0:
347,292,68480,1,12,0:0:0:0:
448,223,68833,6,0,P|461:168|449:118,1,102.000001945496,4|8,0:0|0:0,0:0:0:0:
342,67,69539,2,0,L|342:9,2,51.0000009727478,2|0|8,0:0|0:0|0:0,0:0:0:0:
231,120,70245,6,0,P|217:174|229:224,1,102.000001945496,4|8,0:0|0:0,0:0:0:0:
175,329,70951,2,0,L|124:297,1,51.0000009727478,2|0,0:0|0:0,0:0:0:0:
89,257,71304,2,0,L|95:190,1,51.0000009727478,8|0,0:0|0:0,0:0:0:0:
109,146,71657,6,0,P|121:90|150:49,1,102.000001945496,8|8,0:0|0:0,0:0:0:0:
263,87,72363,2,0,P|251:143|222:184,1,102.000001945496,2|4,0:0|0:0,0:0:0:0:
193,297,73068,6,0,L|143:298,2,51.0000009727478,2|0|10,0:0|0:0|0:0,0:0:0:0:
254,295,73598,1,2,0:0:0:0:
315,295,73774,2,0,P|365:296|414:283,1,102.000001945496,8|0,0:0|0:0,0:0:0:0:
414,159,74480,6,0,P|363:159|314:172,1,102.000001945496,4|4,0:0|0:0,0:0:0:0:
227,251,75186,2,0,L|257:300,2,51.0000009727478,2|0|8,0:0|0:0|0:0,0:0:0:0:
104,240,75892,6,0,P|76:172|84:126,1,102.000001945496,4|8,0:0|0:0,0:0:0:0:
93,85,76421,1,0,0:0:0:0:
145,52,76598,2,0,P|195:39|256:59,1,102.000001945496,2|8,0:0|0:0,0:0:0:0:
352,106,77304,6,0,P|380:174|372:220,1,102.000001945496,8|8,0:0|0:0,0:0:0:0:
355,322,78010,2,0,P|312:316|244:326,1,102.000001945496,2|8,0:0|0:0,0:0:0:0:
194,308,78539,1,0,0:0:0:0:
139,278,78716,6,0,P|110:209|118:163,1,102.000001945496,4|12,0:0|0:0,0:0:0:0:
184,80,79421,2,0,L|243:82,1,51.0000009727478,4|0,0:0|0:0,0:0:0:0:
296,83,79774,1,8,0:0:0:0:
397,151,80127,6,0,P|363:211|336:237,1,102.000001945496,4|8,0:0|0:0,0:0:0:0:
287,265,80657,1,0,0:0:0:0:
232,293,80833,2,0,P|168:319|109:313,1,102.000001945496,2|8,0:0|0:0,0:0:0:0:
68,216,81539,6,0,P|50:134|63:86,1,102.000001945496,4|8,0:0|0:0,0:0:0:0:
98,76,82068,1,0,0:0:0:0:
156,57,82245,2,0,P|220:33|275:30,1,102.000001945496,2|8,0:0|0:0,0:0:0:0:
356,95,82951,6,0,P|374:177|361:225,1,102.000001945496,8|8,0:0|0:0,0:0:0:0:
249,209,83657,2,0,P|231:127|244:79,1,102.000001945496,4|8,0:0|0:0,0:0:0:0:
113,83,84363,6,0,L|110:134,1,51.0000009727478,2|8,0:0|0:0,0:0:0:0:
110,195,84716,2,0,L|88:250,2,51.0000009727478,2|8|8,0:0|0:0|0:0,0:0:0:0:
227,229,85421,1,2,0:0:0:0:
339,276,85774,5,4,0:0:0:0:
54,167,87186,6,0,B|247:59|248:258|444:133,1,408.000007781983
