osu file format v14

[General]
AudioFilename: Kotoba no Iranai Yakusoku.mp3
AudioLeadIn: 0
PreviewTime: 62833
Countdown: 0
SampleSet: Soft
StackLeniency: 0.7
Mode: 0
LetterboxInBreaks: 0
WidescreenStoryboard: 0

[Editor]
DistanceSpacing: 1.4
BeatDivisor: 4
GridSize: 8
TimelineZoom: 2.3

[Metadata]
Title:Kotoba no Iranai Yakusoku(TV size)
TitleUnicode:言葉のいらない約束(TV size)
Artist:sana
ArtistUnicode:sana
Creator:MugiwaraSekai
Version:Hard
Source:NARUTO-ナルト-疾風伝
Tags:shippuden shippuuden ending 33 鎖那 honeyworks ed hokage
BeatmapID:851611
BeatmapSetID:390807

[Difficulty]
HPDrainRate:6
CircleSize:3.8
OverallDifficulty:6
ApproachRate:8
SliderMultiplier:1.4
SliderTickRate:2

[Events]
//Background and Video events
Video,0,"optc.flv"
0,0,"naruto_BG.png",0,0
//Break Periods
//Storyboard Layer 0 (Background)
//Storyboard Layer 1 (Fail)
//Storyboard Layer 2 (Pass)
//Storyboard Layer 3 (Foreground)
//Storyboard Sound Samples

[TimingPoints]
1069,352.941176470588,4,2,2,25,1,0
1069,-133.333333333333,4,2,2,25,0,0
12363,-100,4,2,0,50,0,0
12716,-100,4,2,1,60,0,0
13774,-100,4,2,0,60,0,0
14127,-100,4,2,1,60,0,0
15186,-100,4,2,0,60,0,0
15539,-100,4,2,1,60,0,0
16598,-100,4,2,0,60,0,0
16774,-100,4,2,1,60,0,0
18010,-100,4,2,0,50,0,0
18363,-100,4,2,1,50,0,0
19421,-100,4,2,0,50,0,0
19774,-100,4,2,1,50,0,0
20833,-100,4,2,0,50,0,0
21010,-100,4,2,1,50,0,0
22245,-100,4,2,69,50,0,0
22774,-100,4,2,69,50,0,0
23657,-133.333333333333,4,2,2,25,0,0
29304,-117.647058823529,4,2,2,30,0,0
33539,-100,4,2,1,50,0,0
34951,-100,4,2,0,50,0,0
35304,-100,4,2,1,40,0,0
37774,-100,4,2,1,40,0,0
40598,-100,4,2,1,40,0,0
43421,-100,4,2,1,40,0,0
44745,-100,4,2,69,30,0,0
45186,-100,4,2,1,30,0,0
45539,-100,4,2,1,30,0,0
46068,-133.333333333333,4,2,1,45,0,0
46245,-133.333333333333,4,2,0,45,0,0
46951,-133.333333333333,4,2,69,45,0,0
48363,-133.333333333333,4,2,2,45,0,0
49068,-133.333333333333,4,2,0,45,0,0
49774,-133.333333333333,4,2,69,45,0,0
51892,-133.333333333333,4,2,0,45,0,0
52598,-133.333333333333,4,2,69,45,0,0
54716,-133.333333333333,4,2,0,45,0,0
55068,-133.333333333333,4,2,69,45,0,0
56127,-100,4,2,1,45,0,0
56304,-100,4,2,69,45,0,0
61421,-100,4,2,1,50,0,0
62833,-133.333333333333,4,2,1,25,0,0
63186,-100,4,2,0,55,0,1
63539,-100,4,2,69,55,0,1
64598,-100,4,3,1,45,0,1
64686,-100,4,2,69,55,0,1
66010,-100,4,2,3,45,0,1
66098,-100,4,2,69,55,0,1
67421,-100,4,2,69,55,0,1
68833,-100,4,2,0,55,0,1
69186,-100,4,2,1,55,0,1
70245,-100,4,3,1,45,0,1
70333,-100,4,2,1,55,0,1
71657,-100,4,3,1,45,0,1
71745,-100,4,2,1,55,0,1
72716,-100,4,2,1,55,0,1
73068,-100,4,2,69,55,0,1
74127,-100,4,2,69,55,0,1
74480,-100,4,2,0,55,0,1
74833,-100,4,2,1,55,0,1
75010,-100,4,2,69,55,0,1
75892,-100,4,3,1,45,0,1
75980,-100,4,2,1,55,0,1
77304,-100,4,3,1,45,0,1
77392,-100,4,2,69,55,0,1
78010,-100,4,3,1,45,0,1
78098,-100,4,2,69,55,0,1
78716,-100,4,2,69,55,0,1
80127,-100,4,2,0,55,0,1
80480,-100,4,2,69,55,0,1
81539,-100,4,3,1,45,0,1
81627,-100,4,2,69,55,0,1
82951,-100,4,3,1,55,0,1
83039,-100,4,2,69,55,0,1
85774,-181.818181818181,4,2,0,25,0,0
85863,-181.818181818181,4,2,1,25,0,0

[Colours]
Combo1 : 159,175,198
Combo2 : 40,80,138
Combo3 : 203,174,135
Combo4 : 58,40,145

[HitObjects]
424,136,1069,6,0,L|424:264,1,105.000004005432,0|8,0:0|0:0,0:0:0:0:
256,320,1774,2,0,L|256:200,1,105.000004005432,0|8,0:0|0:0,0:0:0:0:
232,120,2304,1,0,0:0:0:0:
232,120,2480,6,0,P|158:107|108:124,1,105.000004005432,0|8,0:0|0:0,0:0:0:0:
256,216,3186,2,0,L|376:216,1,105.000004005432,0|8,0:0|0:0,0:0:0:0:
432,152,3716,1,0,0:0:0:0:
432,152,3892,6,0,P|442:97|428:36,1,105.000004005432,0|8,0:0|0:0,0:0:0:0:
360,216,4598,2,0,L|360:328,1,105.000004005432,0|8,0:0|0:0,0:0:0:0:
256,320,5127,1,0,0:0:0:0:
256,320,5304,6,0,L|200:320,1,52.5000020027161
175,229,5657,2,0,L|227:229,1,52.5000020027161,8|0,0:0|0:0,0:0:0:0:
112,280,6010,2,0,P|94:227|123:168,1,105.000004005432,0|8,0:0|0:0,0:0:0:0:
288,248,6716,6,0,L|416:248,1,105.000004005432,0|8,0:0|0:0,0:0:0:0:
480,160,7245,1,0,0:0:0:0:
480,160,7421,2,0,L|368:160,1,105.000004005432,0|8,0:0|0:0,0:0:0:0:
290,162,7951,1,0,0:0:0:0:
288,245,8127,6,0,L|200:325,1,105.000004005432,0|8,0:0|0:0,0:0:0:0:
127,321,8657,1,0,0:0:0:0:
66,263,8833,2,0,L|66:199,1,52.5000020027161
143,113,9186,2,0,L|143:169,1,52.5000020027161,8|0,0:0|0:0,0:0:0:0:
256,192,9539,12,0,11304,0:0:0:0:
144,208,11657,6,0,L|144:320,1,105.000004005432
368,328,12363,6,0,L|368:176,1,140,4|2,0:0|0:0,0:0:0:0:
408,96,12892,1,0,0:0:0:0:
312,104,13068,2,0,L|240:104,1,70,2|0,0:0|0:0,0:0:0:0:
120,184,13421,2,0,L|200:184,1,70,2|8,0:0|0:0,0:0:0:0:
288,208,13774,6,0,B|272:288|184:288,1,140,4|2,0:0|0:0,0:0:0:0:
190,184,14304,1,0,0:0:0:0:
242,104,14480,2,0,L|321:81,1,70,2|0,0:0|0:0,0:0:0:0:
336,77,14745,1,0,0:0:0:0:
362,69,14833,2,0,L|449:48,1,70,2|8,0:0|0:0,0:0:0:0:
330,184,15186,6,0,L|186:184,1,140,4|2,0:0|0:0,0:0:0:0:
88,184,15716,1,0,0:0:0:0:
80,280,15892,2,0,L|152:288,1,70,2|0,0:0|0:0,0:0:0:0:
177,293,16157,1,0,0:0:0:0:
204,296,16245,2,0,L|284:304,1,70,2|8,0:0|0:0,0:0:0:0:
371,309,16598,5,4,0:0:0:0:
431,230,16774,1,0,0:0:0:0:
355,167,16951,2,0,L|354:126,2,35,2|0|0,0:0|0:0|0:0,0:0:0:0:
262,200,17304,1,0,0:0:0:0:
172,161,17480,1,0,0:0:0:0:
160,186,17568,1,0,0:0:0:0:
152,213,17657,2,0,L|152:293,1,70,2|8,0:0|0:0,0:0:0:0:
262,200,18010,6,0,P|326:160|328:80,1,140,4|2,0:0|0:0,0:0:0:0:
252,115,18539,1,0,0:0:0:0:
308,31,18716,2,0,P|356:31|396:63,1,70,2|0,0:0|0:0,0:0:0:0:
397,56,18980,1,2,0:0:0:0:
408,84,19068,2,0,P|411:119|402:153,1,70,2|8,0:0|0:0,0:0:0:0:
412,250,19421,6,0,P|338:267|275:226,1,140,4|0,0:0|0:0,0:0:0:0:
164,114,20127,1,0,0:0:0:0:
274,95,20304,2,0,L|307:78,2,35,2|0|2,0:0|0:0|0:0,0:0:0:0:
164,114,20657,1,8,0:0:0:0:
88,197,20833,6,0,P|114:257|195:266,2,140,4|2|0,0:0|0:0|0:0,0:0:0:0:
160,133,21716,1,0,0:0:0:0:
160,133,21804,1,0,0:0:0:0:
160,133,21892,2,0,L|160:213,1,70,2|0,0:0|0:0,0:0:0:0:
174,300,22245,5,4,0:0:0:0:
277,308,22421,1,0,0:0:0:0:
280,209,22598,2,0,L|280:129,1,70,4|0,0:0|0:0,0:0:0:0:
179,124,22951,1,4,0:0:0:0:
110,193,23127,2,0,P|90:168|80:132,2,70,0|2|0,0:0|0:0|0:0,0:0:0:0:
182,272,23657,6,0,P|206:296|286:292,1,105.000004005432,8|8,0:0|0:0,0:0:0:0:
352,264,24186,1,0,0:0:0:0:
432,240,24363,2,0,L|503:240,2,52.5000020027161,0|0|8,0:0|0:0|0:0,0:0:0:0:
368,184,24892,1,0,0:0:0:0:
254,228,25068,6,0,L|206:124,1,105.000004005432,0|8,0:0|0:0,0:0:0:0:
162,62,25598,1,0,0:0:0:0:
79,78,25774,2,0,L|15:78,2,52.5000020027161,0|0|8,0:0|0:0|0:0,0:0:0:0:
94,161,26304,1,0,0:0:0:0:
209,132,26480,6,0,L|259:239,1,105.000004005432,0|8,0:0|0:0,0:0:0:0:
338,227,27010,1,0,0:0:0:0:
394,288,27186,2,0,L|394:349,2,52.5000020027161,0|0|8,0:0|0:0|0:0,0:0:0:0:
452,226,27716,1,0,0:0:0:0:
338,227,27892,6,0,P|290:267|242:275,1,105.000004005432,0|8,0:0|0:0,0:0:0:0:
186,219,28421,1,0,0:0:0:0:
124,276,28598,2,0,L|124:332,1,52.5000020027161
200,364,28951,2,0,L|264:364,1,52.5000020027161,8|0,0:0|0:0,0:0:0:0:
321,252,29304,6,0,P|369:220|369:156,1,119.000002269745,0|8,0:0|0:0,0:0:0:0:
304,95,29833,1,0,0:0:0:0:
211,71,30010,2,0,L|131:71,2,59.5000011348725,0|0|8,0:0|0:0|0:0,0:0:0:0:
243,160,30539,1,0,0:0:0:0:
374,194,30716,6,0,P|382:258|331:300,1,119.000002269745,0|8,0:0|0:0,0:0:0:0:
258,260,31245,1,0,0:0:0:0:
173,302,31421,2,0,L|114:300,2,59.5000011348725,0|0|8,0:0|0:0|0:0,0:0:0:0:
242,368,31951,1,0,0:0:0:0:
347,294,32127,6,0,P|401:282|439:209,1,119.000002269745,0|8,0:0|0:0,0:0:0:0:
449,137,32657,1,0,0:0:0:0:
404,53,32833,2,0,L|446:3,2,59.5000011348725,0|0|8,0:0|0:0|0:0,0:0:0:0:
311,68,33363,1,0,0:0:0:0:
272,176,33539,6,0,L|295:265,2,70,2|0|0,0:0|0:0|0:0,0:0:0:0:
186,106,34068,2,0,P|242:65|315:70,1,140,2|0,0:0|0:0,0:0:0:0:
272,176,34598,1,2,0:0:0:0:
336,266,34774,1,2,0:0:0:0:
408,162,34951,6,0,B|408:82|408:82|384:26,1,140,4|8,0:0|0:0,0:0:0:0:
283,77,35480,1,0,0:0:0:0:
247,176,35657,2,0,L|167:176,1,70,2|0,0:0|0:0,0:0:0:0:
112,280,36010,2,0,L|192:280,1,70,8|0,0:0|0:0,0:0:0:0:
303,283,36363,5,2,0:0:0:0:
247,176,36539,1,0,0:0:0:0:
344,112,36716,2,0,L|424:112,1,70,8|0,0:0|0:0,0:0:0:0:
492,190,37068,1,2,0:0:0:0:
430,284,37245,1,8,0:0:0:0:
430,284,37421,2,0,L|356:285,1,70,8|0,0:0|0:0,0:0:0:0:
247,246,37774,6,0,L|247:166,1,70,2|0,0:0|0:0,0:0:0:0:
163,248,38127,2,0,L|163:318,1,70,8|0,0:0|0:0,0:0:0:0:
78,243,38480,2,0,L|78:173,1,70,2|0,0:0|0:0,0:0:0:0:
164,80,38833,2,0,L|164:152,1,70,8|0,0:0|0:0,0:0:0:0:
163,248,39186,5,2,0:0:0:0:
255,298,39363,1,0,0:0:0:0:
360,312,39539,2,0,L|448:312,1,70,8|0,0:0|0:0,0:0:0:0:
496,221,39892,1,2,0:0:0:0:
446,120,40068,1,8,0:0:0:0:
446,120,40245,2,0,L|373:120,1,70,8|0,0:0|0:0,0:0:0:0:
272,200,40598,6,0,B|224:184|224:184|184:200|184:200|136:184,1,140,2|8,0:0|0:0,0:0:0:0:
140,87,41127,1,0,0:0:0:0:
140,185,41304,2,0,L|140:273,1,70,2|0,0:0|0:0,0:0:0:0:
232,344,41657,2,0,L|232:264,1,70,8|0,0:0|0:0,0:0:0:0:
224,175,42010,6,0,L|312:175,1,70,2|0,0:0|0:0,0:0:0:0:
140,255,42363,2,0,L|48:256,1,70,8|0,0:0|0:0,0:0:0:0:
54,144,42716,1,2,0:0:0:0:
147,74,42892,1,8,0:0:0:0:
147,74,43068,2,0,L|230:73,1,70,8|0,0:0|0:0,0:0:0:0:
294,175,43421,6,0,L|446:175,1,140,0|8,0:0|0:0,0:0:0:0:
210,255,44127,2,0,L|66:255,1,140,2|8,0:0|0:0,0:0:0:0:
48,144,44657,1,0,0:0:0:0:
152,96,44833,5,4,0:0:0:0:
152,96,45010,2,0,L|168:64,2,35,0|0|8,0:0|0:0|0:0,0:0:0:0:
194,223,45363,2,8,L|218:271,2,35,0|0|8,0:0|0:0|0:0,0:0:0:0:
283,154,45716,1,0,0:0:0:0:
368,225,45892,2,0,L|368:313,1,70,8|0,0:0|0:0,0:0:0:0:
340,320,46157,1,0,0:0:0:0:
340,320,46245,6,0,L|220:320,2,105.000004005432,4|0|4,0:0|0:0|0:0,0:0:0:0:
184,167,47304,2,0,L|120:167,1,52.5000020027161
62,214,47657,1,0,0:0:0:0:
169,248,47833,6,0,B|235:248,1,52.5000020027161
275,183,48186,1,0,0:0:0:0:
327,249,48363,2,0,P|330:286|292:342,1,105.000004005432,2|2,0:0|0:0,0:0:0:0:
169,353,48892,1,0,0:0:0:0:
169,353,48980,1,0,0:0:0:0:
169,353,49068,6,0,L|169:233,1,105.000004005432,4|0,0:0|0:0,0:0:0:0:
204,150,49598,1,0,0:0:0:0:
204,150,49774,2,0,L|92:150,1,105.000004005432,4|0,0:0|0:0,0:0:0:0:
58,233,50304,1,0,0:0:0:0:
169,248,50480,6,0,L|210:293,1,52.5000020027161
282,251,50833,2,0,L|300:312,1,52.5000020027161
384,296,51186,2,0,L|397:366,2,52.5000020027161,2|0|2,0:0|0:0|0:0,0:0:0:0:
204,286,51892,6,0,B|95:295,1,105.000004005432,4|0,0:0|0:0,0:0:0:0:
79,148,52598,2,0,L|163:141,1,78.7500030040742,4|0,0:0|0:0,0:0:0:0:
183,115,52951,2,0,L|220:60,1,52.5000020027161
297,85,53304,6,0,L|328:38,2,52.5000020027161
284,167,53833,2,0,L|247:216,1,52.5000020027161,2|0,0:0|0:0,0:0:0:0:
169,355,54363,1,0,0:0:0:0:
253,209,54716,6,0,P|245:177|173:145,1,105.000004005432,4|0,0:0|0:0,0:0:0:0:
101,146,55245,1,0,0:0:0:0:
66,222,55421,2,0,P|74:254|146:286,1,105.000004005432,4|0,0:0|0:0,0:0:0:0:
217,292,55951,1,0,0:0:0:0:
217,292,56039,1,0,0:0:0:0:
217,292,56127,6,0,L|284:237,1,70,8|0,0:0|0:0,0:0:0:0:
255,150,56480,2,0,L|167:166,1,70,0|2,0:0|0:0,0:0:0:0:
87,165,56833,1,0,0:0:0:0:
124,74,57010,1,4,0:0:0:0:
220,57,57186,1,4,0:0:0:0:
256,192,57539,12,0,60363,0:0:0:0:
144,296,61774,5,8,0:0:0:0:
144,296,61951,1,8,0:0:0:0:
409,170,62480,1,8,0:0:0:0:
409,170,62657,1,8,0:0:0:0:
309,116,62833,6,0,P|282:96|225:91,1,78.7500030040742
208,88,63186,6,0,B|192:128|192:128|192:240,1,140,4|8,0:0|0:0,0:0:0:35:soft-hitclap69.wav
224,328,63716,1,0,0:0:0:0:
296,240,63892,2,0,L|376:240,1,70,2|0,0:0|0:0,0:0:0:0:
424,336,64245,2,0,L|344:336,1,70,8|0,0:0|0:0,0:0:0:0:
366,240,64598,6,0,P|366:200|374:160,1,70,4|0,0:0|0:0,0:0:0:0:
464,176,64951,2,0,P|456:128|440:96,1,70,8|0,0:0|0:0,0:0:0:0:
360,64,65304,1,2,0:0:0:0:
371,170,65480,1,0,0:0:0:0:
288,246,65657,2,0,P|233:253|195:243,1,70,8|0,0:0|0:0,0:0:0:0:
159,172,66010,6,0,P|173:113|158:82,2,70,8|0|8,0:0|0:0|0:0,0:0:0:0:
94,245,66539,1,0,0:0:0:0:
152,320,66716,2,0,L|240:320,1,70,2|0,0:0|0:0,0:0:0:0:
312,320,67068,1,8,0:0:0:0:
312,320,67245,1,0,0:0:0:0:
412,240,67421,6,0,L|336:241,1,70,4|0,0:0|0:0,0:0:0:0:
299,137,67774,2,0,L|235:193,1,70,12|0,0:0|0:0,0:0:0:0:
148,169,68127,1,4,0:0:0:0:
145,70,68304,1,0,0:0:0:0:
241,41,68480,1,12,0:0:0:0:
241,41,68833,6,0,P|313:44|377:97,1,140,4|8,0:0|0:0,0:0:0:0:
460,114,69363,1,0,0:0:0:0:
417,201,69539,2,0,L|353:281,1,70,2|0,0:0|0:0,0:0:0:0:
323,136,69892,2,0,L|387:56,1,70,8|0,0:0|0:0,0:0:0:0:
241,41,70245,6,0,P|177:73|97:57,1,140,4|8,0:0|0:0,0:0:0:0:
16,96,70774,1,0,0:0:0:0:
40,192,70951,2,0,L|120:192,1,70,2|0,0:0|0:0,0:0:0:0:
208,176,71304,1,8,0:0:0:0:
264,96,71480,1,0,0:0:0:0:
349,144,71657,6,0,L|432:142,1,70,4|0,0:0|0:0,0:0:0:0:
512,117,72010,1,8,0:0:0:0:
364,264,72363,2,0,L|300:329,1,70,2|0,0:0|0:0,0:0:0:0:
236,248,72716,2,0,L|154:256,1,70,4|0,0:0|0:0,0:0:0:0:
154,143,73068,1,2,0:0:0:0:
59,204,73245,6,0,L|24:230,2,35,2|0|8,0:0|0:0|0:0,0:0:0:0:
154,143,73598,2,0,L|154:103,2,35,0|0|10,0:0|0:0|0:0,0:0:0:0:
166,254,73951,1,0,0:0:0:0:
273,284,74127,2,0,L|287:362,1,70,4|2,0:0|0:0,0:0:0:0:
393,232,74480,6,0,B|377:192|377:192|377:88|377:88|385:80,1,140,4|4,0:0|0:0,0:0:0:0:
292,43,75010,1,0,0:0:0:0:
240,126,75186,2,0,L|240:198,1,70,2|0,0:0|0:0,0:0:0:0:
323,267,75539,2,0,L|323:187,1,70,8|0,0:0|0:0,0:0:0:0:
292,43,75892,6,0,P|257:35|222:36,1,70,4|0,0:0|0:0,0:0:0:0:
144,120,76245,2,0,P|109:123|77:138,1,70,8|0,0:0|0:0,0:0:0:0:
18,249,76598,2,0,P|52:245|93:254,1,70,2|0,0:0|0:0,0:0:0:0:
139,342,76951,2,0,P|185:344|225:322,1,70,8|0,0:0|0:0,0:0:0:0:
296,212,77304,6,0,P|349:235|386:325,1,140,4|8,0:0|0:0,0:0:0:0:
279,318,77833,1,0,0:0:0:0:
219,240,78010,2,0,P|231:163|301:132,1,140,4|8,0:0|0:0,0:0:0:0:
372,99,78539,1,0,0:0:0:0:
423,178,78716,6,0,L|463:266,1,70,4|0,0:0|0:0,0:0:0:0:
373,300,79068,2,0,L|341:380,1,70,12|0,0:0|0:0,0:0:0:0:
259,321,79421,1,4,0:0:0:0:
240,224,79598,1,0,0:0:0:0:
155,177,79774,1,12,0:0:0:0:
155,177,80127,6,0,P|207:132|302:150,1,140,4|8,0:0|0:0,0:0:0:0:
368,120,80657,1,0,0:0:0:0:
461,148,80833,2,0,L|448:226,1,70,2|0,0:0|0:0,0:0:0:0:
336,294,81186,2,0,L|336:224,1,70,8|0,0:0|0:0,0:0:0:0:
251,334,81539,6,0,P|173:334|107:279,1,140,4|8,0:0|0:0,0:0:0:0:
208,225,82068,2,0,L|225:157,2,70,0|2|0,0:0|0:0|0:0,0:0:0:0:
313,183,82598,2,0,L|313:103,1,70,8|0,0:0|0:0,0:0:0:0:
413,71,82951,6,0,L|413:151,1,70,4|0,0:0|0:0,0:0:0:0:
386,258,83304,2,0,P|346:321|263:315,1,140,8|2,0:0|0:0,0:0:0:0:
190,302,83833,1,0,0:0:0:0:
172,202,84010,2,0,L|204:138,1,70,8|0,0:0|0:0,0:0:0:0:
312,40,84363,6,0,L|312:136,1,70,8|0,0:0|0:0,0:0:0:0:
257,191,84716,1,2,0:0:0:0:
271,290,84892,2,0,L|271:354,2,35,0|0|8,0:0|0:0|0:0,0:0:0:0:
176,263,85245,1,0,0:0:0:0:
166,160,85421,2,0,L|96:160,1,70,2|0,0:0|0:0,0:0:0:0:
258,103,85774,6,0,B|235:158|263:198|266:203|270:210|308:263|269:330,1,231.000007049561,4|0,0:0|0:0,0:0:0:0:
178,270,87186,6,0,L|90:270,2,77.0000023498536
271,325,88245,1,0,0:0:0:0:
358,260,88598,5,0,0:0:0:0:
