osu file format v14

[General]
AudioFilename: audio.mp3
AudioLeadIn: 0
PreviewTime: 62745
Countdown: 0
SampleSet: Soft
StackLeniency: 0.7
Mode: 2
LetterboxInBreaks: 0
WidescreenStoryboard: 0

[Editor]
DistanceSpacing: 1
BeatDivisor: 4
GridSize: 32
TimelineZoom: 1

[Metadata]
Title:Kotoba no Iranai Yakusoku(TV size)
TitleUnicode:言葉のいらない約束(TV size)
Artist:sana
ArtistUnicode:sana
Creator:Ascendance
Version:Rasengan
Source:NARUTO-ナルト-疾風伝
Tags:shippuden shippuuden ending 33 鎖那 honeyworks ed hokage fii -wwwww kaitlin
BeatmapID:1435160
BeatmapSetID:678725

[Difficulty]
HPDrainRate:7
CircleSize:4.2
OverallDifficulty:9.2
ApproachRate:9.2
SliderMultiplier:1.96
SliderTickRate:2

[Events]
//Background and Video events
0,0,"bg2.png",0,0
//Break Periods
//Storyboard Layer 0 (Background)
//Storyboard Layer 1 (Fail)
//Storyboard Layer 2 (Pass)
//Storyboard Layer 3 (Foreground)
//Storyboard Sound Samples

[TimingPoints]
1069,352.941176470588,4,2,2,25,1,0
1069,-100,4,2,2,25,0,0
6716,-100,4,2,2,35,0,0
10951,-100,4,2,2,35,0,0
11039,-100,4,2,2,25,0,0
11657,-100,4,2,2,35,0,0
11745,-100,4,2,1,25,0,0
12010,-100,4,2,1,60,0,0
12098,-100,4,2,1,25,0,0
12363,-100,4,2,0,75,0,0
12451,-100,4,2,1,60,0,0
13774,-100,4,2,0,60,0,0
13863,-100,4,2,1,60,0,0
15186,-100,4,2,0,60,0,0
15274,-100,4,2,1,60,0,0
16598,-100,4,2,0,60,0,0
16686,-100,4,2,1,60,0,0
18010,-100,4,2,0,60,0,0
18098,-100,4,2,1,60,0,0
19421,-100,4,2,0,40,0,0
19510,-100,4,2,1,60,0,0
20833,-100,4,2,0,60,0,0
20921,-100,4,2,1,60,0,0
22245,-100,4,3,0,40,0,0
23657,-100,4,2,2,25,0,0
29304,-100,4,2,2,25,0,0
33539,-100,4,2,2,40,0,0
34951,-100,4,2,1,40,0,0
44833,-100,4,2,3,40,0,0
44921,-100,4,2,1,40,0,0
45539,-100,4,2,1,40,0,0
46245,-100,4,2,0,40,0,0
46333,-100,4,2,1,40,0,0
49068,-100,4,2,0,40,0,0
49157,-100,4,2,1,40,0,0
51892,-100,4,2,0,40,0,0
51980,-100,4,2,1,40,0,0
54716,-100,4,2,0,40,0,0
54804,-100,4,2,1,40,0,0
56127,-100,4,2,0,40,0,0
56216,-100,4,2,1,40,0,0
56833,-100,4,2,1,40,0,0
57010,-100,4,3,1,40,0,0
57539,-100,4,2,1,25,0,0
60363,-100,4,2,1,25,0,0
60451,-100,4,2,1,25,0,0
61598,-100,4,2,1,50,0,0
62833,-100,4,2,1,25,0,0
63186,-100,4,2,0,65,0,1
63274,-100,4,2,69,65,0,1
66010,-100,4,2,3,40,0,1
66098,-100,4,2,69,65,0,1
68480,-100,4,2,69,45,0,1
68833,-100,4,2,0,65,0,1
69186,-100,4,2,69,65,0,1
71657,-100,4,2,3,30,0,1
71745,-100,4,2,69,65,0,1
72716,-100,4,2,1,45,0,1
72804,-100,4,2,69,65,0,1
73421,-100,4,2,1,65,0,1
74127,-100,4,2,0,65,0,1
74216,-100,4,2,69,65,0,1
74480,-100,4,2,0,65,0,1
74568,-100,4,2,1,45,0,1
75010,-100,4,2,69,65,0,1
77304,-100,4,2,0,65,0,1
77392,-100,4,2,69,65,0,1
79774,-100,4,2,69,45,0,1
80127,-100,4,2,0,65,0,1
80216,-100,4,2,69,65,0,1
82951,-100,4,2,3,30,0,1
83039,-100,4,2,69,65,0,1
85774,-100,4,2,0,65,0,0
87186,-100,4,2,2,25,0,0

[Colours]
Combo1 : 250,197,81
Combo2 : 194,106,45
Combo3 : 254,231,172
Combo4 : 255,140,102

[HitObjects]
170,332,1069,6,0,P|127:249|204:180,1,196,0|8,0:0|0:0,0:0:0:0:
324,182,1598,1,0,0:0:0:0:
177,78,1774,2,0,L|186:193,1,98,0|0,0:0|0:0,0:0:0:0:
318,207,2127,2,0,L|327:313,1,98,8|0,0:0|0:0,0:0:0:0:
146,306,2480,6,0,L|361:321,1,196,0|8,0:0|0:0,0:0:0:0:
235,228,3010,1,0,0:0:0:0:
376,101,3186,2,0,L|364:217,1,98,0|0,0:0|0:0,0:0:0:0:
221,231,3539,2,0,L|211:337,1,98,8|0,0:0|0:0,0:0:0:0:
398,282,3892,6,0,P|446:209|381:127,1,196,0|8,0:0|0:0,0:0:0:0:
263,113,4421,2,0,L|161:122,2,98,0|0|0,0:0|0:0|0:0,0:0:0:0:
122,266,4951,2,0,L|116:163,1,98,8|0,0:0|0:0,0:0:0:0:
287,318,5304,6,0,L|81:325,1,196,0|8,0:0|0:0,0:0:0:0:
216,232,5833,1,0,0:0:0:0:
85,190,6010,2,0,L|81:92,1,98,0|0,0:0|0:0,0:0:0:0:
208,29,6363,2,0,L|108:22,1,98,8|0,0:0|0:0,0:0:0:0:
380,262,6716,6,0,P|434:191|355:120,1,196,0|8,0:0|0:0,0:0:0:0:
243,57,7245,2,0,L|249:174,1,98,0|0,0:0|0:0,0:0:0:0:
392,189,7598,1,0,0:0:0:0:
257,251,7774,2,0,L|156:258,1,98,8|0,0:0|0:0,0:0:0:0:
316,329,8127,6,0,L|426:321,1,98,0|0,0:0|0:0,0:0:0:0:
243,269,8480,2,0,L|231:168,1,98,8|0,0:0|0:0,0:0:0:0:
76,178,8833,2,0,L|65:77,1,98,0|0,0:0|0:0,0:0:0:0:
195,68,9186,2,0,L|299:56,1,98,8|0,0:0|0:0,0:0:0:0:
140,154,9539,6,0,L|353:170,1,196,0|8,0:0|0:0,0:0:0:0:
210,263,10068,1,0,0:0:0:0:
335,353,10245,2,0,L|358:252,1,98,0|0,0:0|0:0,0:0:0:0:
174,212,10598,2,0,L|156:96,1,98,8|0,0:0|0:0,0:0:0:0:
420,39,10951,6,0,P|508:131|398:239,1,294,0|0,0:0|0:0,0:0:0:0:
249,324,11657,2,0,L|448:317,1,196,0|0,0:0|0:0,0:0:0:0:
346,257,12186,1,0,0:0:0:0:
71,245,12363,5,4,0:0:0:0:
36,211,12451,1,0,0:0:0:0:
25,163,12539,1,0,0:0:0:0:
42,118,12627,1,0,0:0:0:0:
81,89,12715,1,2,0:0:0:0:
234,49,12892,6,0,L|307:58,2,49,0|0|2,0:0|0:0|0:0,0:0:0:0:
361,135,13245,2,0,L|421:142,1,49,0|0,0:0|0:0,0:0:0:0:
231,261,13421,2,0,L|226:192,1,49,2|0,0:0|0:0,0:0:0:0:
405,323,13598,2,0,L|477:330,1,49,8|0,0:0|0:0,0:0:0:0:
221,359,13774,6,0,L|214:298,1,49,4|0,0:0|0:0,0:0:0:0:
294,259,13951,2,0,L|285:199,1,49,0|0,0:0|0:0,0:0:0:0:
186,178,14127,1,2,0:0:0:0:
308,119,14304,6,0,L|360:124,2,49,0|0|2,0:0|0:0|0:0,0:0:0:0:
141,88,14657,2,0,L|137:30,1,49,2|0,0:0|0:0,0:0:0:0:
313,50,14833,2,0,L|242:50,1,49,2|0,0:0|0:0,0:0:0:0:
68,170,15010,2,0,L|129:170,1,49,8|0,0:0|0:0,0:0:0:0:
306,174,15187,5,4,0:0:0:0:
345,202,15275,1,0,0:0:0:0:
362,247,15363,1,0,0:0:0:0:
353,294,15451,1,0,0:0:0:0:
319,328,15539,1,2,0:0:0:0:
176,349,15716,5,0,0:0:0:0:
224,349,15804,1,0,0:0:0:0:
273,349,15892,1,2,0:0:0:0:
150,266,16068,2,0,L|101:266,1,49,0|0,0:0|0:0,0:0:0:0:
286,216,16245,2,0,L|356:217,1,49,2|0,0:0|0:0,0:0:0:0:
150,266,16421,2,0,L|101:266,1,49,8|0,0:0|0:0,0:0:0:0:
312,126,16598,5,4,0:0:0:0:
181,124,16774,1,0,0:0:0:0:
455,193,16951,1,2,0:0:0:0:
455,242,17039,1,0,0:0:0:0:
455,291,17127,1,0,0:0:0:0:
168,327,17304,5,2,0:0:0:0:
287,276,17480,1,0,0:0:0:0:
332,239,17568,1,0,0:0:0:0:
330,190,17656,1,2,0:0:0:0:
282,152,17744,1,0,0:0:0:0:
93,120,17833,2,0,L|43:119,1,49,8|0,0:0|0:0,0:0:0:0:
287,54,18010,6,0,L|353:54,1,49,4|0,0:0|0:0,0:0:0:0:
287,54,18186,2,0,L|227:54,2,49,0|0|2,0:0|0:0|0:0,0:0:0:0:
450,96,18539,6,0,L|449:149,1,49,0|0,0:0|0:0,0:0:0:0:
389,178,18716,1,2,0:0:0:0:
233,223,18892,2,0,L|236:282,1,49,0|0,0:0|0:0,0:0:0:0:
399,338,19068,2,0,L|454:338,1,49,2|0,0:0|0:0,0:0:0:0:
260,141,19245,2,0,L|192:141,1,49,8|0,0:0|0:0,0:0:0:0:
62,66,19421,5,4,0:0:0:0:
23,94,19509,1,0,0:0:0:0:
7,140,19597,1,0,0:0:0:0:
21,186,19685,1,0,0:0:0:0:
58,217,19773,1,2,0:0:0:0:
215,244,19951,6,0,L|297:242,2,49,0|0|2,0:0|0:0|0:0,0:0:0:0:
68,319,20304,2,0,L|18:319,1,49,0|0,0:0|0:0,0:0:0:0:
236,355,20480,2,0,L|284:355,1,49,2|0,0:0|0:0,0:0:0:0:
68,319,20657,2,0,L|66:262,1,49,8|0,0:0|0:0,0:0:0:0:
297,274,20833,5,4,0:0:0:0:
334,243,20921,1,0,0:0:0:0:
347,197,21009,1,0,0:0:0:0:
331,151,21097,1,0,0:0:0:0:
291,124,21185,1,2,0:0:0:0:
168,125,21363,1,0,0:0:0:0:
431,123,21539,6,0,L|483:123,1,49,2|0,0:0|0:0,0:0:0:0:
238,47,21716,2,0,L|176:47,1,49,0|0,0:0|0:0,0:0:0:0:
376,28,21892,2,0,L|501:28,1,98,2|8,0:0|0:0,0:0:0:0:
106,308,22245,5,4,0:0:0:0:
230,248,22421,2,0,L|245:195,2,49,0|0|4,0:0|0:0|0:0,0:0:0:0:
108,157,22774,2,0,L|100:108,1,49,0|0,0:0|0:0,0:0:0:0:
308,119,22951,2,0,L|356:119,1,49,4|0,0:0|0:0,0:0:0:0:
308,119,23127,2,0,L|246:120,1,49,0|0,0:0|0:0,0:0:0:0:
431,59,23304,2,0,L|484:58,1,49,4|0,0:0|0:0,0:0:0:0:
171,48,23480,2,0,L|119:48,1,49,0|0,0:0|0:0,0:0:0:0:
394,335,23657,6,0,P|441:255|358:183,1,196,0|8,0:0|0:0,0:0:0:0:
247,186,24186,1,0,0:0:0:0:
381,73,24363,2,0,L|376:182,1,98,0|0,0:0|0:0,0:0:0:0:
236,275,24716,2,0,L|124:279,1,98,8|0,0:0|0:0,0:0:0:0:
296,356,25068,6,0,P|346:275|275:191,1,196,0|8,0:0|0:0,0:0:0:0:
164,228,25598,2,0,L|162:119,1,98,0|0,0:0|0:0,0:0:0:0:
300,87,25951,1,0,0:0:0:0:
159,34,26127,2,0,L|45:36,1,98,8|0,0:0|0:0,0:0:0:0:
218,283,26480,6,0,L|425:277,1,196,0|8,0:0|0:0,0:0:0:0:
293,199,27010,1,0,0:0:0:0:
145,212,27186,2,0,L|134:103,1,98,0|0,0:0|0:0,0:0:0:0:
278,111,27539,2,0,L|376:99,1,98,8|0,0:0|0:0,0:0:0:0:
230,18,27892,6,0,L|452:37,1,196,0|8,0:0|0:0,0:0:0:0:
311,112,28421,1,0,0:0:0:0:
183,193,28598,2,0,L|194:298,1,98,0|0,0:0|0:0,0:0:0:0:
319,234,28951,1,8,0:0:0:0:
193,290,29127,1,0,0:0:0:0:
380,260,29304,6,0,P|432:182|353:103,1,196,0|8,0:0|0:0,0:0:0:0:
246,107,29833,1,0,0:0:0:0:
381,113,30010,2,0,L|493:110,1,98,0|0,0:0|0:0,0:0:0:0:
313,39,30363,2,0,L|207:39,1,98,8|0,0:0|0:0,0:0:0:0:
28,101,30716,6,0,L|36:202,1,98,0|0,0:0|0:0,0:0:0:0:
161,253,31068,2,0,L|276:246,1,98,8|0,0:0|0:0,0:0:0:0:
125,328,31421,2,0,L|22:337,1,98,0|0,0:0|0:0,0:0:0:0:
193,264,31774,2,0,L|308:257,1,98,8|0,0:0|0:0,0:0:0:0:
470,317,32127,6,0,P|507:247|439:165,1,196,0|8,0:0|0:0,0:0:0:0:
310,171,32657,1,0,0:0:0:0:
175,258,32833,2,0,L|170:141,1,98,0|0,0:0|0:0,0:0:0:0:
314,284,33186,2,0,L|439:273,1,98,8|0,0:0|0:0,0:0:0:0:
62,137,33539,6,0,L|198:149,2,98,2|0|0,0:0|0:0|0:0,0:0:0:0:
314,250,34068,2,0,L|206:259,2,98,2|0|0,0:0|0:0|0:0,0:0:0:0:
47,357,34598,2,0,L|41:249,1,98,0|0,0:0|0:0,0:0:0:0:
340,226,34951,5,2,0:0:0:0:
210,174,35127,2,0,L|131:184,2,49,2|0|8,0:0|0:0|0:0,0:0:0:0:
340,226,35480,1,0,0:0:0:0:
197,351,35657,2,0,L|183:247,1,98,2|0,0:0|0:0,0:0:0:0:
340,226,36010,2,0,L|444:207,1,98,8|0,0:0|0:0,0:0:0:0:
119,75,36363,5,2,0:0:0:0:
263,142,36539,1,2,0:0:0:0:
259,190,36627,1,0,0:0:0:0:
256,239,36715,1,8,0:0:0:0:
119,75,36892,1,0,0:0:0:0:
263,142,37068,2,0,L|377:133,1,98,2|8,0:0|0:0,0:0:0:0:
101,240,37421,2,0,L|-3:229,1,98,8|0,0:0|0:0,0:0:0:0:
329,351,37774,6,0,L|338:249,1,98,2|0,0:0|0:0,0:0:0:0:
192,201,38127,1,8,0:0:0:0:
354,165,38304,1,0,0:0:0:0:
402,169,38392,1,0,0:0:0:0:
451,174,38480,1,2,0:0:0:0:
289,100,38657,1,0,0:0:0:0:
433,19,38833,2,0,L|420:119,1,98,8|0,0:0|0:0,0:0:0:0:
169,238,39186,6,0,L|55:246,2,98,2|0|8,0:0|0:0|0:0,0:0:0:0:
332,289,39716,2,0,L|386:298,2,49,0|0|0,0:0|0:0|0:0,0:0:0:0:
48,327,40068,1,8,0:0:0:0:
434,65,40245,2,0,L|431:186,1,98,8|0,0:0|0:0,0:0:0:0:
127,186,40598,6,0,L|340:202,1,196,2|8,0:0|0:0,0:0:0:0:
198,296,41127,1,0,0:0:0:0:
331,368,41304,2,0,L|349:264,1,98,2|0,0:0|0:0,0:0:0:0:
189,198,41657,2,0,L|172:80,1,98,8|0,0:0|0:0,0:0:0:0:
428,45,42010,6,0,L|220:51,2,196,2|8|2,0:0|0:0|0:0,0:0:0:0:
285,134,42892,1,8,0:0:0:0:
289,182,42980,1,0,0:0:0:0:
294,231,43068,1,8,0:0:0:0:
453,272,43245,1,0,0:0:0:0:
134,347,43421,6,0,P|89:275|170:186,1,196,0|8,0:0|0:0,0:0:0:0:
275,189,43951,1,0,0:0:0:0:
145,97,44127,2,0,L|266:98,1,98,2|0,0:0|0:0,0:0:0:0:
393,131,44480,2,0,L|498:132,1,98,8|0,0:0|0:0,0:0:0:0:
136,332,44833,5,8,0:0:0:0:
267,268,45010,1,2,0:0:0:0:
273,219,45098,1,0,0:0:0:0:
280,171,45186,1,8,0:0:0:0:
449,167,45363,2,0,L|462:96,1,49,2|0,0:0|0:0,0:0:0:0:
254,52,45539,5,2,0:0:0:0:
211,75,45627,1,0,0:0:0:0:
193,119,45715,1,0,0:0:0:0:
204,166,45803,1,0,0:0:0:0:
242,196,45891,1,2,0:0:0:0:
378,229,46068,2,0,L|431:225,1,49,0|0,0:0|0:0,0:0:0:0:
129,352,46245,6,0,P|79:276|169:198,1,196,4|2,0:0|0:0,0:0:0:0:
270,197,46774,1,0,0:0:0:0:
123,258,46951,2,0,L|103:142,1,98,8|0,0:0|0:0,0:0:0:0:
248,91,47304,1,2,0:0:0:0:
91,50,47480,2,0,L|25:57,1,49,0|0,0:0|0:0,0:0:0:0:
248,91,47657,6,0,L|346:98,2,98,2|8|0,0:0|0:0|0:0,0:0:0:0:
419,27,48186,1,0,0:0:0:0:
259,177,48363,2,0,L|264:319,1,98,8|0,0:0|0:0,0:0:0:0:
418,280,48716,2,0,L|423:388,1,98,2|8,0:0|0:0,0:0:0:0:
365,343,48980,1,0,0:0:0:0:
97,322,49068,6,0,P|51:236|137:160,1,196,4|2,0:0|0:0,0:0:0:0:
233,162,49598,2,0,L|335:162,2,98,0|8|0,0:0|0:0|0:0,0:0:0:0:
73,84,50127,2,0,L|184:84,1,98,2|0,0:0|0:0,0:0:0:0:
411,83,50480,5,2,0:0:0:0:
274,82,50657,1,8,0:0:0:0:
409,50,50833,1,2,0:0:0:0:
218,82,51010,1,0,0:0:0:0:
464,166,51186,5,8,0:0:0:0:
334,194,51363,1,0,0:0:0:0:
466,258,51539,1,2,0:0:0:0:
334,194,51716,1,0,0:0:0:0:
69,317,51892,6,0,P|22:240|84:167,1,196,4|2,0:0|0:0,0:0:0:0:
212,170,52421,1,0,0:0:0:0:
97,93,52598,2,0,L|197:93,1,98,8|0,0:0|0:0,0:0:0:0:
244,95,52863,1,0,0:0:0:0:
292,96,52951,1,2,0:0:0:0:
169,32,53127,1,0,0:0:0:0:
453,156,53304,6,0,L|450:259,1,98,2|8,0:0|0:0,0:0:0:0:
306,261,53657,2,0,L|304:365,1,98,2|0,0:0|0:0,0:0:0:0:
440,297,54010,2,0,L|330:290,1,98,8|0,0:0|0:0,0:0:0:0:
186,218,54363,2,0,L|87:212,1,98,0|0,0:0|0:0,0:0:0:0:
405,129,54716,6,0,L|299:124,1,98,4|0,0:0|0:0,0:0:0:0:
154,161,55068,2,0,L|149:63,1,98,2|0,0:0|0:0,0:0:0:0:
301,194,55421,1,8,0:0:0:0:
173,259,55598,2,0,L|112:262,2,49,0|0|2,0:0|0:0|0:0,0:0:0:0:
301,194,55951,2,0,L|351:195,1,49,8|0,0:0|0:0,0:0:0:0:
43,114,56127,6,0,L|154:114,2,98,4|0|0,0:0|0:0|0:0,0:0:0:0:
371,259,56657,1,0,0:0:0:0:
86,330,56833,2,0,L|96:210,1,98,2|4,0:0|0:0,0:0:0:0:
221,208,57186,1,4,0:0:0:0:
350,197,57363,1,0,0:0:0:0:
56,129,57539,5,0,0:0:0:0:
218,75,57892,2,0,L|319:80,2,98,0|0|0,0:0|0:0|0:0,0:0:0:0:
393,261,58598,2,0,L|406:157,1,98,0|0,0:0|0:0,0:0:0:0:
271,201,58951,6,0,L|167:194,2,98,0|0|0,0:0|0:0|0:0,0:0:0:0:
61,288,59657,1,0,0:0:0:0:
320,354,60010,2,0,L|331:250,1,98,0|0,0:0|0:0,0:0:0:0:
173,273,60363,6,0,P|66:146|222:36,1,392,0|0,0:0|0:0,0:0:0:0:
403,41,61421,2,0,L|394:152,1,98,0|0,0:0|0:0,0:0:0:0:
106,191,61774,5,8,0:0:0:0:
375,257,61951,1,8,0:0:0:0:
47,322,62480,1,8,0:0:0:0:
461,238,62657,1,8,0:0:0:0:
352,128,62833,2,0,L|483:124,1,98,0|0,0:0|0:0,0:0:0:0:
85,70,63186,5,4,0:0:0:0:
212,133,63363,1,0,0:0:0:0:
208,181,63451,1,0,0:0:0:0:
204,230,63539,1,8,0:0:0:0:
56,300,63716,1,2,0:0:0:0:
204,230,63892,2,0,L|331:239,1,98,2|0,0:0|0:0,0:0:0:0:
57,157,64245,1,8,0:0:0:0:
331,311,64421,6,0,P|385:237|322:163,1,196,0|0,0:0|0:0,0:0:0:0:
186,162,64951,1,8,0:0:0:0:
320,168,65127,2,0,L|379:168,2,49,2|0|2,0:0|0:0|0:0,0:0:0:0:
186,162,65480,1,0,0:0:0:0:
465,126,65657,1,8,0:0:0:0:
165,320,65833,6,0,P|115:237|191:169,1,196,0|0,0:0|0:0,0:0:0:0:
311,173,66363,1,8,0:0:0:0:
67,111,66539,2,0,L|12:111,2,49,2|0|2,0:0|0:0|0:0,0:0:0:0:
204,108,66892,1,0,0:0:0:0:
67,111,67068,1,8,0:0:0:0:
339,72,67245,6,0,L|140:71,1,196,0|0,0:0|0:0,0:0:0:0:
281,157,67774,2,0,L|401:158,1,98,12|2,0:0|0:0,0:0:0:0:
330,200,68039,1,0,0:0:0:0:
100,329,68127,2,0,L|92:227,1,98,8|0,0:0|0:0,0:0:0:0:
369,301,68480,2,0,L|471:297,1,98,8|0,0:0|0:0,0:0:0:0:
185,341,68833,6,0,L|178:231,1,98,4|0,0:0|0:0,0:0:0:0:
313,186,69186,1,8,0:0:0:0:
161,106,69363,1,2,0:0:0:0:
209,102,69451,1,0,0:0:0:0:
258,99,69539,1,2,0:0:0:0:
15,37,69716,1,0,0:0:0:0:
418,149,69892,2,0,L|408:267,1,98,8|0,0:0|0:0,0:0:0:0:
136,338,70245,6,0,L|361:348,1,196,2|8,0:0|0:0,0:0:0:0:
225,249,70774,1,2,0:0:0:0:
369,143,70951,2,0,L|359:250,1,98,2|0,0:0|0:0,0:0:0:0:
225,249,71304,2,0,L|217:353,1,98,8|0,0:0|0:0,0:0:0:0:
457,116,71657,6,0,L|239:136,1,196,8|8,0:0|0:0,0:0:0:0:
355,31,72186,1,2,0:0:0:0:
237,272,72363,2,0,L|224:163,1,98,2|0,0:0|0:0,0:0:0:0:
392,197,72716,2,0,L|504:187,1,98,4|0,0:0|0:0,0:0:0:0:
93,108,73068,5,2,0:0:0:0:
237,199,73245,2,0,L|257:120,1,49,8|0,0:0|0:0,0:0:0:0:
63,323,73421,2,0,L|52:266,1,49,8|0,0:0|0:0,0:0:0:0:
340,359,73598,2,0,L|389:352,1,49,2|0,0:0|0:0,0:0:0:0:
180,249,73774,6,0,L|180:195,1,49,8|0,0:0|0:0,0:0:0:0:
249,151,73951,2,0,L|192:133,1,49,2|2,0:0|0:0,0:0:0:0:
17,115,74127,2,0,L|18:49,1,49,4|0,0:0|0:0,0:0:0:0:
253,75,74304,2,0,L|307:69,1,49,0|0,0:0|0:0,0:0:0:0:
94,334,74480,6,0,L|92:212,1,98,4|0,0:0|0:0,0:0:0:0:
241,197,74833,1,12,0:0:0:0:
92,153,75010,2,0,L|18:158,2,49,2|0|2,0:0|0:0|0:0,0:0:0:0:
241,197,75363,1,0,0:0:0:0:
480,185,75539,1,8,0:0:0:0:
241,197,75716,6,0,L|449:190,1,196,0|0,0:0|0:0,0:0:0:0:
97,317,76245,1,8,0:0:0:0:
236,243,76421,1,2,0:0:0:0:
230,194,76509,1,0,0:0:0:0:
225,145,76597,1,2,0:0:0:0:
76,98,76774,1,0,0:0:0:0:
335,182,76951,2,0,L|448:174,1,98,8|0,0:0|0:0,0:0:0:0:
147,296,77304,6,0,L|36:303,2,98,4|0|8,0:0|0:0|0:0,0:0:0:0:
297,357,77833,1,2,0:0:0:0:
299,308,77921,1,0,0:0:0:0:
243,263,78009,1,2,0:0:0:0:
96,260,78186,1,0,0:0:0:0:
396,265,78363,1,8,0:0:0:0:
96,260,78539,6,0,P|48:184|120:100,1,196,0|0,0:0|0:0,0:0:0:0:
337,83,79068,2,0,L|446:83,1,98,12|0,0:0|0:0,0:0:0:0:
278,158,79421,2,0,L|172:158,1,98,4|0,0:0|0:0,0:0:0:0:
227,193,79686,1,0,0:0:0:0:
446,276,79774,2,0,L|347:276,1,98,12|0,0:0|0:0,0:0:0:0:
114,340,80127,6,0,L|109:229,1,98,4|0,0:0|0:0,0:0:0:0:
248,191,80480,1,8,0:0:0:0:
97,115,80657,1,2,0:0:0:0:
145,110,80745,1,0,0:0:0:0:
194,106,80833,1,2,0:0:0:0:
453,90,81010,1,0,0:0:0:0:
194,106,81186,2,0,L|206:207,1,98,8|0,0:0|0:0,0:0:0:0:
447,340,81539,6,0,L|249:346,1,196,4|8,0:0|0:0,0:0:0:0:
358,257,82068,1,2,0:0:0:0:
213,231,82245,2,0,L|108:237,1,98,2|0,0:0|0:0,0:0:0:0:
292,157,82598,2,0,L|392:152,1,98,8|0,0:0|0:0,0:0:0:0:
86,229,82951,6,0,P|42:144|114:68,1,196,8|8,0:0|0:0,0:0:0:0:
246,69,83480,1,2,0:0:0:0:
100,71,83657,2,0,L|232:71,1,98,2|0,0:0|0:0,0:0:0:0:
485,146,84010,2,0,L|376:146,1,98,8|0,0:0|0:0,0:0:0:0:
75,143,84363,5,8,0:0:0:0:
377,257,84539,1,0,0:0:0:0:
251,311,84716,2,0,L|194:310,1,49,8|0,0:0|0:0,0:0:0:0:
251,311,84892,2,0,L|306:312,1,49,8|0,0:0|0:0,0:0:0:0:
98,266,85069,5,8,0:0:0:0:
50,228,85157,1,0,0:0:0:0:
53,180,85245,1,0,0:0:0:0:
106,150,85333,1,0,0:0:0:0:
316,141,85421,2,0,L|366:140,1,49,2|0,0:0|0:0,0:0:0:0:
165,61,85598,2,0,L|104:62,1,49,0|0,0:0|0:0,0:0:0:0:
374,41,85774,6,0,B|468:89|468:89|469:214|469:214|352:266|352:266|351:359|351:359|483:359|483:359|482:248,1,686,4|0,0:0|0:0,0:0:0:0:
341,166,87186,2,0,L|139:169,2,196,0|0|0,0:0|0:0|0:0,0:0:0:0:
103,115,88245,1,0,0:0:0:0:
394,196,88598,5,0,0:0:0:0:
