osu file format v14

[General]
AudioFilename: audio.mp3
AudioLeadIn: 0
PreviewTime: 62745
Countdown: 0
SampleSet: Soft
StackLeniency: 0.7
Mode: 2
LetterboxInBreaks: 0
WidescreenStoryboard: 0

[Editor]
Bookmarks: 23657,46245,63186,74480
DistanceSpacing: 1
BeatDivisor: 4
GridSize: 32
TimelineZoom: 1

[Metadata]
Title:Kotoba no Iranai Yakusoku(TV size)
TitleUnicode:言葉のいらない約束(TV size)
Artist:sana
ArtistUnicode:sana
Creator:Ascendance
Version:Fiance's Platter
Source:NARUTO-ナルト-疾風伝
Tags:shippuden shippuuden ending 33 鎖那 honeyworks ed hokage fii -wwwww kaitlin
BeatmapID:1435995
BeatmapSetID:678725

[Difficulty]
HPDrainRate:5
CircleSize:3.5
OverallDifficulty:8
ApproachRate:8
SliderMultiplier:1.46
SliderTickRate:2

[Events]
//Background and Video events
0,0,"bg2.png",0,0
//Break Periods
//Storyboard Layer 0 (Background)
//Storyboard Layer 1 (Fail)
//Storyboard Layer 2 (Pass)
//Storyboard Layer 3 (Foreground)
//Storyboard Sound Samples

[TimingPoints]
1069,352.941176470588,4,2,2,25,1,0
1069,-116.279069767442,4,2,2,25,0,0
6716,-116.279069767442,4,2,2,35,0,0
10951,-116.279069767442,4,2,2,35,0,0
11039,-116.279069767442,4,2,2,25,0,0
11657,-116.279069767442,4,2,2,35,0,0
11745,-116.279069767442,4,2,1,25,0,0
12010,-116.279069767442,4,2,1,60,0,0
12098,-116.279069767442,4,2,1,25,0,0
12363,-116.279069767442,4,2,0,75,0,0
12451,-116.279069767442,4,2,1,60,0,0
13774,-116.279069767442,4,2,0,60,0,0
13863,-116.279069767442,4,2,1,60,0,0
15186,-116.279069767442,4,2,0,60,0,0
15274,-116.279069767442,4,2,1,60,0,0
16598,-116.279069767442,4,2,0,60,0,0
16686,-116.279069767442,4,2,1,60,0,0
18010,-116.279069767442,4,2,0,60,0,0
18098,-116.279069767442,4,2,1,60,0,0
19421,-116.279069767442,4,2,0,40,0,0
19510,-116.279069767442,4,2,1,60,0,0
20833,-116.279069767442,4,2,0,60,0,0
20921,-116.279069767442,4,2,1,60,0,0
22245,-116.279069767442,4,3,0,40,0,0
23657,-100,4,2,2,25,0,0
29304,-100,4,2,2,25,0,0
33539,-100,4,2,2,40,0,0
34951,-100,4,2,1,40,0,0
44833,-100,4,2,3,40,0,0
44921,-100,4,2,1,40,0,0
45539,-100,4,2,1,40,0,0
46245,-116.279069767442,4,2,0,40,0,0
46333,-116.279069767442,4,2,1,40,0,0
49068,-116.279069767442,4,2,0,40,0,0
49157,-116.279069767442,4,2,1,40,0,0
51892,-116.279069767442,4,2,0,40,0,0
51980,-116.279069767442,4,2,1,40,0,0
54716,-116.279069767442,4,2,0,40,0,0
54804,-116.279069767442,4,2,1,40,0,0
56127,-116.279069767442,4,2,0,40,0,0
56216,-116.279069767442,4,2,1,40,0,0
56833,-116.279069767442,4,2,1,40,0,0
57010,-116.279069767442,4,3,1,40,0,0
57539,-116.279069767442,4,2,1,25,0,0
60363,-116.279069767442,4,2,1,25,0,0
60451,-116.279069767442,4,2,1,25,0,0
61598,-116.279069767442,4,2,1,50,0,0
62833,-116.279069767442,4,2,1,25,0,0
63186,-100,4,2,0,65,0,1
63274,-100,4,2,69,65,0,1
66010,-100,4,2,3,40,0,1
66098,-100,4,2,69,65,0,1
68480,-100,4,2,69,45,0,1
68833,-100,4,2,0,65,0,1
69186,-100,4,2,69,65,0,1
71657,-100,4,2,3,30,0,1
71745,-100,4,2,69,65,0,1
72716,-100,4,2,1,45,0,1
72804,-100,4,2,69,65,0,1
73421,-100,4,2,1,65,0,1
74127,-100,4,2,0,65,0,1
74216,-100,4,2,69,65,0,1
74480,-100,4,2,0,65,0,1
74568,-100,4,2,1,45,0,1
75010,-100,4,2,69,65,0,1
77304,-100,4,2,0,65,0,1
77392,-100,4,2,69,65,0,1
79774,-100,4,2,69,45,0,1
80127,-100,4,2,0,65,0,1
80216,-100,4,2,69,65,0,1
82951,-100,4,2,3,30,0,1
83039,-100,4,2,69,65,0,1
85774,-100,4,2,0,65,0,0
87186,-100,4,2,2,25,0,0

[Colours]
Combo1 : 250,197,81
Combo2 : 194,106,45
Combo3 : 254,231,172
Combo4 : 255,140,102

[HitObjects]
424,336,1069,6,0,P|448:296|360:200,1,188.34000287384,0|0,0:0|0:0,0:0:0:0:
248,216,1774,2,0,L|232:136,1,62.7800009579468,0|0,0:0|0:0,0:0:0:0:
344,48,2127,2,0,L|360:128,1,62.7800009579468,8|0,0:0|0:0,0:0:0:0:
192,56,2480,6,0,L|392:24,1,188.34000287384,0|0,0:0|0:0,0:0:0:0:
256,360,3186,2,0,L|182:348,1,62.7800009579468,0|0,0:0|0:0,0:0:0:0:
312,280,3539,2,0,L|238:268,1,62.7800009579468,8|0,0:0|0:0,0:0:0:0:
80,248,3892,6,0,P|56:208|144:112,1,188.34000287384,0|0,0:0|0:0,0:0:0:0:
256,208,4598,2,0,L|272:128,1,62.7800009579468,0|0,0:0|0:0,0:0:0:0:
160,40,4951,2,0,L|144:120,1,62.7800009579468,8|0,0:0|0:0,0:0:0:0:
312,360,5304,6,0,P|336:320|248:224,1,188.34000287384,0|0,0:0|0:0,0:0:0:0:
107,176,6010,2,0,P|83:136|128:64,1,125.560001915894
192,32,6539,1,0,0:0:0:0:
448,40,6716,6,0,P|472:80|384:176,1,188.34000287384,0|0,0:0|0:0,0:0:0:0:
272,344,7421,2,0,L|346:332,1,62.7800009579468,0|0,0:0|0:0,0:0:0:0:
216,264,7774,2,0,L|290:252,1,62.7800009579468,8|0,0:0|0:0,0:0:0:0:
160,184,8127,6,0,L|289:163,1,125.560001915894
344,154,8657,1,0,0:0:0:0:
232,352,8833,2,0,L|216:272,1,62.7800009579468,0|0,0:0|0:0,0:0:0:0:
328,184,9186,2,0,L|344:264,1,62.7800009579468,8|0,0:0|0:0,0:0:0:0:
212,112,9539,6,0,P|188:152|276:248,1,188.34000287384
396,64,10245,2,0,L|262:42,1,125.560001915894,0|8,0:0|0:0,0:0:0:0:
468,0,10951,1,0,0:0:0:0:
28,352,12363,6,0,L|141:333,1,94.1700014369202,4|0,0:0|0:0,0:0:0:0:
188,264,12716,2,0,L|172:192,1,62.7800009579468,2|0,0:0|0:0,0:0:0:0:
36,176,13068,2,0,P|28:128|68:80,1,94.1700014369202,2|0,0:0|0:0,0:0:0:0:
108,40,13421,1,2,0:0:0:0:
180,24,13598,1,8,0:0:0:0:
336,368,13774,6,0,L|449:349,1,94.1700014369202,4|0,0:0|0:0,0:0:0:0:
496,280,14127,2,0,L|414:266,1,62.7800009579468,2|0,0:0|0:0,0:0:0:0:
304,232,14480,2,0,L|191:213,1,94.1700014369202,2|0,0:0|0:0,0:0:0:0:
144,144,14833,1,2,0:0:0:0:
216,128,15010,1,8,0:0:0:0:
480,176,15186,6,0,P|488:128|448:80,1,94.1700014369202,4|0,0:0|0:0,0:0:0:0:
408,40,15539,2,0,L|326:26,1,62.7800009579468,2|0,0:0|0:0,0:0:0:0:
206,330,15892,2,0,L|319:311,1,94.1700014369202,2|0,0:0|0:0,0:0:0:0:
366,242,16245,1,2,0:0:0:0:
303,231,16421,1,8,0:0:0:0:
168,208,16598,6,0,L|86:194,2,62.7800009579468,4|0|2,0:0|0:0|0:0,0:0:0:0:
240,144,17039,1,0,0:0:0:0:
416,368,17304,2,0,L|303:387,1,94.1700014369202,2|0,0:0|0:0,0:0:0:0:
256,280,17657,1,2,0:0:0:0:
318,269,17833,1,8,0:0:0:0:
64,288,18010,6,0,P|56:240|96:192,1,94.1700014369202,4|0,0:0|0:0,0:0:0:0:
136,152,18363,2,0,L|218:138,1,62.7800009579468,2|0,0:0|0:0,0:0:0:0:
336,168,18716,2,0,P|344:120|304:72,1,94.1700014369202,2|0,0:0|0:0,0:0:0:0:
264,32,19068,1,2,0:0:0:0:
200,16,19245,1,8,0:0:0:0:
56,320,19421,6,0,L|169:301,1,94.1700014369202,4|0,0:0|0:0,0:0:0:0:
216,232,19774,2,0,L|200:160,1,62.7800009579468,2|0,0:0|0:0,0:0:0:0:
64,168,20127,2,0,P|56:120|96:72,1,94.1700014369202,2|0,0:0|0:0,0:0:0:0:
136,32,20480,1,2,0:0:0:0:
200,16,20657,1,8,0:0:0:0:
464,352,20833,6,0,P|480:304|352:168,1,251.120003831787,4|2,0:0|0:0,0:0:0:0:
240,232,21804,1,0,0:0:0:0:
176,184,21892,2,0,L|192:112,1,62.7800009579468,2|8,0:0|0:0,0:0:0:0:
448,168,22245,6,0,P|464:272|352:168,1,376.680005747681,4|4,0:0|0:0,0:0:0:0:
448,168,23480,1,0,0:0:0:0:
277,120,23657,6,0,P|217:149|60:113,1,219,0|0,0:0|0:0,0:0:0:0:
214,176,24363,2,0,L|207:265,1,73
86,267,24716,2,0,L|75:352,1,73,8|0,0:0|0:0,0:0:0:0:
259,314,25068,6,0,P|360:289|475:332,1,219,0|0,0:0|0:0,0:0:0:0:
351,270,25774,2,0,L|340:185,1,73,0|0,0:0|0:0,0:0:0:0:
473,177,26127,2,0,L|490:93,1,73,8|0,0:0|0:0,0:0:0:0:
340,30,26480,6,0,L|175:37,2,146,0|8|0,0:0|0:0|0:0,0:0:0:0:
138,166,27539,2,0,L|130:88,1,73,8|0,0:0|0:0,0:0:0:0:
246,116,27892,2,0,L|411:104,1,146,0|8,0:0|0:0,0:0:0:0:
237,216,28598,2,0,L|81:222,1,146,0|8,0:0|0:0,0:0:0:0:
170,287,29127,1,0,0:0:0:0:
361,348,29304,6,0,P|396:285|346:216,1,146,0|8,0:0|0:0,0:0:0:0:
254,214,29833,1,0,0:0:0:0:
146,211,30010,1,0,0:0:0:0:
369,153,30363,1,8,0:0:0:0:
178,80,30716,6,0,L|184:245,1,146,0|8,0:0|0:0,0:0:0:0:
372,305,31421,2,0,L|217:318,1,146,0|8,0:0|0:0,0:0:0:0:
110,264,31951,1,0,0:0:0:0:
278,248,32127,6,0,P|328:157|240:60,1,219,0|0,0:0|0:0,0:0:0:0:
157,54,32833,2,0,L|78:54,1,73,0|0,0:0|0:0,0:0:0:0:
192,145,33186,2,0,L|103:145,1,73,8|0,0:0|0:0,0:0:0:0:
377,213,33539,6,0,L|466:212,2,73,2|0|0,0:0|0:0|0:0,0:0:0:0:
248,216,34068,2,0,L|171:216,2,73,2|0|0,0:0|0:0|0:0,0:0:0:0:
430,355,34598,2,0,L|442:269,1,73,0|0,0:0|0:0,0:0:0:0:
183,284,34951,5,2,0:0:0:0:
75,214,35127,2,0,L|19:219,2,36.5,2|0|8,0:0|0:0|0:0,0:0:0:0:
183,284,35480,1,0,0:0:0:0:
361,364,35657,2,0,L|371:194,1,146,2|8,0:0|0:0,0:0:0:0:
221,169,36186,1,0,0:0:0:0:
419,160,36363,5,2,0:0:0:0:
295,160,36539,1,2,0:0:0:0:
265,197,36627,1,0,0:0:0:0:
297,232,36715,1,8,0:0:0:0:
419,160,36892,1,0,0:0:0:0:
320,159,37068,1,2,0:0:0:0:
76,128,37245,2,0,L|-6:124,2,73,8|8|0,0:0|0:0|0:0,0:0:0:0:
344,336,37774,6,0,L|351:230,1,73,2|0,0:0|0:0,0:0:0:0:
314,248,38039,1,0,0:0:0:0:
278,239,38127,1,8,0:0:0:0:
140,217,38304,1,0,0:0:0:0:
278,239,38480,2,0,L|291:160,1,73,2|0,0:0|0:0,0:0:0:0:
158,124,38833,2,0,L|71:108,1,73,8|0,0:0|0:0,0:0:0:0:
353,327,39186,6,0,P|389:268|348:208,1,146,2|8,0:0|0:0,0:0:0:0:
221,199,39716,1,0,0:0:0:0:
341,201,39892,1,0,0:0:0:0:
181,199,40068,2,0,L|100:200,2,73,8|8|0,0:0|0:0|0:0,0:0:0:0:
439,320,40598,6,0,P|496:242|424:149,1,219,2|0,0:0|0:0,0:0:0:0:
330,210,41304,2,0,L|321:120,1,73,2|0,0:0|0:0,0:0:0:0:
443,65,41657,2,0,L|349:41,1,73,8|0,0:0|0:0,0:0:0:0:
122,78,42010,6,0,L|40:63,1,73,2|0,0:0|0:0,0:0:0:0:
157,176,42363,2,0,L|236:165,1,73,8|0,0:0|0:0,0:0:0:0:
337,149,42716,1,2,0:0:0:0:
180,158,42892,2,0,L|97:156,1,73,8|8,0:0|0:0,0:0:0:0:
180,158,43245,1,0,0:0:0:0:
458,283,43421,6,0,P|506:214|432:110,1,219,0|0,0:0|0:0,0:0:0:0:
301,101,44127,2,0,L|216:101,1,73,2|0,0:0|0:0,0:0:0:0:
301,101,44480,2,0,L|386:101,1,73,8|0,0:0|0:0,0:0:0:0:
61,55,44833,5,8,0:0:0:0:
177,125,45010,2,0,L|185:167,2,36.5,2|0|8,0:0|0:0|0:0,0:0:0:0:
44,212,45363,2,0,L|33:253,2,36.5,2|0|2,0:0|0:0|0:0,0:0:0:0:
166,307,45716,2,0,L|265:301,2,73,0|2|0,0:0|0:0|0:0,0:0:0:0:
464,376,46245,6,0,P|488:328|392:240,1,188.34000287384,4|0,0:0|0:0,0:0:0:0:
296,272,46951,1,8,0:0:0:0:
160,48,47480,1,0,0:0:0:0:
312,16,47657,5,2,0:0:0:0:
348,72,47833,1,8,0:0:0:0:
347,134,48010,1,0,0:0:0:0:
310,188,48186,1,0,0:0:0:0:
200,368,48363,1,8,0:0:0:0:
160,312,48539,1,0,0:0:0:0:
161,250,48716,1,2,0:0:0:0:
201,195,48892,1,8,0:0:0:0:
448,224,49068,6,0,P|472:256|376:344,1,188.34000287384,4|0,0:0|0:0,0:0:0:0:
264,328,49774,1,8,0:0:0:0:
72,288,50304,1,0,0:0:0:0:
200,256,50480,6,0,L|208:176,1,62.7800009579468,2|8,0:0|0:0,0:0:0:0:
88,128,50833,2,0,L|80:48,1,62.7800009579468,2|0,0:0|0:0,0:0:0:0:
200,256,51186,1,8,0:0:0:0:
304,224,51363,1,0,0:0:0:0:
200,256,51539,1,2,0:0:0:0:
304,224,51716,1,0,0:0:0:0:
48,376,51892,6,0,P|24:328|120:240,1,188.34000287384,4|0,0:0|0:0,0:0:0:0:
216,272,52598,1,8,0:0:0:0:
343,327,52863,1,0,0:0:0:0:
391,343,52951,2,0,L|302:361,1,62.7800009579468,2|0,0:0|0:0,0:0:0:0:
184,248,53304,5,2,0:0:0:0:
168,188,53480,1,8,0:0:0:0:
192,131,53657,1,2,0:0:0:0:
246,100,53833,1,0,0:0:0:0:
392,232,54010,2,0,L|464:224,1,62.7800009579468,8|0,0:0|0:0,0:0:0:0:
392,232,54363,2,0,L|320:224,1,62.7800009579468,0|0,0:0|0:0,0:0:0:0:
64,224,54716,6,0,P|40:256|136:344,1,188.34000287384,4|0,0:0|0:0,0:0:0:0:
264,328,55421,1,8,0:0:0:0:
418,319,55951,1,8,0:0:0:0:
266,280,56127,5,4,0:0:0:0:
242,192,56304,1,0,0:0:0:0:
282,112,56480,1,0,0:0:0:0:
370,80,56657,1,0,0:0:0:0:
242,384,56833,5,0,0:0:0:0:
330,368,57010,1,4,0:0:0:0:
418,352,57186,1,4,0:0:0:0:
88,24,57539,6,0,P|24:136|208:240,1,376.680005747681,0|0,0:0|0:0,0:0:0:0:
324,208,58951,6,0,P|252:72|204:224,1,376.680005747681,0|0,0:0|0:0,0:0:0:0:
314,245,60363,6,0,P|475:187|424:24,1,376.680005747681,0|0,0:0|0:0,0:0:0:0:
288,72,61774,6,0,L|266:148,1,62.7800009579468,8|8,0:0|0:0,0:0:0:0:
56,208,62480,1,8,0:0:0:0:
26,261,62657,1,8,0:0:0:0:
43,320,62833,5,0,0:0:0:0:
96,351,63010,1,0,0:0:0:0:
408,363,63186,6,0,L|450:212,1,146,4|8,0:0|0:0,0:0:0:0:
300,267,63716,1,2,0:0:0:0:
436,220,63892,2,0,L|536:230,2,73,2|0|8,0:0|0:0|0:0,0:0:0:0:
235,140,64421,6,0,L|63:147,1,146,0|0,0:0|0:0,0:0:0:0:
204,231,64951,1,8,0:0:0:0:
96,331,65127,2,0,L|96:240,1,73,2|2,0:0|0:0,0:0:0:0:
204,231,65480,1,0,0:0:0:0:
339,222,65657,1,8,0:0:0:0:
80,67,65833,6,0,P|10:145|89:235,1,219,0|8,0:0|0:0,0:0:0:0:
183,235,66539,1,2,0:0:0:0:
318,237,66716,2,0,L|404:237,2,73,2|0|8,0:0|0:0|0:0,0:0:0:0:
162,138,67245,6,0,L|338:138,1,146,0|0,0:0|0:0,0:0:0:0:
211,290,67774,2,0,L|201:209,1,73,12|2,0:0|0:0,0:0:0:0:
316,228,68127,2,0,L|395:222,1,73,8|0,0:0|0:0,0:0:0:0:
219,151,68480,1,8,0:0:0:0:
467,241,68833,5,4,0:0:0:0:
311,324,69186,2,0,L|208:331,1,73,8|2,0:0|0:0,0:0:0:0:
320,241,69539,2,0,L|413:236,1,73,2|0,0:0|0:0,0:0:0:0:
220,178,69892,1,8,0:0:0:0:
434,174,70245,5,2,0:0:0:0:
251,178,70598,1,8,0:0:0:0:
103,236,70951,2,0,L|109:319,1,73,2|0,0:0|0:0,0:0:0:0:
222,293,71304,2,0,L|229:372,1,73,8|0,0:0|0:0,0:0:0:0:
396,204,71657,6,0,L|218:216,1,146,8|8,0:0|0:0,0:0:0:0:
436,346,72363,2,0,L|456:197,1,146,2|4,0:0|0:0,0:0:0:0:
333,153,72892,1,0,0:0:0:0:
91,189,73068,5,2,0:0:0:0:
203,253,73245,2,0,L|255:251,2,36.5,8|0|8,0:0|0:0|0:0,0:0:0:0:
50,348,73598,1,2,0:0:0:0:
25,321,73686,1,0,0:0:0:0:
18,285,73774,1,8,0:0:0:0:
30,251,73862,1,0,0:0:0:0:
57,228,73950,1,2,0:0:0:0:
221,225,74127,1,4,0:0:0:0:
119,227,74304,1,0,0:0:0:0:
416,368,74480,6,0,P|432:320|352:248,1,146,4|12,0:0|0:0,0:0:0:0:
264,232,75010,2,0,L|168:216,2,73,2|2|0,0:0|0:0|0:0,0:0:0:0:
368,144,75539,2,0,L|464:128,1,73,8|0,0:0|0:0,0:0:0:0:
152,216,75892,6,0,P|136:168|216:96,1,146,0|8,0:0|0:0,0:0:0:0:
288,80,76421,1,2,0:0:0:0:
184,344,76598,2,0,L|352:328,1,146,2|8,0:0|0:0,0:0:0:0:
208,312,77127,1,0,0:0:0:0:
472,208,77304,6,0,P|488:160|408:88,1,146,4|8,0:0|0:0,0:0:0:0:
336,72,77833,1,2,0:0:0:0:
208,112,78010,2,0,L|192:192,1,73,2|0,0:0|0:0,0:0:0:0:
315,258,78363,2,0,L|331:338,1,73,8|0,0:0|0:0,0:0:0:0:
40,208,78716,6,0,P|24:160|104:88,1,146,0|12,0:0|0:0,0:0:0:0:
320,344,79421,1,4,0:0:0:0:
200,344,79598,1,0,0:0:0:0:
320,344,79774,1,12,0:0:0:0:
72,240,80127,6,0,L|240:224,1,146,4|8,0:0|0:0,0:0:0:0:
112,152,80657,2,0,L|96:72,1,73,2|2,0:0|0:0,0:0:0:0:
216,360,81010,2,0,L|120:344,1,73,0|8,0:0|0:0,0:0:0:0:
70,334,81363,1,0,0:0:0:0:
320,112,81539,6,0,L|488:96,1,146,4|8,0:0|0:0,0:0:0:0:
344,80,82068,1,2,0:0:0:0:
224,256,82245,2,0,L|320:240,1,73,2|0,0:0|0:0,0:0:0:0:
400,344,82598,2,0,L|304:328,1,73,8|0,0:0|0:0,0:0:0:0:
80,304,82951,6,0,P|48:240|88:176,1,146,8|8,0:0|0:0,0:0:0:0:
328,300,83657,2,0,P|360:236|320:172,1,146,2|8,0:0|0:0,0:0:0:0:
80,304,84363,5,8,0:0:0:0:
48,241,84539,1,0,0:0:0:0:
79,178,84715,1,8,0:0:0:0:
149,167,84892,1,8,0:0:0:0:
391,236,85068,5,8,0:0:0:0:
423,173,85244,1,0,0:0:0:0:
392,110,85420,1,2,0:0:0:0:
322,99,85597,1,8,0:0:0:0:
78,73,85774,5,4,0:0:0:0:
256,192,86127,12,0,88598,0:0:0:0:
