osu file format v14

[General]
AudioFilename: audio.mp3
AudioLeadIn: 0
PreviewTime: 62745
Countdown: 0
SampleSet: Soft
StackLeniency: 0.7
Mode: 2
LetterboxInBreaks: 0
WidescreenStoryboard: 0

[Editor]
Bookmarks: 23657,46245,63186,74480
DistanceSpacing: 1
BeatDivisor: 4
GridSize: 32
TimelineZoom: 1

[Metadata]
Title:Kotoba no Iranai Yakusoku(TV size)
TitleUnicode:言葉のいらない約束(TV size)
Artist:sana
ArtistUnicode:sana
Creator:Ascendance
Version:Cup
Source:NARUTO-ナルト-疾風伝
Tags:shippuden shippuuden ending 33 鎖那 honeyworks ed hokage fii -wwwww kaitlin
BeatmapID:1436239
BeatmapSetID:678725

[Difficulty]
HPDrainRate:3
CircleSize:2.5
OverallDifficulty:6
ApproachRate:6
SliderMultiplier:1.06
SliderTickRate:2

[Events]
//Background and Video events
0,0,"bg2.png",0,0
//Break Periods
//Storyboard Layer 0 (Background)
//Storyboard Layer 1 (Fail)
//Storyboard Layer 2 (Pass)
//Storyboard Layer 3 (Foreground)
//Storyboard Sound Samples

[TimingPoints]
1069,352.941176470588,4,2,2,25,1,0
1069,-100,4,2,2,25,0,0
6716,-100,4,2,2,35,0,0
10951,-100,4,2,2,35,0,0
11039,-100,4,2,2,25,0,0
11657,-100,4,2,2,35,0,0
11745,-100,4,2,1,25,0,0
12010,-100,4,2,1,60,0,0
12098,-100,4,2,1,25,0,0
12363,-100,4,2,0,75,0,0
12451,-100,4,2,1,60,0,0
13774,-100,4,2,0,60,0,0
13863,-100,4,2,1,60,0,0
15186,-100,4,2,0,60,0,0
15274,-100,4,2,1,60,0,0
16598,-100,4,2,0,60,0,0
16686,-100,4,2,1,60,0,0
18010,-100,4,2,0,60,0,0
18098,-100,4,2,1,60,0,0
19421,-100,4,2,0,40,0,0
19510,-100,4,2,1,60,0,0
20833,-100,4,2,0,60,0,0
20921,-100,4,2,1,60,0,0
22245,-100,4,3,0,40,0,0
23657,-100,4,2,2,25,0,0
29304,-100,4,2,2,25,0,0
33539,-100,4,2,2,40,0,0
34951,-100,4,2,1,40,0,0
44833,-100,4,2,3,40,0,0
44921,-100,4,2,1,40,0,0
45539,-100,4,2,1,40,0,0
46245,-100,4,2,0,40,0,0
46333,-100,4,2,1,40,0,0
49068,-100,4,2,0,40,0,0
49157,-100,4,2,1,40,0,0
51892,-100,4,2,0,40,0,0
51980,-100,4,2,1,40,0,0
54716,-100,4,2,0,40,0,0
54804,-100,4,2,1,40,0,0
56127,-100,4,2,0,40,0,0
56216,-100,4,2,1,40,0,0
56833,-100,4,2,1,40,0,0
57010,-100,4,3,1,40,0,0
57539,-100,4,2,1,25,0,0
60363,-100,4,2,1,25,0,0
60451,-100,4,2,1,25,0,0
61598,-100,4,2,1,50,0,0
62833,-100,4,2,1,25,0,0
63186,-100,4,2,0,65,0,1
63274,-100,4,2,69,65,0,1
66010,-100,4,2,3,40,0,1
66098,-100,4,2,69,65,0,1
68480,-100,4,2,69,45,0,1
68833,-100,4,2,0,65,0,1
69186,-100,4,2,69,65,0,1
71657,-100,4,2,3,30,0,1
71745,-100,4,2,69,65,0,1
72716,-100,4,2,1,45,0,1
72804,-100,4,2,69,65,0,1
73421,-100,4,2,1,65,0,1
74127,-100,4,2,0,65,0,1
74216,-100,4,2,69,65,0,1
74480,-100,4,2,0,65,0,1
74568,-100,4,2,1,45,0,1
75010,-100,4,2,69,65,0,1
77304,-100,4,2,0,65,0,1
77392,-100,4,2,69,65,0,1
79774,-100,4,2,69,45,0,1
80127,-100,4,2,0,65,0,1
80216,-100,4,2,69,65,0,1
82951,-100,4,2,3,30,0,1
83039,-100,4,2,69,65,0,1
85774,-100,4,2,0,65,0,0
87186,-100,4,2,2,25,0,0

[Colours]
Combo1 : 250,197,81
Combo2 : 194,106,45
Combo3 : 254,231,172
Combo4 : 255,140,102

[HitObjects]
52,104,1069,6,0,P|136:135|268:97,2,212,0|0|0,0:0|0:0|0:0,0:0:0:0:
357,53,3186,1,0,0:0:0:0:
153,327,3892,6,0,P|79:238|201:88,1,318,0|8,0:0|0:0,0:0:0:0:
281,70,5304,2,0,L|400:77,1,106,0|8,0:0|0:0,0:0:0:0:
280,69,6010,2,0,L|154:77,1,106,0|8,0:0|0:0,0:0:0:0:
359,131,6716,6,0,P|422:207|355:288,1,212,0|0,0:0|0:0,0:0:0:0:
258,294,7774,2,0,L|148:294,2,106,8|0|8,0:0|0:0|0:0,0:0:0:0:
352,343,8833,2,0,L|371:228,1,106,0|8,0:0|0:0,0:0:0:0:
256,192,9539,12,0,10951,0:0:0:0:
116,326,12363,6,0,P|66:243|140:160,1,212,4|2,0:0|0:0,0:0:0:0:
235,160,13421,1,2,0:0:0:0:
385,251,13774,2,0,P|444:166|380:92,1,212,4|2,0:0|0:0,0:0:0:0:
292,66,14833,1,2,0:0:0:0:
191,61,15186,6,0,P|95:102|-9:57,2,212,4|2|4,0:0|0:0|0:0,0:0:0:0:
400,130,17304,2,0,L|390:243,1,106,2|2,0:0|0:0,0:0:0:0:
250,286,18010,6,0,P|147:319|39:286,1,212,4|2,0:0|0:0,0:0:0:0:
150,260,19068,1,2,0:0:0:0:
255,254,19421,2,0,P|313:175|244:87,1,212,4|2,0:0|0:0,0:0:0:0:
150,88,20480,1,2,0:0:0:0:
256,90,20833,6,0,P|359:120|461:84,2,212,4|2|4,0:0|0:0|0:0,0:0:0:0:
50,143,22951,2,0,L|58:271,1,106,4|4,0:0|0:0,0:0:0:0:
151,297,23657,6,0,P|243:273|364:303,2,212,0|0|0,0:0|0:0|0:0,0:0:0:0:
360,329,25774,2,0,L|374:223,1,106,0|8,0:0|0:0,0:0:0:0:
269,244,26480,6,0,P|181:136|286:24,1,318,0|8,0:0|0:0,0:0:0:0:
390,29,27892,2,0,L|175:5,1,212,0|0,0:0|0:0,0:0:0:0:
78,38,28951,1,8,0:0:0:0:
249,94,29304,5,0,0:0:0:0:
455,143,30010,2,0,L|452:254,1,106,0|8,0:0|0:0,0:0:0:0:
349,277,30716,6,0,L|226:285,2,106,0|8|0,0:0|0:0|0:0,0:0:0:0:
454,268,31774,1,8,0:0:0:0:
349,287,32127,2,0,L|121:274,1,212,0|0,0:0|0:0,0:0:0:0:
242,258,33186,1,8,0:0:0:0:
346,241,33539,2,0,L|514:260,2,159,2|2|0,0:0|0:0|0:0,0:0:0:0:
186,344,34951,6,0,P|133:264|209:178,1,212,2|2,0:0|0:0,0:0:0:0:
300,175,36010,1,8,0:0:0:0:
194,179,36363,2,0,L|71:176,1,106,2|8,0:0|0:0,0:0:0:0:
193,179,37068,2,0,L|314:177,1,106,2|8,0:0|0:0,0:0:0:0:
430,101,37774,6,0,P|493:177|420:261,1,212,2|2,0:0|0:0,0:0:0:0:
331,273,38833,1,8,0:0:0:0:
225,270,39186,2,0,L|106:269,1,106,2|8,0:0|0:0,0:0:0:0:
260,273,39892,2,0,L|276:161,1,106,0|8,0:0|0:0,0:0:0:0:
105,88,40598,6,0,L|320:93,1,212,2|2,0:0|0:0,0:0:0:0:
423,97,41657,1,8,0:0:0:0:
294,166,42010,2,0,L|303:277,1,106,2|8,0:0|0:0,0:0:0:0:
451,271,42716,2,0,L|437:393,1,106,2|8,0:0|0:0,0:0:0:0:
271,300,43421,6,0,P|193:285|67:321,2,212,0|2|8,0:0|0:0|0:0,0:0:0:0:
377,303,45186,1,8,0:0:0:0:
238,302,45539,2,0,L|248:182,1,106,2|2,0:0|0:0,0:0:0:0:
424,230,46245,6,0,P|515:120|399:8,1,318,4|2,0:0|0:0,0:0:0:0:
262,58,47657,2,0,P|155:94|59:54,1,212,2|8,0:0|0:0,0:0:0:0:
169,104,48716,1,2,0:0:0:0:
308,148,49068,6,0,P|410:256|299:368,1,318,4|2,0:0|0:0,0:0:0:0:
191,349,50480,2,0,L|73:353,2,106,2|2|8,0:0|0:0|0:0,0:0:0:0:
332,339,51539,1,2,0:0:0:0:
182,292,51892,6,0,P|102:166|222:62,1,318,4|2,0:0|0:0,0:0:0:0:
331,38,53304,2,0,P|384:50|453:46,2,106,2|2|8,0:0|0:0|0:0,0:0:0:0:
196,72,54363,1,0,0:0:0:0:
358,120,54716,6,0,P|455:232|356:356,1,318,4|2,0:0|0:0,0:0:0:0:
184,363,56127,2,0,L|172:257,1,106,4|0,0:0|0:0,0:0:0:0:
365,248,56833,2,0,L|379:138,1,106,2|4,0:0|0:0,0:0:0:0:
214,91,57539,5,0,0:0:0:0:
394,191,58245,2,0,L|180:192,2,212
80,238,60363,5,0,0:0:0:0:
131,201,61774,6,0,L|113:128,1,53,8|8,0:0|0:0,0:0:0:0:
332,292,62480,2,0,L|401:302,2,53,8|8|0,0:0|0:0|0:0,0:0:0:0:
142,342,63186,6,0,L|136:214,1,106,4|8,0:0|0:0,0:0:0:0:
265,238,63892,2,0,L|374:235,1,106,2|8,0:0|0:0,0:0:0:0:
237,167,64598,2,0,L|125:171,1,106,0|8,0:0|0:0,0:0:0:0:
309,233,65304,2,0,L|324:117,1,106,2|8,0:0|0:0,0:0:0:0:
165,51,66010,6,0,L|383:62,1,212,0|2,0:0|0:0,0:0:0:0:
241,137,67068,1,8,0:0:0:0:
393,165,67421,2,0,L|391:273,1,106,0|12,0:0|0:0,0:0:0:0:
245,321,68127,2,0,L|126:325,1,106,8|8,0:0|0:0,0:0:0:0:
312,334,68833,6,0,P|368:252|294:167,1,212,4|2,0:0|0:0,0:0:0:0:
171,166,69892,1,8,0:0:0:0:
315,169,70245,2,0,L|97:169,1,212,2|2,0:0|0:0,0:0:0:0:
229,119,71304,1,8,0:0:0:0:
400,54,71657,6,0,L|179:56,2,212,8|2|2,0:0|0:0|0:0,0:0:0:0:
261,128,73421,1,8,0:0:0:0:
415,183,73774,2,0,L|407:288,1,106,8|4,0:0|0:0,0:0:0:0:
244,270,74480,6,0,L|124:273,1,106,4|12,0:0|0:0,0:0:0:0:
239,232,75186,2,0,L|352:231,1,106,2|8,0:0|0:0,0:0:0:0:
497,217,75892,2,0,L|509:99,1,106,0|8,0:0|0:0,0:0:0:0:
354,139,76598,1,2,0:0:0:0:
507,111,76951,1,8,0:0:0:0:
331,138,77304,6,0,P|227:112|104:143,1,212,4|2,0:0|0:0,0:0:0:0:
267,87,78363,1,8,0:0:0:0:
107,53,78716,2,0,L|-14:59,2,106,0|12|4,0:0|0:0|0:0,0:0:0:0:
256,49,79774,1,12,0:0:0:0:
97,94,80127,6,0,P|51:187|96:283,1,212,4|2,0:0|0:0,0:0:0:0:
224,191,81186,1,8,0:0:0:0:
368,307,81539,2,0,L|149:310,1,212,4|2,0:0|0:0,0:0:0:0:
264,258,82598,1,8,0:0:0:0:
421,335,82951,6,0,P|475:256|406:171,1,212,8|2,0:0|0:0,0:0:0:0:
292,161,84010,1,8,0:0:0:0:
166,165,84363,2,0,L|39:171,2,106,8|8|8,0:0|0:0|0:0,0:0:0:0:
289,159,85421,1,2,0:0:0:0:
132,108,85774,5,4,0:0:0:0:
256,192,86127,12,0,88598,0:0:0:0:
