osu file format v14

[General]
AudioFilename: audio.mp3
AudioLeadIn: 0
PreviewTime: 62831
Countdown: 0
SampleSet: Soft
StackLeniency: 0.7
Mode: 3
LetterboxInBreaks: 0
SpecialStyle: 0
WidescreenStoryboard: 1

[Editor]
DistanceSpacing: 1.6
BeatDivisor: 8
GridSize: 4
TimelineZoom: 1.2

[Metadata]
Title:Kotoba no Iranai Yakusoku(TV size)
TitleUnicode:言葉のいらない約束 (TV size)
Artist:sana
ArtistUnicode:鎖那
Creator:- Ly0572 -
Version:NM
Source:NARUTO-ナルト- 疾風伝
Tags:AlisceaSparku Naruto Shippuuden 鎖那 honeyworks A Promise That Doesn't Need Words Madara Uchiha Hashirama Senju Obito Akatsuki Zukuyo Kyuubi Nine 9 Ten 10 Tails ending ED 33
BeatmapID:1462450
BeatmapSetID:691012

[Difficulty]
HPDrainRate:7
CircleSize:4
OverallDifficulty:7
ApproachRate:5
SliderMultiplier:1.4
SliderTickRate:1

[Events]
//Background and Video events
Video,-200,"kotobavid.flv"
0,0,"narutobg 2.jpg",0,0
//Break Periods
//Storyboard Layer 0 (Background)
//Storyboard Layer 1 (Fail)
//Storyboard Layer 2 (Pass)
//Storyboard Layer 3 (Foreground)
//Storyboard Sound Samples

[TimingPoints]
1067,352.941176470588,4,2,1,70,1,0
63184,-100,4,2,1,90,0,1
85772,-100,4,2,1,70,0,0

[HitObjects]
448,192,1067,5,0,0:0:0:0:
192,192,1419,1,0,0:0:0:0:
320,192,1596,1,0,0:0:0:0:
64,192,1949,1,0,0:0:0:0:
192,192,2125,1,0,0:0:0:0:
320,192,2302,1,0,0:0:0:0:
64,192,2478,1,0,0:0:0:0:
320,192,2831,1,0,0:0:0:0:
192,192,3008,1,0,0:0:0:0:
448,192,3361,1,0,0:0:0:0:
320,192,3537,1,0,0:0:0:0:
192,192,3714,1,0,0:0:0:0:
448,192,3890,1,0,0:0:0:0:
64,192,4243,1,0,0:0:0:0:
192,192,4419,1,0,0:0:0:0:
320,192,4772,1,0,0:0:0:0:
448,192,4949,1,0,0:0:0:0:
64,192,5125,1,0,0:0:0:0:
192,192,5302,1,0,0:0:0:0:
448,192,5655,1,0,0:0:0:0:
320,192,5831,1,0,0:0:0:0:
192,192,6184,1,0,0:0:0:0:
64,192,6361,1,0,0:0:0:0:
448,192,6537,1,0,0:0:0:0:
320,192,6714,1,0,0:0:0:0:
192,192,7066,1,0,0:0:0:0:
64,192,7243,1,0,0:0:0:0:
448,192,7596,1,0,0:0:0:0:
192,192,7772,1,0,0:0:0:0:
320,192,7949,1,0,0:0:0:0:
64,192,8125,1,0,0:0:0:0:
192,192,8478,1,0,0:0:0:0:
320,192,8655,1,0,0:0:0:0:
64,192,9008,1,0,0:0:0:0:
320,192,9184,1,0,0:0:0:0:
192,192,9361,1,0,0:0:0:0:
448,192,9537,1,0,0:0:0:0:
320,192,9890,1,0,0:0:0:0:
64,192,10066,1,0,0:0:0:0:
192,192,10419,1,0,0:0:0:0:
448,192,10596,1,0,0:0:0:0:
64,192,10772,1,0,0:0:0:0:
320,192,10949,128,0,12361:0:0:0:0:
448,192,11655,128,0,12361:0:0:0:0:
64,192,12361,1,2,0:0:0:0:
192,192,12361,1,4,0:0:0:0:
448,192,12714,1,2,0:0:0:0:
320,192,12890,1,0,0:0:0:0:
64,192,13066,1,2,0:0:0:0:
192,192,13419,1,2,0:0:0:0:
448,192,13596,1,8,0:0:0:0:
320,192,13596,1,0,0:0:0:0:
64,192,13772,1,2,0:0:0:0:
448,192,14125,1,2,0:0:0:0:
64,192,14302,1,0,0:0:0:0:
320,192,14478,1,2,0:0:0:0:
192,192,14743,1,8,0:0:0:0:
64,192,14743,1,0,0:0:0:0:
320,192,14831,1,2,0:0:0:0:
64,192,15008,1,8,0:0:0:0:
448,192,15008,1,0,0:0:0:0:
320,192,15184,1,2,0:0:0:0:
192,192,15184,1,4,0:0:0:0:
64,192,15537,1,2,0:0:0:0:
448,192,15714,1,0,0:0:0:0:
192,192,15890,1,2,0:0:0:0:
448,192,16155,1,8,0:0:0:0:
320,192,16155,1,0,0:0:0:0:
192,192,16243,1,2,0:0:0:0:
448,192,16419,1,8,0:0:0:0:
64,192,16419,1,0,0:0:0:0:
320,192,16596,1,2,0:0:0:0:
448,192,16772,1,8,0:0:0:0:
64,192,16772,1,0,0:0:0:0:
192,192,16949,1,2,0:0:0:0:
320,192,17125,1,2,0:0:0:0:
64,192,17302,1,2,0:0:0:0:
448,192,17478,1,0,0:0:0:0:
320,192,17655,1,2,0:0:0:0:
192,192,17831,1,8,0:0:0:0:
64,192,17831,1,0,0:0:0:0:
448,192,18008,1,2,0:0:0:0:
320,192,18008,1,4,0:0:0:0:
192,192,18361,1,2,0:0:0:0:
320,192,18537,1,0,0:0:0:0:
64,192,18714,1,2,0:0:0:0:
192,192,18714,1,8,0:0:0:0:
448,192,18978,1,8,0:0:0:0:
320,192,18978,1,0,0:0:0:0:
64,192,19066,1,2,0:0:0:0:
192,192,19243,1,8,0:0:0:0:
320,192,19243,1,0,0:0:0:0:
448,192,19419,1,2,0:0:0:0:
64,192,19772,1,2,0:0:0:0:
320,192,19949,1,0,0:0:0:0:
448,192,20125,1,2,0:0:0:0:
64,192,20390,1,8,0:0:0:0:
192,192,20390,1,0,0:0:0:0:
448,192,20478,1,2,0:0:0:0:
320,192,20655,1,8,0:0:0:0:
192,192,20655,1,0,0:0:0:0:
64,192,20831,1,2,0:0:0:0:
448,192,21184,1,2,0:0:0:0:
192,192,21361,1,0,0:0:0:0:
64,192,21537,1,2,0:0:0:0:
448,192,21802,1,8,0:0:0:0:
320,192,21802,1,0,0:0:0:0:
192,192,21890,1,2,0:0:0:0:
64,192,22066,1,8,0:0:0:0:
448,192,22066,1,0,0:0:0:0:
320,192,22243,1,2,0:0:0:0:
64,192,22419,1,0,0:0:0:0:
448,192,22596,1,2,0:0:0:0:
192,192,22949,128,8,23655:0:0:0:0:
320,192,22949,1,0,0:0:0:0:
448,192,23302,1,0,0:0:0:0:
320,192,23478,1,0,0:0:0:0:
64,192,23655,1,2,0:0:0:0:
448,192,24008,1,0,0:0:0:0:
320,192,24184,1,0,0:0:0:0:
64,192,24537,1,0,0:0:0:0:
192,192,24714,1,0,0:0:0:0:
320,192,24890,1,0,0:0:0:0:
192,192,25066,1,0,0:0:0:0:
64,192,25066,1,0,0:0:0:0:
320,192,25419,1,0,0:0:0:0:
192,192,25596,1,0,0:0:0:0:
448,192,25949,1,0,0:0:0:0:
320,192,26125,1,0,0:0:0:0:
192,192,26302,1,0,0:0:0:0:
320,192,26478,1,0,0:0:0:0:
448,192,26478,1,0,0:0:0:0:
64,192,26831,1,0,0:0:0:0:
192,192,27008,1,0,0:0:0:0:
320,192,27361,1,0,0:0:0:0:
448,192,27537,1,0,0:0:0:0:
64,192,27714,1,0,0:0:0:0:
192,192,27890,1,0,0:0:0:0:
320,192,27890,1,0,0:0:0:0:
448,192,28243,1,0,0:0:0:0:
320,192,28419,1,0,0:0:0:0:
192,192,28772,1,0,0:0:0:0:
64,192,28949,1,0,0:0:0:0:
448,192,29125,1,0,0:0:0:0:
320,192,29302,1,0,0:0:0:0:
192,192,29302,1,0,0:0:0:0:
448,192,29655,1,0,0:0:0:0:
64,192,29831,1,0,0:0:0:0:
320,192,30184,1,0,0:0:0:0:
192,192,30361,1,0,0:0:0:0:
64,192,30537,1,0,0:0:0:0:
192,192,30714,1,0,0:0:0:0:
448,192,30714,1,0,0:0:0:0:
64,192,31066,1,0,0:0:0:0:
448,192,31243,1,0,0:0:0:0:
192,192,31596,1,0,0:0:0:0:
320,192,31772,1,0,0:0:0:0:
448,192,31949,1,0,0:0:0:0:
320,192,32125,1,0,0:0:0:0:
64,192,32125,1,0,0:0:0:0:
192,192,32478,1,0,0:0:0:0:
64,192,32655,1,0,0:0:0:0:
320,192,33008,1,0,0:0:0:0:
192,192,33184,1,0,0:0:0:0:
448,192,33361,1,0,0:0:0:0:
192,192,33537,1,2,0:0:0:0:
320,192,33537,128,0,33714:0:0:0:0:
64,192,33714,128,0,34066:0:0:0:0:
448,192,34066,128,0,34419:0:0:0:0:
192,192,34419,1,0,0:0:0:0:
64,192,34596,1,2,0:0:0:0:
448,192,34772,1,0,0:0:0:0:
320,192,34949,1,2,0:0:0:0:
320,192,35125,1,0,0:0:0:0:
448,192,35302,1,2,0:0:0:0:
64,192,35302,1,8,0:0:0:0:
192,192,35655,1,2,0:0:0:0:
448,192,36008,1,2,0:0:0:0:
320,192,36008,1,8,0:0:0:0:
64,192,36361,1,2,0:0:0:0:
192,192,36714,1,2,0:0:0:0:
448,192,36714,1,8,0:0:0:0:
320,192,37066,1,2,0:0:0:0:
192,192,37243,1,8,0:0:0:0:
64,192,37243,1,0,0:0:0:0:
320,192,37419,1,2,0:0:0:0:
448,192,37419,1,8,0:0:0:0:
192,192,37772,1,2,0:0:0:0:
192,192,37949,1,0,0:0:0:0:
448,192,38125,1,2,0:0:0:0:
64,192,38125,1,8,0:0:0:0:
320,192,38478,1,2,0:0:0:0:
192,192,38831,1,2,0:0:0:0:
448,192,38831,1,8,0:0:0:0:
64,192,39184,1,2,0:0:0:0:
448,192,39537,1,2,0:0:0:0:
320,192,39537,1,8,0:0:0:0:
192,192,39890,1,2,0:0:0:0:
320,192,40066,1,8,0:0:0:0:
448,192,40066,1,0,0:0:0:0:
192,192,40243,1,2,0:0:0:0:
64,192,40243,1,8,0:0:0:0:
320,192,40596,1,2,0:0:0:0:
320,192,40772,1,0,0:0:0:0:
448,192,40949,1,2,0:0:0:0:
64,192,40949,1,8,0:0:0:0:
192,192,41302,1,2,0:0:0:0:
448,192,41655,1,2,0:0:0:0:
320,192,41655,1,8,0:0:0:0:
64,192,42008,1,2,0:0:0:0:
192,192,42361,1,2,0:0:0:0:
448,192,42361,1,8,0:0:0:0:
320,192,42714,1,2,0:0:0:0:
192,192,42890,1,8,0:0:0:0:
64,192,42890,1,0,0:0:0:0:
320,192,43066,1,2,0:0:0:0:
448,192,43066,1,8,0:0:0:0:
192,192,43419,1,2,0:0:0:0:
192,192,43596,1,0,0:0:0:0:
448,192,43772,1,2,0:0:0:0:
64,192,43772,1,8,0:0:0:0:
320,192,44125,1,2,0:0:0:0:
192,192,44478,1,2,0:0:0:0:
64,192,44478,1,8,0:0:0:0:
320,192,44831,1,2,0:0:0:0:
64,192,45008,1,8,0:0:0:0:
192,192,45008,1,0,0:0:0:0:
448,192,45184,1,2,0:0:0:0:
64,192,45361,1,8,0:0:0:0:
192,192,45449,1,8,0:0:0:0:
320,192,45537,1,10,0:0:0:0:
448,192,45714,1,2,0:0:0:0:
192,192,45890,128,10,46243:0:0:0:0:
64,192,46243,1,2,0:0:0:0:
448,192,46243,1,12,0:0:0:0:
320,192,46772,1,2,0:0:0:0:
64,192,46949,1,2,0:0:0:0:
192,192,46949,1,8,0:0:0:0:
320,192,47655,1,2,0:0:0:0:
192,192,47831,1,8,0:0:0:0:
448,192,47831,1,0,0:0:0:0:
64,192,48008,1,2,0:0:0:0:
320,192,48184,1,2,0:0:0:0:
64,192,48361,1,2,0:0:0:0:
448,192,48361,1,8,0:0:0:0:
320,192,48890,1,8,0:0:0:0:
192,192,48978,1,8,0:0:0:0:
64,192,49066,1,2,0:0:0:0:
448,192,49066,1,12,0:0:0:0:
192,192,49596,1,2,0:0:0:0:
448,192,49772,1,2,0:0:0:0:
320,192,49772,1,8,0:0:0:0:
192,192,50302,1,8,0:0:0:0:
64,192,50302,1,0,0:0:0:0:
320,192,50478,1,2,0:0:0:0:
448,192,50655,1,2,0:0:0:0:
192,192,50831,1,8,0:0:0:0:
320,192,50831,1,0,0:0:0:0:
64,192,51008,1,2,0:0:0:0:
448,192,51184,1,10,0:0:0:0:
192,192,51361,1,4,0:0:0:0:
320,192,51361,1,0,0:0:0:0:
64,192,51537,128,2,51890:0:0:0:0:
448,192,51890,1,2,0:0:0:0:
320,192,51890,1,8,0:0:0:0:
192,192,52419,1,2,0:0:0:0:
448,192,52596,1,2,0:0:0:0:
64,192,52596,1,8,0:0:0:0:
320,192,52949,1,2,0:0:0:0:
192,192,53125,1,0,0:0:0:0:
320,192,53302,1,2,0:0:0:0:
448,192,53478,1,8,0:0:0:0:
64,192,53478,1,0,0:0:0:0:
192,192,53655,1,2,0:0:0:0:
320,192,53831,1,8,0:0:0:0:
448,192,53831,1,0,0:0:0:0:
64,192,54008,1,2,0:0:0:0:
192,192,54008,1,4,0:0:0:0:
448,192,54714,1,4,0:0:0:0:
64,192,54714,1,8,0:0:0:0:
320,192,55243,1,2,0:0:0:0:
448,192,55419,1,2,0:0:0:0:
64,192,55419,1,8,0:0:0:0:
192,192,55772,1,2,0:0:0:0:
448,192,55949,1,8,0:0:0:0:
320,192,56037,1,8,0:0:0:0:
192,192,56125,1,8,0:0:0:0:
64,192,56302,1,2,0:0:0:0:
320,192,56478,1,2,0:0:0:0:
192,192,56655,1,2,0:0:0:0:
320,192,56831,1,2,0:0:0:0:
448,192,56831,1,8,0:0:0:0:
192,192,57008,1,4,0:0:0:0:
64,192,57008,1,0,0:0:0:0:
448,192,57184,1,2,0:0:0:0:
64,192,57537,1,0,0:0:0:0:
64,192,57890,1,0,0:0:0:0:
192,192,58066,1,0,0:0:0:0:
320,192,58243,1,0,0:0:0:0:
320,192,58596,1,0,0:0:0:0:
448,192,58949,1,0,0:0:0:0:
320,192,59125,1,0,0:0:0:0:
192,192,59302,1,0,0:0:0:0:
192,192,59655,1,0,0:0:0:0:
64,192,60008,1,0,0:0:0:0:
192,192,60184,1,0,0:0:0:0:
64,192,61772,5,2,0:0:0:0:
192,192,61772,1,12,0:0:0:0:
192,192,61949,1,6,0:0:0:0:
64,192,61949,1,8,0:0:0:0:
320,192,62478,1,6,0:0:0:0:
448,192,62478,1,8,0:0:0:0:
448,192,62655,1,2,0:0:0:0:
320,192,62655,1,12,0:0:0:0:
64,192,63184,1,10,0:0:0:0:
448,192,63184,128,4,63537:0:0:0:0:
320,192,63537,1,2,0:0:0:0:
192,192,63537,1,8,0:0:0:0:
64,192,63890,1,2,0:0:0:0:
192,192,64066,1,0,0:0:0:0:
448,192,64243,1,2,0:0:0:0:
320,192,64243,1,8,0:0:0:0:
448,192,64596,1,2,0:0:0:0:
64,192,64596,128,0,64949:0:0:0:0:
192,192,64949,1,2,0:0:0:0:
320,192,64949,1,8,0:0:0:0:
448,192,65302,1,2,0:0:0:0:
320,192,65478,1,0,0:0:0:0:
192,192,65655,1,2,0:0:0:0:
64,192,65655,1,8,0:0:0:0:
448,192,66008,1,0,0:0:0:0:
320,192,66008,128,2,66361:0:0:0:0:
64,192,66361,1,2,0:0:0:0:
192,192,66361,1,8,0:0:0:0:
320,192,66714,1,2,0:0:0:0:
448,192,66890,1,0,0:0:0:0:
192,192,67066,1,2,0:0:0:0:
64,192,67066,1,8,0:0:0:0:
448,192,67419,1,2,0:0:0:0:
64,192,67419,128,0,67772:0:0:0:0:
320,192,67772,1,2,0:0:0:0:
192,192,67772,1,8,0:0:0:0:
448,192,68125,1,2,0:0:0:0:
320,192,68302,1,0,0:0:0:0:
64,192,68478,1,8,0:0:0:0:
192,192,68478,128,2,68831:0:0:0:0:
320,192,68831,1,6,0:0:0:0:
448,192,68831,1,8,0:0:0:0:
448,192,69184,1,2,0:0:0:0:
64,192,69184,1,8,0:0:0:0:
192,192,69537,1,2,0:0:0:0:
64,192,69714,1,0,0:0:0:0:
448,192,69890,1,8,0:0:0:0:
320,192,69890,128,2,70243:0:0:0:0:
192,192,70243,1,2,0:0:0:0:
64,192,70243,1,0,0:0:0:0:
64,192,70596,1,2,0:0:0:0:
448,192,70596,1,8,0:0:0:0:
192,192,70949,1,2,0:0:0:0:
320,192,71125,1,0,0:0:0:0:
64,192,71302,1,2,0:0:0:0:
448,192,71302,1,8,0:0:0:0:
192,192,71478,1,0,0:0:0:0:
320,192,71655,1,0,0:0:0:0:
448,192,71655,128,2,72008:0:0:0:0:
192,192,72008,1,2,0:0:0:0:
64,192,72008,1,8,0:0:0:0:
64,192,72361,128,2,72714:0:0:0:0:
320,192,72361,1,0,0:0:0:0:
448,192,72714,1,2,0:0:0:0:
192,192,72714,1,8,0:0:0:0:
448,192,73066,1,2,0:0:0:0:
320,192,73066,1,0,0:0:0:0:
64,192,73243,128,8,73419:0:0:0:0:
192,192,73419,1,10,0:0:0:0:
448,192,73596,128,8,73772:0:0:0:0:
320,192,73772,1,10,0:0:0:0:
64,192,73949,128,8,74125:0:0:0:0:
320,192,74125,1,2,0:0:0:0:
192,192,74125,128,12,74478:0:0:0:0:
320,192,74478,1,6,0:0:0:0:
448,192,74478,128,8,74831:0:0:0:0:
64,192,74831,1,2,0:0:0:0:
192,192,74831,1,8,0:0:0:0:
320,192,75184,1,2,0:0:0:0:
192,192,75361,1,0,0:0:0:0:
64,192,75537,1,2,0:0:0:0:
448,192,75537,1,8,0:0:0:0:
320,192,75890,1,2,0:0:0:0:
192,192,75890,128,0,76243:0:0:0:0:
64,192,76243,1,2,0:0:0:0:
448,192,76243,1,8,0:0:0:0:
448,192,76596,1,2,0:0:0:0:
320,192,76772,1,0,0:0:0:0:
64,192,76949,1,2,0:0:0:0:
192,192,76949,1,8,0:0:0:0:
448,192,77302,1,0,0:0:0:0:
320,192,77302,128,2,77655:0:0:0:0:
192,192,77655,1,2,0:0:0:0:
64,192,77655,1,8,0:0:0:0:
192,192,78008,128,2,78361:0:0:0:0:
320,192,78008,1,0,0:0:0:0:
64,192,78361,1,2,0:0:0:0:
448,192,78361,1,8,0:0:0:0:
192,192,78714,1,0,0:0:0:0:
64,192,78714,128,2,79066:0:0:0:0:
448,192,79066,1,2,0:0:0:0:
320,192,79066,1,8,0:0:0:0:
192,192,79419,1,2,0:0:0:0:
320,192,79596,1,8,0:0:0:0:
448,192,79596,1,0,0:0:0:0:
64,192,79772,1,2,0:0:0:0:
192,192,79772,1,12,0:0:0:0:
320,192,80125,1,0,0:0:0:0:
448,192,80125,128,2,80478:0:0:0:0:
192,192,80478,1,2,0:0:0:0:
64,192,80478,1,8,0:0:0:0:
320,192,80831,1,2,0:0:0:0:
448,192,81008,1,0,0:0:0:0:
64,192,81184,1,2,0:0:0:0:
192,192,81184,1,8,0:0:0:0:
192,192,81537,1,2,0:0:0:0:
320,192,81537,128,0,81890:0:0:0:0:
64,192,81890,1,2,0:0:0:0:
448,192,81890,1,8,0:0:0:0:
64,192,82243,1,2,0:0:0:0:
192,192,82419,1,0,0:0:0:0:
320,192,82596,1,2,0:0:0:0:
448,192,82596,1,8,0:0:0:0:
192,192,82949,1,2,0:0:0:0:
64,192,82949,128,0,83302:0:0:0:0:
320,192,83302,1,2,0:0:0:0:
448,192,83302,1,8,0:0:0:0:
448,192,83655,128,2,84008:0:0:0:0:
192,192,83655,1,0,0:0:0:0:
320,192,84008,1,2,0:0:0:0:
64,192,84008,1,8,0:0:0:0:
192,192,84361,1,2,0:0:0:0:
320,192,84537,1,8,0:0:0:0:
448,192,84537,1,0,0:0:0:0:
64,192,84714,1,2,0:0:0:0:
192,192,84714,1,8,0:0:0:0:
448,192,84890,1,8,0:0:0:0:
320,192,84978,1,8,0:0:0:0:
192,192,85066,1,2,0:0:0:0:
64,192,85066,1,8,0:0:0:0:
320,192,85243,1,2,0:0:0:0:
448,192,85419,1,2,0:0:0:0:
64,192,85419,1,8,0:0:0:0:
448,192,85772,1,2,0:0:0:0:
64,192,85772,1,0,0:0:0:0:
192,192,85772,128,4,87184:0:0:0:0:
320,192,87184,128,0,87537:0:0:0:0:
448,192,87537,128,0,87890:0:0:0:0:
64,192,87890,128,0,88243:0:0:0:0:
192,192,88243,128,0,88596:0:0:0:0:
320,192,88596,128,0,88949:0:0:0:0:
