osu file format v14

[General]
AudioFilename: audio.mp3
AudioLeadIn: 0
PreviewTime: 62711
Countdown: 0
SampleSet: Soft
StackLeniency: 0.6
Mode: 0
LetterboxInBreaks: 0
WidescreenStoryboard: 1

[Editor]
DistanceSpacing: 1
BeatDivisor: 2
GridSize: 4
TimelineZoom: 1.4

[Metadata]
Title:Kotoba no Iranai Yakusoku (TV Size)
TitleUnicode:言葉のいらない約束 (TV Size)
Artist:sana
ArtistUnicode:sana
Creator:sanairrt
Version:Chihara's Normal
Source:NARUTO -ナルト- 疾風伝
Tags:japanese pop jpop j-pop shippuden shippuuden 33 鎖那 honeyworks ed ending gom oji 海賊王 shito cake atsuyuk! ヤマコ anime kowari eclipselotus chihara minori time capsule
BeatmapID:2836056
BeatmapSetID:1363395

[Difficulty]
HPDrainRate:4
CircleSize:3.2
OverallDifficulty:5
ApproachRate:5
SliderMultiplier:1.1
SliderTickRate:1

[Events]
//Background and Video events
0,0,"zzzzzzzzzzzzzzzz.jpg",0,0
Video,0,"Naruto.mp4"
//Break Periods
2,57705,60329
//Storyboard Layer 0 (Background)
//Storyboard Layer 1 (Fail)
//Storyboard Layer 2 (Pass)
//Storyboard Layer 3 (Foreground)
//Storyboard Layer 4 (Overlay)
//Storyboard Sound Samples

[TimingPoints]
1035,352.941176470588,4,2,1,60,1,0
1035,-125,4,2,1,40,0,0
12329,-111.111111111111,4,2,1,70,0,0
23623,-125,4,2,1,40,0,0
33505,-125,4,2,1,50,0,0
34917,-111.111111111111,4,2,1,60,0,0
46211,-125,4,2,1,50,0,0
61740,-125,4,2,1,80,0,0
63152,-111.111111111111,4,2,1,80,0,0
87152,-111.111111111111,4,2,1,30,0,0

[Colours]
Combo1 : 167,167,167
Combo2 : 255,255,47
Combo3 : 255,96,175

[HitObjects]
66,44,1035,6,0,P|52:100|44:146,1,88,2|0,0:0|3:0,0:0:0:0:
20,165,1564,1,0,0:0:0:0:
20,165,1740,2,0,P|50:223|53:251,1,88,2|0,0:0|3:0,0:0:0:0:
109,312,2446,2,0,L|215:318,1,88,2|0,0:0|3:0,0:0:0:0:
238,300,2976,1,0,0:0:0:0:
238,300,3152,2,0,B|262:299|284:308|284:308|303:320|334:315,1,88,2|0,0:0|3:0,0:0:0:0:
408,291,3858,6,0,P|399:247|388:205,1,88,2|0,0:0|3:0,0:0:0:0:
426,125,4564,1,0,0:0:0:0:
386,46,4917,2,0,L|339:38,1,44,2|2,3:2|0:0,0:0:0:0:
301,22,5270,2,0,P|267:48|223:47,1,88,2|0,0:0|3:0,0:0:0:0:
136,61,5976,1,2,0:0:0:0:
63,11,6329,1,2,3:2:0:0:
18,86,6682,6,0,P|30:158|37:211,1,88,2|0,0:0|3:0,0:0:0:0:
16,214,7211,1,0,0:0:0:0:
16,214,7387,2,0,P|59:212|93:239,1,88,2|2,0:0|3:2,0:0:0:0:
155,301,8093,2,0,P|198:302|232:275,1,88,2|2,0:0|3:2,0:0:0:0:
284,281,8623,1,0,0:0:0:0:
284,281,8799,2,0,P|292:237|303:195,1,88,2|2,0:0|3:2,0:0:0:0:
278,110,9505,6,0,B|324:93|364:124|364:124|395:152|444:143,1,176,2|0,0:0|0:0,0:0:0:0:
509,201,10564,1,2,3:2:0:0:
471,280,10917,1,0,3:0:0:0:
314,360,11623,6,0,B|290:359|268:368|268:368|249:380|218:375,1,88
133,349,12329,6,0,P|128:324|124:300,1,49.4999984893799,4|8,1:0|0:0,0:0:0:0:
107,253,12682,2,0,P|111:228|116:204,1,49.4999984893799,0|8,1:0|0:0,0:0:0:0:
153,171,13034,2,0,B|182:168|208:183|208:183|231:200|273:196,1,98.9999969787599,0|0,1:0|1:0,0:0:0:0:
288,223,13564,1,8,0:0:0:0:
288,223,13740,2,0,P|326:193|373:200,1,98.9999969787599,0|8,1:0|0:0,0:0:0:0:
465,237,14446,2,0,P|471:187|482:139,1,98.9999969787599,0|4,1:0|0:3,0:0:0:0:
464,41,15152,6,0,P|439:36|415:32,1,49.4999984893799,4|8,1:2|0:0,0:0:0:0:
368,14,15505,2,0,P|343:18|319:22,1,49.4999984893799,0|8,1:0|0:0,0:0:0:0:
280,53,15858,2,0,B|251:50|225:65|225:65|202:82|160:78,1,98.9999969787599,8|0,1:2|1:0,0:0:0:0:
138,65,16387,1,8,0:0:0:0:
138,65,16564,2,0,P|108:103|115:150,1,98.9999969787599,4|8,1:3|0:0,0:0:0:0:
155,241,17270,1,4,1:3:0:0:
253,232,17623,1,4,0:3:0:0:
275,334,17976,6,0,P|299:329|323:325,1,49.4999984893799,4|8,1:2|0:0,0:0:0:0:
371,307,18329,2,0,P|395:311|419:315,1,49.4999984893799,0|8,1:0|0:0,0:0:0:0:
463,292,18682,2,0,P|469:242|480:194,1,98.9999969787599,0|0,1:0|1:0,0:0:0:0:
458,149,19211,1,8,0:0:0:0:
458,149,19387,2,0,P|451:99|440:51,1,98.9999969787599,4|0,1:3|1:0,0:0:0:0:
346,21,20093,2,0,P|307:50|260:43,1,98.9999969787599,8|0,0:0|1:0,0:0:0:0:
173,92,20799,6,0,P|134:62|87:69,2,98.9999969787599,4|0|0,1:2|1:0|1:0,0:0:0:0:
197,135,21682,2,0,P|193:159|189:183,1,49.4999984893799,8|0,0:0|1:0,0:0:0:0:
179,232,22034,1,8,0:0:0:0:
179,232,22211,2,0,B|208:229|234:244|234:244|257:261|299:257,1,98.9999969787599,0|4,1:0|0:3,0:0:0:0:
369,279,22917,2,0,P|373:303|377:327,2,49.4999984893799,4|0|8,1:3|3:0|0:0,0:0:0:0:
385,192,23623,6,0,P|419:165|463:166,2,88,2|0|2,1:2|3:0|0:0,0:0:0:0:
319,134,24682,1,0,3:0:0:0:
250,187,25034,2,0,B|216:187|216:187|196:197|196:197|158:196,1,88,2|0,1:2|3:0,0:0:0:0:
78,210,25740,2,0,P|89:252|98:295,1,88,2|0,0:0|3:0,0:0:0:0:
179,331,26446,6,0,B|225:314|265:345|265:345|296:373|345:364,1,176,2|0,1:2|0:0,0:0:0:0:
431,350,27505,2,0,L|439:306,1,44,2|2,3:2|0:2,0:0:0:0:
473,278,27858,2,0,P|499:244|498:200,1,88,2|0,1:2|3:0,0:0:0:0:
497,112,28564,1,2,0:2:0:0:
447,39,28917,1,2,3:2:0:0:
371,82,29270,6,0,B|347:81|325:90|325:90|306:102|275:97,1,88,2|0,1:2|3:0,0:0:0:0:
205,135,29976,2,0,P|162:123|119:114,1,88,2|2,0:0|3:2,0:0:0:0:
35,140,30682,1,2,1:2:0:0:
9,223,31034,1,2,3:2:0:0:
55,299,31387,2,0,P|98:299|131:272,1,88,2|2,0:2|3:2,0:0:0:0:
219,278,32093,6,0,P|279:223|348:267,1,176,2|0,1:2|0:0,0:0:0:0:
410,330,33152,2,0,L|453:322,1,44,2|2,3:2|0:0,0:0:0:0:
481,288,33505,2,0,P|489:244|501:202,1,88,2|0,0:0|0:0,0:0:0:0:
504,158,34034,2,0,P|460:158|427:131,1,88,2|0,0:0|3:0,0:0:0:0:
407,91,34564,1,2,3:2:0:0:
321,40,34917,6,0,B|292:37|266:52|266:52|243:69|201:65,1,98.9999969787599,2|8,1:2|0:2,0:0:0:0:
188,97,35446,1,0,0:2:0:0:
188,97,35623,2,0,L|90:86,1,98.9999969787599,2|8,1:2|0:2,0:0:0:0:
19,155,36329,2,0,P|29:203|35:252,1,98.9999969787599,2|8,1:2|0:2,0:0:0:0:
58,296,36858,1,0,0:2:0:0:
58,296,37034,2,0,P|82:300|106:304,1,49.4999984893799,2|8,1:2|0:2,0:0:0:0:
138,343,37387,1,8,0:2:0:0:
212,277,37740,6,0,P|250:247|297:254,2,98.9999969787599,2|8|0,1:2|0:2|1:2,0:0:0:0:
269,357,38799,2,0,P|294:352|318:348,1,49.4999984893799,10|2,0:2|0:2,0:2:0:0:
367,345,39152,2,0,P|373:295|384:247,1,98.9999969787599,0|8,1:2|0:2,0:0:0:0:
462,186,39858,2,0,P|457:161|453:137,1,49.4999984893799,2|8,1:2|0:2,0:0:0:0:
423,97,40211,1,10,0:2:0:0:
324,91,40564,6,0,B|295:88|269:103|269:103|246:120|204:116,1,98.9999969787599,2|8,1:2|0:2,0:2:0:0:
228,215,41270,1,2,1:2:0:0:
167,293,41623,1,10,0:2:0:0:
73,265,41976,2,0,P|67:215|56:167,1,98.9999969787599,2|10,1:2|0:2,0:2:0:0:
22,130,42505,1,0,0:0:0:0:
22,130,42682,2,0,P|26:105|30:81,1,49.4999984893799,2|8,1:2|0:2,0:0:0:0:
69,50,43034,1,10,0:2:0:0:
153,101,43387,6,0,P|190:130|238:123,1,98.9999969787599,2|8,1:2|0:2,0:0:0:0:
280,97,43917,1,0,0:2:0:0:
280,97,44093,2,0,L|378:108,1,98.9999969787599,2|10,1:2|0:2,0:0:0:0:
466,154,44799,2,0,P|461:178|457:202,1,49.4999984893799,0|8,1:2|0:2,0:0:0:0:
419,234,45152,2,0,P|423:258|427:282,1,49.4999984893799,0|8,1:2|0:3,0:0:0:0:
405,326,45505,2,0,B|376:323|350:338|350:338|327:355|285:351,1,98.9999969787599,10|6,1:3|1:3,0:2:0:0:
223,365,46211,6,0,P|214:299|199:235,1,132,6|0,1:2|1:2,0:2:0:0:
156,224,46917,1,8,0:2:0:0:
114,146,47270,1,2,0:2:0:0:
174,81,47623,1,0,1:2:0:0:
174,81,47799,2,0,P|217:82|251:56,1,88,8|0,0:2|1:2,0:2:0:0:
290,35,48329,2,0,P|324:61|367:60,1,88,8|2,0:2|0:2,0:0:0:0:
453,41,49034,6,0,P|469:105|477:170,1,132,6|0,1:2|1:2,0:2:0:0:
489,212,49740,1,8,0:2:0:0:
433,279,50093,1,2,0:2:0:0:
350,249,50446,2,0,L|306:241,1,44,0|0,1:2|0:2,0:2:0:0:
271,267,50799,2,0,L|227:274,1,44,8|4,0:3|0:3,0:0:0:0:
186,291,51152,2,0,B|152:291|152:291|132:301|132:301|94:300,1,88,8|4,0:2|0:3,0:2:0:0:
29,352,51858,6,0,P|8:291|38:234,1,132,6|0,1:2|1:2,0:2:0:0:
64,198,52564,1,8,0:2:0:0:
126,136,52917,1,2,0:2:0:0:
205,173,53270,1,0,1:2:0:0:
205,173,53446,2,0,L|301:183,1,88,0|0,1:2|1:2,0:2:0:0:
333,200,53976,2,0,P|359:166|358:122,1,88,8|2,0:2|0:2,0:0:0:0:
326,40,54682,6,0,B|288:30|262:47|262:47|227:71|177:53,1,132,6|0,1:2|1:2,0:2:0:0:
162,83,55387,1,8,0:2:0:0:
91,30,55740,1,2,0:2:0:0:
25,90,56093,2,0,L|17:133,1,44,0|0,1:2|0:2,0:0:0:0:
0,172,56446,2,0,L|7:215,1,44,4|4,0:3|0:3,0:0:0:0:
35,249,56799,1,8,0:2:0:0:
35,249,56976,2,0,P|106:263|164:273,1,132,8|2,0:3|0:2,0:0:0:0:
87,350,61740,6,0,L|130:342,1,44,8|8,1:2|1:2,0:0:0:0:
254,297,62446,2,0,L|297:304,1,44,8|8,1:2|1:2,0:0:0:0:
330,333,62799,1,2,0:2:0:0:
427,314,63152,6,0,P|433:264|444:216,1,98.9999969787599,6|8,1:0|0:2,0:2:0:0:
478,180,63682,1,2,0:2:0:0:
478,180,63858,2,0,P|473:155|468:131,1,49.4999984893799,2|2,1:2|0:2,0:0:0:0:
479,82,64211,2,0,P|454:76|430:72,1,49.4999984893799,10|2,0:2|3:2,0:0:0:0:
399,33,64564,2,0,B|370:30|344:45|344:45|321:62|279:58,1,98.9999969787599,0|8,1:2|0:2,0:2:0:0:
207,40,65270,2,0,P|182:44|158:49,1,49.4999984893799,2|2,1:2|0:2,0:0:0:0:
108,53,65623,2,0,P|102:77|98:101,1,49.4999984893799,10|2,0:2|3:2,0:0:0:0:
56,128,65976,2,0,L|67:226,1,98.9999969787599,0|8,1:2|0:2,0:2:0:0:
5,304,66682,6,0,P|42:333|90:326,1,98.9999969787599,2|10,1:2|0:2,0:2:0:0:
139,333,67211,1,2,0:2:0:0:
139,333,67387,2,0,P|176:303|224:310,1,98.9999969787599,0|8,1:2|0:2,0:2:0:0:
317,342,68093,2,0,P|322:317|326:293,1,49.4999984893799,2|2,1:2|0:2,0:0:0:0:
359,256,68446,1,10,0:2:0:0:
306,172,68799,6,0,L|208:183,1,98.9999969787599,6|8,1:2|0:2,0:2:0:0:
162,203,69329,1,2,0:2:0:0:
162,203,69505,2,0,P|137:197|113:193,1,49.4999984893799,2|2,1:2|0:2,0:0:0:0:
64,202,69858,1,10,0:2:0:0:
12,127,70211,2,0,P|4:79|34:41,1,98.9999969787599,6|8,1:2|0:2,0:2:0:0:
128,14,70917,2,0,P|153:19|177:23,1,49.4999984893799,2|2,1:2|0:2,0:0:0:0:
219,48,71270,2,0,P|243:43|267:39,1,49.4999984893799,10|2,0:2|0:2,0:2:0:0:
314,23,71623,2,0,B|343:20|369:35|369:35|392:52|434:48,1,98.9999969787599,2|12,1:2|0:2,0:0:0:0:
507,44,72329,6,0,P|497:92|491:141,1,98.9999969787599,2|12,1:2|0:2,0:0:0:0:
438,225,73034,2,0,P|462:229|486:233,2,49.4999984893799,2|8|8,1:2|0:2|0:2,0:0:0:0:
388,219,73564,1,10,0:3:0:0:
388,219,73740,1,2,1:2:0:0:
299,264,74093,2,0,P|292:290|283:328,1,49.4999984893799,6|10,1:2|0:2,0:0:0:0:
241,337,74446,6,0,P|202:307|155:315,1,98.9999969787599,6|8,1:0|0:2,0:2:0:0:
112,340,74976,1,2,0:2:0:0:
112,340,75152,2,0,P|87:335|63:331,1,49.4999984893799,2|2,1:2|0:2,0:0:0:0:
14,340,75505,1,10,0:2:0:0:
27,242,75858,2,0,P|32:192|43:144,1,98.9999969787599,0|8,1:2|0:2,0:2:0:0:
22,99,76387,1,2,0:2:0:0:
22,99,76564,2,0,P|59:70|107:77,1,98.9999969787599,2|10,1:2|0:2,0:2:0:0:
195,30,77270,2,0,P|232:60|280:53,1,98.9999969787599,2|8,1:2|0:2,0:2:0:0:
334,29,77799,1,2,0:2:0:0:
334,29,77976,6,0,L|323:127,1,98.9999969787599,2|10,1:2|0:2,0:2:0:0:
278,149,78505,1,2,0:2:0:0:
278,149,78682,2,0,P|288:197|293:246,1,98.9999969787599,0|8,1:2|0:2,0:2:0:0:
344,331,79387,2,0,P|369:326|393:322,1,49.4999984893799,2|10,1:2|0:2,0:0:0:0:
438,340,79740,1,14,0:2:0:0:
496,260,80093,6,0,L|507:162,1,98.9999969787599,6|8,1:2|0:2,0:2:0:0:
493,113,80623,1,2,0:2:0:0:
493,113,80799,2,0,P|468:108|444:104,1,49.4999984893799,2|2,1:2|0:2,0:0:0:0:
411,66,81152,1,10,0:2:0:0:
324,106,81505,2,0,B|295:103|269:118|269:118|246:135|204:131,1,98.9999969787599,6|8,1:2|0:2,0:2:0:0:
191,100,82034,1,2,0:2:0:0:
191,100,82211,2,0,P|166:95|142:91,1,49.4999984893799,2|2,1:2|0:2,0:0:0:0:
97,70,82564,2,0,P|92:94|88:118,1,49.4999984893799,10|2,0:2|0:2,0:0:0:0:
49,150,82917,2,0,L|60:248,1,98.9999969787599,2|12,1:2|0:2,0:0:0:0:
52,347,83623,6,0,B|81:344|107:359|107:359|130:376|172:372,1,98.9999969787599,2|12,1:2|0:2,0:0:0:0:
231,322,84329,2,0,P|222:285|215:252,2,49.4999984893799,2|8|0,1:2|0:2|1:2,0:0:0:0:
287,336,84858,1,10,0:2:0:0:
287,336,85034,2,0,P|309:327|334:318,1,49.4999984893799,10|8,0:2|0:3,0:2:0:0:
362,278,85387,2,0,P|378:286|407:297,1,49.4999984893799,6|2,0:3|1:2,0:0:0:0:
452,276,85740,5,6,1:2:0:0:
256,192,85917,12,2,88564,0:2:0:0:
