osu file format v14

[General]
AudioFilename: audio.mp3
AudioLeadIn: 0
PreviewTime: 223682
Countdown: 0
SampleSet: Soft
StackLeniency: 0.6
Mode: 0
LetterboxInBreaks: 0
WidescreenStoryboard: 0

[Editor]
DistanceSpacing: 0.9
BeatDivisor: 4
GridSize: 8
TimelineZoom: 1.8

[Metadata]
Title:Kotoba no Iranai Yakusoku
TitleUnicode:言葉のいらない約束
Artist:sana
ArtistUnicode:sana
Creator:Irohas
Version:Normal
Source:NARUTO-ナルト-疾風伝
Tags:mugiwarasekai 鎖那 honeyworks shippuden shippuuden ending gom oji 海賊王 shito cake atsyuk! ヤマコ
BeatmapID:1347663
BeatmapSetID:634179

[Difficulty]
HPDrainRate:4
CircleSize:3.5
OverallDifficulty:4
ApproachRate:5
SliderMultiplier:1.1
SliderTickRate:1

[Events]
//Background and Video events
0,0,"BG.jpg",0,0
//Break Periods
2,57491,60286
2,88750,92757
2,218432,221227
//Storyboard Layer 0 (Background)
//Storyboard Layer 1 (Fail)
//Storyboard Layer 2 (Pass)
//Storyboard Layer 3 (Foreground)
//Storyboard Sound Samples

[TimingPoints]
-391,352.941176470588,4,2,1,30,1,0
1020,-100,4,2,1,30,0,0
6667,-100,4,2,1,40,0,0
12314,-100,4,2,1,70,0,0
23608,-100,4,2,1,40,0,0
33491,-100,4,2,1,50,0,0
34903,-100,4,2,1,70,0,0
63138,-100,4,2,1,80,0,1
74079,-100,4,2,1,80,0,0
74256,-100,4,2,1,80,0,0
74432,-100,4,2,1,80,0,1
85726,-100,4,2,1,70,0,0
87138,-100,4,2,1,40,0,0
88550,-100,4,2,1,70,0,0
116785,-100,4,2,1,70,0,0
128079,346.820809248555,4,2,1,70,1,0
129466,359.281437125748,4,2,1,70,1,0
130903,352.941176470588,4,2,1,70,1,0
133726,-100,4,2,1,70,0,1
144314,-100,4,2,1,70,0,1
144667,-100,4,2,1,70,0,0
145020,-100,4,2,1,70,0,1
156314,-100,4,2,1,70,0,0
157726,-100,4,2,1,40,0,0
159138,-100,4,2,3,40,0,0
163373,-100,4,2,3,50,0,0
170432,-100,4,2,1,60,0,0
181726,-100,4,2,1,70,0,1
192844,-100,4,2,1,70,0,0
193020,-100,4,2,1,70,0,1
204314,-100,4,2,1,70,0,0
205726,-100,4,2,1,40,0,0
207138,-100,4,2,1,60,0,0
217020,-100,4,2,1,40,0,0
222667,-100,4,2,1,60,0,0
224079,-100,4,2,1,70,0,1
235020,-100,4,2,1,70,0,0
235373,-100,4,2,1,70,0,1
246667,-100,4,2,1,70,0,0
248079,-100,4,2,1,40,0,0

[Colours]
Combo1 : 255,217,255
Combo2 : 255,254,193
Combo3 : 201,255,185
Combo4 : 225,245,255
Combo5 : 245,175,175

[HitObjects]
38,57,1020,6,0,P|89:38|149:55,1,110,2|2,0:3|1:3,0:0:0:0:
208,123,1726,2,0,P|265:118|322:113,1,110,0|2,0:0|1:3,0:0:0:0:
416,102,2432,2,0,P|411:157|404:221,1,110,0|2,0:3|1:3,0:0:0:0:
323,267,3138,2,0,P|278:244|209:258,1,110,0|2,0:0|1:3,0:0:0:0:
135,302,3844,6,0,B|111:242|145:199|145:199|174:154|138:95,1,220,2|0,0:3|0:0,0:0:0:0:
191,10,4903,2,2,P|232:16|264:22,1,55,2|2,1:3|1:3,1:3:0:0:
280,53,5256,2,0,P|325:47|407:36,1,110,2|2,0:3|1:3,0:0:0:0:
484,64,5961,1,0,0:0:0:0:
425,144,6314,1,2,1:3:0:0:
492,216,6667,6,0,P|484:259|466:346,1,110,2|2,0:3|1:3,0:0:0:0:
376,354,7373,2,0,B|345:337|345:337|252:357,1,110,0|2,0:0|1:3,0:0:0:0:
179,317,8079,2,0,P|124:323|69:330,1,110,2|2,0:3|1:3,0:0:0:0:
4,254,8785,1,0,0:0:0:0:
47,165,9138,1,2,1:3:0:0:
27,67,9491,6,0,B|84:49|125:98|125:98|165:142|237:103,1,220,2|0,0:3|0:0,0:0:0:0:
300,42,10550,2,2,P|340:50|373:57,1,55,2|2,1:3|1:3,1:3:0:0:
402,43,10903,1,2,0:3:0:0:
402,43,12314,6,0,P|398:92|391:170,1,110,4|8,0:1|0:0,0:0:0:0:
439,240,13020,1,8,0:0:0:0:
351,286,13373,2,0,P|312:281|273:275,1,55,2|8,0:0|0:0,0:0:0:0:
260,244,13726,2,0,P|218:247|137:256,1,110,2|8,0:0|0:0,0:0:0:0:
53,272,14432,2,0,B|38:313|38:313|62:371,2,82.5,8|2|8,0:0|0:0|0:0,0:0:0:0:
73,226,15138,6,0,B|87:187|87:187|65:106,1,110,4|8,0:1|0:0,0:0:0:0:
120,35,15844,1,8,0:0:0:0:
197,97,16197,2,0,P|231:94|267:90,1,55,2|8,0:0|0:0,0:0:0:0:
293,66,16550,2,0,P|339:70|414:75,1,110,2|8,0:0|0:0,0:0:0:0:
492,116,17256,2,0,P|504:75|488:30,2,82.5,8|2|8,0:0|0:0|0:0,0:0:0:0:
458,151,17961,6,0,P|462:191|473:279,1,110,4|8,0:1|0:0,0:0:0:0:
424,348,18667,1,8,0:0:0:0:
344,289,19020,2,0,P|313:295|269:303,1,55,2|8,0:0|0:0,0:0:0:0:
248,326,19373,2,0,P|210:322|124:313,1,110,2|8,0:0|0:0,0:0:0:0:
81,235,20079,2,0,P|37:237|-12:241,2,82.5,8|2|8,0:0|0:0|0:0,0:0:0:0:
126,214,20785,6,0,P|147:166|122:105,1,110,2|8,0:0|0:0,0:0:0:0:
194,37,21491,1,8,0:0:0:0:
281,83,21844,2,0,P|319:79|353:76,1,55,2|8,0:0|0:0,0:0:0:0:
383,91,22197,2,0,P|400:142|378:191,1,110,2|2,0:0|0:0,0:0:0:0:
298,249,22903,1,2,0:3:0:0:
355,329,23256,1,2,1:3:0:0:
269,379,23608,6,0,P|224:374|140:364,1,110,2|2,0:3|1:3,0:0:0:0:
67,329,24314,2,0,B|48:293|48:293|83:205,1,110,0|2,0:0|1:3,0:0:0:0:
165,190,25020,2,0,P|160:145|153:73,1,110,2|2,0:3|1:3,0:0:0:0:
232,19,25726,2,0,P|285:3|336:20,1,110,0|2,0:0|1:3,0:0:0:0:
432,37,26432,6,0,B|465:88|465:88|449:153|419:260,1,220,2|0,0:3|0:0,0:0:0:0:
328,266,27491,2,2,P|336:305|342:335,1,55,2|2,1:3|1:3,1:3:0:0:
364,362,27844,2,0,P|311:356|247:348,1,110,2|2,0:3|1:3,0:0:0:0:
166,303,28550,1,0,0:0:0:0:
89,366,28903,1,2,1:3:0:0:
13,304,29256,6,0,P|-1:250|24:194,1,110,2|2,0:3|1:3,0:0:0:0:
110,164,29961,2,0,P|124:110|99:54,1,110,0|2,0:0|1:3,0:0:0:0:
195,19,30667,2,0,P|245:24|325:33,1,110,2|2,0:3|1:3,0:0:0:0:
398,61,31373,1,0,0:0:0:0:
337,138,31726,1,2,1:3:0:0:
431,168,32079,6,0,B|416:235|416:235|458:296|458:296|436:383,1,220,2|0,0:3|0:0,0:0:0:0:
345,336,33138,2,2,P|304:341|270:345,1,55,2|2,1:3|1:3,1:3:0:0:
245,364,33491,2,0,P|185:359|122:353,1,110,4|0,0:1|0:0,0:0:0:0:
53,297,34197,2,2,P|25:300|-1:303,2,55,2|2|2,0:3|1:2|0:3,1:3:0:0:
130,236,34903,6,0,P|120:175|109:105,1,110,4|8,0:1|0:0,0:0:0:0:
185,60,35608,2,0,P|192:19|197:-14,2,55,2|2|8,0:0|0:0|0:0,0:0:0:0:
255,129,36314,1,2,0:0:0:0:
338,74,36667,1,8,0:0:0:0:
427,116,37020,2,0,P|466:110|500:106,2,55,2|8|8,0:0|0:0|0:0,0:0:0:0:
350,179,37726,6,0,P|356:227|369:314,1,110,2|8,0:0|0:0,0:0:0:0:
434,358,38432,2,0,P|470:345|506:346,2,55,2|2|8,0:0|0:0|0:0,0:0:0:0:
335,373,39138,2,0,P|274:368|211:363,1,110,2|8,0:0|0:0,0:0:0:0:
131,330,39844,2,0,P|103:335|67:342,1,55,2|8,0:0|0:0,0:0:0:0:
30,323,40197,1,8,0:0:0:0:
65,229,40550,6,0,P|55:177|42:104,1,110,2|8,0:0|0:0,0:0:0:0:
108,44,41256,1,2,0:0:0:0:
195,90,41608,1,8,0:0:0:0:
277,35,41961,2,0,P|330:42|403:51,1,110,2|8,0:0|0:0,0:0:0:0:
458,116,42667,2,0,P|489:105|522:108,2,55,2|8|8,0:0|0:0|0:0,0:0:0:0:
366,155,43373,6,0,B|353:195|353:195|383:276,1,110,2|8,0:0|0:0,0:0:0:0:
459,314,44079,2,0,B|490:307|490:307|539:316,2,55,2|2|8,0:0|0:0|0:0,0:0:0:0:
370,358,44785,2,0,P|329:357|296:355,1,55,4|8,1:0|0:0,0:0:0:0:
278,322,45138,2,0,P|246:324|214:328,1,55,2|8,1:2|1:2,0:0:0:0:
190,363,45491,2,0,P|131:359|62:352,1,110,10|6,1:3|0:0,0:0:0:0:
6,287,46197,6,0,B|37:242|37:242|1:128,1,165,4|2,0:1|0:0,0:0:0:0:
16,89,46903,2,0,P|65:71|125:89,1,110,8|2,0:0|0:0,0:0:0:0:
162,174,47608,1,2,0:0:0:0:
162,174,47785,2,0,P|211:192|271:174,1,110,8|2,0:0|0:0,0:0:0:0:
281,130,48314,2,0,P|352:124|421:118,1,110,10|2,0:3|0:3,0:0:0:0:
489,131,49020,6,0,P|486:191|481:321,1,165,4|2,0:1|0:0,0:0:0:0:
460,340,49726,2,0,P|407:355|353:339,1,110,8|2,0:0|0:0,0:0:0:0:
268,293,50432,1,2,0:0:0:0:
268,293,50608,2,0,P|213:298|158:302,1,110,2|2,0:0|0:0,0:0:0:0:
122,338,51138,1,8,1:2:0:0:
56,263,51491,1,0,1:2:0:0:
82,167,51844,6,0,B|176:154|142:219|238:190,1,165,4|2,0:1|0:0,0:0:0:0:
271,152,52550,2,0,P|320:136|382:154,1,110,8|2,0:0|0:0,0:0:0:0:
462,196,53256,1,2,0:0:0:0:
462,196,53432,2,0,P|458:150|451:70,1,110,8|2,0:0|0:0,0:0:0:0:
433,40,53961,1,8,0:0:0:0:
336,60,54314,1,2,0:0:0:0:
239,36,54667,6,0,B|214:78|214:78|252:199,1,165,4|2,0:1|0:0,0:0:0:0:
281,226,55373,1,8,0:0:0:0:
219,302,55726,2,0,P|184:298|149:293,1,55,2|8,0:0|0:0,0:0:0:0:
121,272,56079,2,0,P|62:275|-9:280,2,110,2|2|12,0:0|1:2|0:0,0:0:0:0:
186,197,57138,1,6,0:0:0:0:
73,311,61726,6,0,P|106:314|142:316,1,55,8|8,0:0|0:0,0:0:0:0:
267,263,62432,2,0,P|233:265|198:268,1,55,8|8,0:0|0:0,0:0:0:0:
59,185,63138,6,0,P|111:189|182:194,1,110,4|8,1:3|0:0,0:0:0:0:
237,121,63844,2,0,P|291:104|344:118,1,110,2|8,0:0|0:0,0:0:0:0:
433,153,64550,1,2,0:0:0:0:
395,244,64903,1,8,0:0:0:0:
470,307,65256,2,0,P|466:349|462:377,2,55,2|2|8,0:0|0:0|0:0,0:0:0:0:
395,244,65961,6,0,P|349:250|273:259,1,110,2|8,1:3|0:0,0:0:0:0:
201,310,66667,2,0,P|152:303|65:292,1,110,2|8,0:0|0:0,0:0:0:0:
16,231,67373,1,2,1:3:0:0:
15,132,67726,1,8,1:2:0:0:
97,76,68079,2,0,P|134:74|174:71,1,55,2|2,1:2|0:0,0:0:0:0:
197,52,68432,1,8,1:2:0:0:
254,131,68785,6,0,B|289:157|289:157|372:135,1,110,4|8,0:1|0:0,0:0:0:0:
446,106,69491,2,0,P|441:169|435:237,1,110,2|8,0:0|0:0,0:0:0:0:
378,294,70197,2,0,P|326:291|248:284,1,110,2|8,1:2|0:0,0:0:0:0:
178,327,70903,2,0,P|174:361|182:400,2,55,2|2|8,0:0|0:0|0:0,0:0:0:0:
268,286,71608,6,0,P|287:230|262:172,1,110,2|8,1:2|0:0,0:0:0:0:
177,152,72314,2,0,P|161:100|180:49,1,110,2|4,1:2|0:1,0:0:0:0:
274,21,73020,2,0,P|335:28|403:37,1,110,0|8,1:2|1:2,0:0:0:0:
432,30,73550,1,2,0:0:0:0:
432,30,73726,1,8,1:2:0:0:
512,88,74079,2,0,P|506:129|498:169,1,55,4|4,1:0|0:1,0:1:0:0:
460,166,74432,6,0,P|467:221|479:299,1,110,4|4,1:0|0:1,0:0:0:0:
402,342,75138,2,0,P|353:319|283:336,1,110,2|8,0:0|0:0,0:0:0:0:
210,370,75844,1,2,0:0:0:0:
122,323,76197,1,8,0:0:0:0:
39,374,76550,2,0,B|20:337|20:337|46:247,1,110,2|8,0:0|0:0,0:0:0:0:
112,204,77256,6,0,P|105:162|100:127,2,55,2|2|8,1:2|0:0|0:0,0:0:0:0:
200,247,77961,2,0,P|259:240|340:230,1,110,2|8,1:2|0:0,0:0:0:0:
398,281,78667,1,0,1:2:0:0:
458,202,79020,1,8,1:2:0:0:
389,133,79373,2,0,P|395:92|400:67,1,55,2|8,0:0|0:0,0:0:0:0:
377,33,79726,1,12,0:0:0:0:
280,53,80079,6,0,P|224:48|152:40,1,110,4|8,0:1|0:0,0:0:0:0:
72,60,80785,2,0,P|50:106|70:168,1,110,2|8,0:0|0:0,0:0:0:0:
156,196,81491,2,0,P|149:244|135:325,1,110,2|8,1:2|0:0,0:0:0:0:
63,369,82197,2,0,P|30:358|1:358,2,55,2|2|8,0:0|0:0|0:0,0:0:0:0:
161,383,82903,6,0,P|218:375|290:364,1,110,2|8,1:2|0:0,0:0:0:0:
330,288,83608,2,0,P|384:296|438:303,1,110,2|8,1:2|0:0,0:0:0:0:
501,226,84314,1,2,1:2:0:0:
501,226,84491,2,0,P|492:169|478:86,1,110,8|8,0:0|0:0,0:0:0:0:
441,91,85020,2,0,P|383:105|319:118,1,110,8|6,0:0|0:0,0:0:0:0:
238,89,85726,5,4,0:1:0:0:
238,89,87138,2,0,P|246:148|254:207,2,110,2|0|0,0:3|0:0|0:0,0:0:0:0:
150,41,88197,1,0,0:0:0:0:
71,101,88550,5,2,0:0:0:0:
50,50,94197,6,0,P|28:101|56:169,1,110,4|8,0:1|0:0,0:0:0:0:
129,196,94903,2,0,P|170:190|214:182,2,55,2|2|8,0:0|0:0|0:0,0:0:0:0:
75,279,95608,2,0,P|139:286|221:293,1,110,2|8,0:0|0:0,0:0:0:0:
276,327,96314,2,0,P|303:324|330:321,2,55,2|2|8,0:0|0:0|0:0,0:0:0:0:
184,290,97020,6,0,B|165:238|165:238|188:170,1,110,2|8,0:0|0:0,0:0:0:0:
245,109,97726,2,0,P|290:114|327:121,2,55,2|2|8,0:0|0:0|0:0,0:0:0:0:
162,55,98432,1,8,1:2:0:0:
74,100,98785,1,8,0:0:0:0:
74,100,98961,2,0,P|85:159|97:220,1,110,2|2,1:2|0:0,0:0:0:0:
72,252,99491,1,12,0:0:0:0:
150,311,99844,6,0,L|262:300,1,110,4|8,0:1|0:0,0:0:0:0:
348,257,100550,1,2,0:0:0:0:
431,309,100903,1,8,0:0:0:0:
509,248,101256,2,0,P|526:195|503:134,1,110,2|8,0:0|0:0,0:0:0:0:
449,66,101961,2,0,P|454:26|460:-17,2,55,2|2|8,0:0|0:0|0:0,0:0:0:0:
405,155,102667,6,0,B|370:140|370:140|290:159,1,110,4|8,0:1|0:0,0:0:0:0:
268,182,103197,1,0,0:0:0:0:
268,182,103373,2,0,P|199:174|141:168,1,110,8|8,0:0|0:0,0:0:0:0:
110,83,104079,2,0,P|119:38|123:9,2,55,2|8|2,0:0|0:3|0:0,0:0:0:0:
73,116,104608,1,8,0:3:0:0:
4,185,104961,2,0,P|13:255|23:329,1,110,8|8,0:3|0:0,0:0:0:0:
55,327,105491,6,0,P|108:305|162:325,1,110,4|8,0:1|0:0,0:0:0:0:
239,373,106197,2,0,P|271:368|311:360,2,55,2|2|8,0:0|0:0|0:0,0:0:0:0:
156,320,106903,1,2,0:0:0:0:
203,233,107256,1,8,0:0:0:0:
139,157,107608,2,0,P|107:145|69:148,2,55,2|2|8,0:0|0:0|0:0,0:0:0:0:
237,145,108314,6,0,P|277:122|354:137,1,110,2|8,0:0|0:0,0:0:0:0:
406,200,109020,2,0,P|403:243|399:281,2,55,2|2|8,0:0|0:0|0:0,0:0:0:0:
482,136,109726,2,0,P|476:87|465:3,1,110,2|8,0:0|0:0,0:0:0:0:
370,44,110432,2,0,P|324:38|297:36,1,55,2|2,0:0|0:0,0:0:0:0:
266,45,110785,1,8,0:0:0:0:
202,120,111138,6,0,P|148:115|77:110,1,110,2|8,0:0|0:0,0:0:0:0:
8,164,111844,1,2,0:0:0:0:
61,247,112197,1,8,0:0:0:0:
9,331,112550,2,0,B|59:348|59:348|128:327,1,110,2|8,0:0|0:0,0:0:0:0:
183,260,113256,2,0,B|214:254|214:254|257:263,2,55,2|2|8,0:0|0:0|0:0,0:0:0:0:
222,350,113961,6,0,P|283:347|361:343,1,110,2|8,0:0|0:0,0:0:0:0:
420,299,114667,2,0,P|460:304|496:308,2,55,2|2|8,0:0|0:0|0:0,0:0:0:0:
338,243,115373,2,0,P|341:205|344:170,1,55,2|8,0:0|0:0,0:0:0:0:
382,159,115726,2,0,P|379:121|376:86,1,55,8|8,0:0|0:0,0:0:0:0:
354,60,116079,2,0,P|299:68|223:78,1,110,2|2,0:0|0:0,0:0:0:0:
145,72,116785,6,0,B|175:108|175:108|149:226,1,165,4|2,0:1|0:0,0:0:0:0:
107,249,117491,2,0,P|118:315|128:376,1,110,8|2,0:0|0:0,0:0:0:0:
222,339,118197,1,2,0:0:0:0:
222,339,118373,2,0,P|282:343|368:348,1,110,8|2,0:0|0:0,0:0:0:0:
371,315,118903,2,0,P|390:259|367:205,1,110,8|2,0:0|0:0,0:0:0:0:
392,115,119608,6,0,B|343:136|343:136|290:116|290:116|224:138,1,165,4|2,0:1|0:0,0:0:0:0:
200,165,120314,2,0,P|143:161|80:157,1,110,8|2,0:0|0:0,0:0:0:0:
10,217,121020,1,2,0:0:0:0:
10,217,121197,2,0,P|-6:267|10:323,1,110,8|2,0:0|0:0,0:0:0:0:
53,343,121726,2,0,P|102:347|138:350,2,55,8|4|2,0:0|0:1|0:0,0:0:0:0:
106,259,122432,6,0,P|168:265|299:278,1,165,4|2,0:1|0:0,0:0:0:0:
317,259,123138,2,0,P|336:207|316:148,1,110,8|2,0:0|0:0,0:0:0:0:
234,108,123844,1,2,0:0:0:0:
234,108,124020,2,0,B|176:94|176:94|116:108,1,110,8|2,0:0|0:0,0:0:0:0:
86,134,124550,1,8,0:0:0:0:
53,227,124903,2,0,P|60:259|68:293,1,55,0|2,0:0|0:0,0:0:0:0:
109,302,125256,6,0,P|173:294|293:280,1,165,4|2,0:1|0:0,0:0:0:0:
317,303,125961,1,8,0:0:0:0:
397,245,126314,2,0,P|387:188|384:164,1,55,2|2,0:0|0:0,0:0:0:0:
359,150,126667,2,0,P|365:93|374:15,2,110,2|2|12,1:2|0:0|0:0,0:0:0:0:
294,225,127726,1,2,0:3:0:0:
224,154,128079,5,2,1:3:0:0:
73,319,129466,1,2,1:3:0:0:
53,116,130903,1,2,1:3:0:0:
53,116,132314,6,0,P|93:122|124:125,1,55,8|8,0:0|0:0,0:0:0:0:
249,167,133020,2,0,P|209:173|178:176,1,55,8|8,0:0|0:0,0:0:0:0:
30,230,133726,6,0,P|82:234|153:239,1,110,4|8,1:3|0:0,0:0:0:0:
214,303,134432,2,0,P|268:299|323:294,1,110,2|8,0:0|0:0,0:0:0:0:
420,323,135138,1,2,0:0:0:0:
484,248,135491,1,8,0:0:0:0:
420,172,135844,2,0,P|428:124|435:85,2,55,2|2|8,0:0|0:0|0:0,0:0:0:0:
333,220,136550,6,0,P|323:170|310:98,1,110,2|8,1:2|0:0,0:0:0:0:
236,47,137256,2,0,P|182:35|126:54,1,110,2|8,0:0|0:0,0:0:0:0:
44,98,137961,1,2,1:2:0:0:
105,175,138314,1,8,1:2:0:0:
38,247,138667,2,0,P|44:288|50:322,1,55,2|2,1:3|0:0,0:0:0:0:
67,346,139020,1,8,0:0:0:0:
150,292,139373,6,0,P|200:272|263:294,1,110,4|8,0:1|0:0,0:0:0:0:
316,361,140079,2,0,P|369:377|428:351,1,110,2|8,0:0|0:0,0:0:0:0:
483,283,140785,2,0,P|472:228|457:150,1,110,2|8,1:2|0:0,0:0:0:0:
390,106,141491,2,0,P|393:70|397:24,2,55,2|2|8,0:0|0:0|0:0,0:0:0:0:
338,190,142197,6,0,B|288:175|288:175|224:191,1,110,2|8,1:2|0:0,0:0:0:0:
137,158,142903,2,0,P|146:223|158:297,1,110,2|4,1:2|0:1,0:0:0:0:
226,333,143608,1,2,1:2:0:0:
226,333,143785,2,0,P|296:338|364:343,1,110,8|8,0:0|0:0,0:0:0:0:
385,341,144314,1,8,0:0:0:0:
442,261,144667,2,0,P|433:213|429:187,1,55,4|2,0:1|0:0,0:0:0:0:
397,171,145020,6,0,P|403:117|412:48,1,110,4|4,0:1|0:1,0:0:0:0:
315,85,145726,2,0,P|267:101|206:81,1,110,2|8,0:0|0:0,0:0:0:0:
127,31,146432,1,2,0:0:0:0:
48,91,146785,1,8,0:0:0:0:
128,148,147138,2,0,B|147:185|147:185|121:275,1,110,2|8,0:0|0:0,0:0:0:0:
60,323,147844,6,0,P|20:318|-7:316,2,55,2|2|8,1:2|0:0|0:0,0:0:0:0:
155,348,148550,2,0,P|214:341|295:331,1,110,2|8,1:2|0:0,0:0:0:0:
352,381,149256,1,0,1:2:0:0:
405,299,149609,1,8,1:2:0:0:
336,227,149962,2,0,P|342:186|347:161,1,55,2|8,0:0|0:0,0:0:0:0:
327,126,150315,1,12,0:0:0:0:
391,51,150667,6,0,P|335:28|269:49,1,110,4|8,0:1|0:0,0:0:0:0:
215,105,151373,2,0,P|158:98|87:90,1,110,2|8,0:0|0:0,0:0:0:0:
9,74,152079,2,0,P|19:134|32:199,1,110,2|8,1:2|0:0,0:0:0:0:
96,254,152785,2,0,P|93:299|89:343,2,55,2|2|8,0:0|0:0|0:0,0:0:0:0:
157,175,153491,6,0,P|209:156|268:177,1,110,2|8,1:3|0:0,0:0:0:0:
303,259,154197,2,0,P|361:274|410:256,1,110,2|8,1:2|0:0,0:0:0:0:
490,204,154903,1,2,1:3:0:0:
490,204,155079,2,0,P|486:264|480:333,1,110,8|8,0:0|0:0,0:0:0:0:
455,355,155608,2,0,B|404:375|404:375|337:354,1,110,8|2,0:0|0:0,0:0:0:0:
271,299,156314,5,4,0:1:0:0:
271,299,157726,2,0,P|221:306|144:315,2,110,2|0|0,0:3|0:0|0:0,0:0:0:0:
369,316,158785,1,0,0:0:0:0:
425,234,159138,6,0,P|418:179|409:110,1,110,2|2,0:0|0:0,0:0:0:0:
339,56,159844,2,0,P|288:65|217:81,1,110,2|2,0:0|0:0,0:0:0:0:
136,55,160550,2,0,P|113:95|137:161,1,110,2|2,0:0|0:0,0:0:0:0:
173,176,161079,2,0,P|167:223|158:306,1,110
202,310,161608,1,2,0:0:0:0:
289,264,161961,6,0,B|321:253|321:253|417:278,2,110,2|2|2,0:0|0:0|0:0,0:0:0:0:
202,310,163020,2,0,P|161:313|127:316,1,55,2|0,0:0|0:0,0:0:0:0:
109,282,163373,2,0,P|60:277|-21:270,1,110,2|2,0:0|0:0,0:0:0:0:
35,179,164079,2,0,P|89:183|144:189,1,110,2|2,0:0|0:0,0:0:0:0:
192,203,164608,1,2,0:0:0:0:
192,203,164785,6,0,P|187:155|180:86,1,110,4|2,0:1|0:0,0:0:0:0:
254,29,165491,1,2,0:0:0:0:
345,67,165844,1,0,0:0:0:0:
441,39,166197,2,0,P|467:82|453:145,1,110,2|2,0:0|0:0,0:0:0:0:
385,204,166903,2,0,P|338:200|259:192,1,110,2|2,0:0|0:0,0:0:0:0:
178,213,167608,6,0,P|167:268|192:314,1,110,2|2,0:0|0:0,0:0:0:0:
288,292,168314,1,2,0:0:0:0:
374,341,168667,1,2,0:0:0:0:
466,304,169020,2,0,B|482:247|482:247|460:180,2,110,2|2|2,0:0|0:0|0:0,0:0:0:0:
374,342,170079,1,0,0:0:0:0:
307,268,170432,6,0,P|248:262|228:259,2,55,4|2|0,0:1|0:0|0:0,0:0:0:0:
250,349,171138,2,0,P|192:353|124:358,1,110,2|2,0:3|0:0,0:0:0:0:
57,301,171844,2,0,P|50:261|45:229,2,55,2|2|2,0:0|0:0|0:0,0:0:0:0:
151,268,172550,2,0,P|156:220|164:147,1,110,2|2,0:3|0:0,0:0:0:0:
96,82,173256,6,0,P|68:74|31:78,2,55,2|2|2,0:0|0:0|0:0,0:0:0:0:
185,39,173961,2,0,P|228:44|316:51,1,110,2|2,0:0|0:0,0:0:0:0:
389,73,174667,2,0,P|385:107|380:147,1,55,2|2,0:3|0:0,0:0:0:0:
393,176,175020,1,2,0:0:0:0:
301,213,175373,2,0,P|305:247|310:287,1,55,2|2,0:3|0:0,0:0:0:0:
297,316,175726,1,2,0:0:0:0:
209,361,176079,6,0,P|169:357|135:353,2,55,4|2|2,0:1|0:0|0:0,0:0:0:0:
297,316,176785,2,0,P|344:321|424:330,1,110,2|2,0:3|0:0,0:0:0:0:
479,261,177491,2,0,P|515:259|550:258,2,55,2|2|2,0:0|0:0|0:0,0:0:0:0:
383,233,178197,2,0,B|365:181|365:181|389:117,1,110,2|2,0:3|0:0,0:0:0:0:
331,47,178903,6,0,P|287:26|220:39,1,110,2|2,0:0|0:0,0:0:0:0:
190,67,179432,2,0,P|150:65|78:59,1,110,2|2,0:0|0:0,0:0:0:0:
37,85,179961,1,2,0:0:0:0:
76,175,180314,2,0,P|72:213|62:301,1,110,8|2,0:0|1:2,0:0:0:0:
146,340,181020,2,0,P|182:336|221:332,1,55,2|8,1:2|0:0,0:0:0:0:
229,293,181373,2,8,P|256:295|283:298,1,55,8|8,1:2|0:0,0:0:0:0:
320,331,181726,6,0,P|377:324|447:314,1,110,4|8,1:3|0:0,0:0:0:0:
477,304,182256,2,0,P|496:247|470:195,1,110,2|2,1:2|0:0,0:0:0:0:
440,170,182785,1,8,1:2:0:0:
351,126,183138,2,0,P|291:136|204:148,1,110,2|8,1:2|0:0,0:0:0:0:
154,96,183844,2,0,P|162:53|167:25,2,55,2|2|8,1:2|0:0|1:2,0:0:0:0:
83,165,184550,6,0,P|91:218|104:292,1,110,2|8,1:2|0:0,0:0:0:0:
131,312,185079,2,0,P|186:293|243:312,1,110,2|2,1:2|0:0,0:0:0:0:
266,344,185608,1,8,1:2:0:0:
338,275,185961,2,0,B|388:262|388:262|465:280,1,110,2|8,1:2|1:2,0:0:0:0:
492,293,186491,1,0,0:0:0:0:
492,293,186667,2,0,P|498:234|505:170,1,110,2|8,0:3|0:0,0:0:0:0:
434,112,187373,6,0,P|380:131|320:108,1,110,4|8,1:0|0:0,0:0:0:0:
256,50,188079,2,0,P|205:33|142:54,1,110,2|8,1:2|0:0,0:0:0:0:
68,100,188785,2,0,P|76:166|86:237,1,110,2|8,1:2|0:0,0:0:0:0:
44,302,189491,2,0,P|101:288|174:272,1,110,2|8,1:2|0:0,0:0:0:0:
215,201,190197,6,0,P|268:213|322:226,1,110,2|8,1:2|0:0,0:0:0:0:
365,250,190726,2,0,P|418:236|472:224,1,110,2|2,1:2|0:0,0:0:0:0:
508,190,191256,1,8,1:2:0:0:
446,112,191608,2,0,P|453:79|461:32,2,55,2|10|12,1:2|0:3|0:0,0:0:0:0:
361,162,192314,2,0,P|314:157|289:156,1,55,12|12,1:2|0:0,0:0:0:0:
267,126,192667,2,0,P|239:128|212:131,1,55,6|12,1:2|0:0,0:0:0:0:
172,160,193020,6,0,P|115:154|30:146,1,110,2|8,0:0|0:0,0:0:0:0:
1,226,193726,1,2,0:0:0:0:
59,305,194079,1,8,0:0:0:0:
150,266,194432,2,0,P|192:261|227:257,2,55,2|2|8,0:0|0:0|0:0,0:0:0:0:
197,353,195138,2,0,P|258:347|328:340,1,110,2|8,0:0|0:0,0:0:0:0:
394,296,195844,6,0,P|438:302|478:306,2,55,2|2|8,0:0|0:0|0:0,0:0:0:0:
314,238,196550,2,0,P|270:244|230:248,2,55,2|2|8,0:0|0:0|0:0,0:0:0:0:
402,192,197256,2,0,P|418:139|395:87,1,110,2|8,0:0|0:0,0:0:0:0:
310,43,197961,2,0,P|270:51|241:56,1,55,2|2,0:0|0:0,0:0:0:0:
207,42,198314,1,8,0:0:0:0:
114,76,198667,6,0,B|98:121|98:121|123:200,1,110,4|8,0:1|0:0,0:0:0:0:
213,203,199373,2,0,P|216:242|220:280,1,55,2|2,0:0|0:0,0:0:0:0:
255,289,199726,2,0,P|252:328|248:366,1,55,8|2,0:0|0:0,0:0:0:0:
285,379,200079,2,0,P|342:372|408:363,1,110,2|8,0:0|0:0,0:0:0:0:
492,380,200785,1,2,0:0:0:0:
504,281,201138,2,0,P|476:275|449:271,1,55,8|2,0:0|0:0,0:0:0:0:
401,260,201491,6,0,P|384:211|413:147,1,110,2|8,0:0|0:0,0:0:0:0:
459,76,202197,2,0,P|500:69|530:78,2,55,2|10|12,0:0|0:3|0:0,0:0:0:0:
402,157,202903,2,0,P|332:188|253:149,2,165,12|8|12,0:0|0:0|0:0,0:0:0:0:
459,76,204314,5,4,0:1:0:0:
154,71,205726,2,0,P|102:52|49:67,2,110,0|2|10,1:0|0:3|1:3,0:0:0:0:
226,138,206785,1,0,1:0:0:0:
304,78,207138,6,0,P|372:42|459:89,1,165,4|2,0:1|0:3,0:0:0:0:
474,116,207844,2,0,P|469:168|461:244,1,110,8|2,0:0|0:0,0:0:0:0:
397,300,208550,1,2,0:0:0:0:
397,300,208726,2,0,P|346:278|286:292,1,110,8|2,0:0|0:0,0:0:0:0:
256,320,209256,2,0,P|195:314|132:306,1,110,8|2,0:0|0:0,0:0:0:0:
48,306,209961,6,0,B|18:270|18:270|64:132,1,165,4|2,0:1|0:0,0:0:0:0:
90,123,210667,2,0,B|144:107|144:107|201:124,1,110,8|2,0:0|0:0,0:0:0:0:
273,193,211373,1,2,0:0:0:0:
273,193,211550,2,0,P|343:188|413:182,1,110,2|2,0:0|0:0,0:0:0:0:
428,165,212079,2,0,P|475:171|510:175,2,55,8|2|2,0:0|0:0|0:0,0:0:0:0:
379,79,212785,6,0,P|315:74|199:65,1,165,4|2,0:1|0:0,0:0:0:0:
169,87,213491,2,0,P|107:91|40:96,1,110,8|2,0:0|0:0,0:0:0:0:
4,175,214197,1,2,0:0:0:0:
4,175,214373,2,0,P|29:216|11:287,1,110,8|2,0:0|0:0,0:0:0:0:
6,322,214903,1,8,0:0:0:0:
97,359,215256,2,0,P|140:348|182:339,1,55,0|2,0:0|0:0,0:0:0:0:
171,300,215608,6,0,B|216:275|216:275|272:286|348:300,1,165,0|2,0:1|0:0,0:0:0:0:
374,312,216314,1,8,0:0:0:0:
428,229,216667,2,0,P|421:185|419:161,1,55,2|2,0:0|0:0,0:0:0:0:
389,135,217020,2,0,P|345:119|268:142,2,110,2|2|0,1:2|0:0|1:0,0:0:0:0:
469,76,218079,1,2,1:2:0:0:
439,311,222667,6,0,P|406:314|370:316,1,55,8|8,0:0|0:0,0:0:0:0:
242,263,223373,2,0,P|276:265|311:268,1,55,8|8,0:0|0:0,0:0:0:0:
453,185,224079,6,0,P|401:189|330:194,1,110,4|8,1:3|0:0,0:0:0:0:
275,121,224785,2,0,P|221:104|168:118,1,110,2|8,0:0|0:0,0:0:0:0:
79,153,225491,1,2,0:0:0:0:
117,244,225844,1,8,0:0:0:0:
55,321,226197,2,0,P|27:323|2:315,2,55,2|2|8,0:0|0:0|0:0,0:0:0:0:
146,360,226903,6,0,P|200:343|261:358,1,110,2|8,1:2|0:0,0:0:0:0:
346,330,227608,2,0,P|337:275|327:205,1,110,2|8,0:0|0:0,0:0:0:0:
401,151,228314,1,2,1:2:0:0:
353,63,228667,1,8,1:2:0:0:
258,88,229020,2,0,P|212:85|181:82,1,55,2|2,0:0|0:0,0:0:0:0:
154,94,229373,1,8,0:0:0:0:
68,145,229726,6,0,B|54:199|54:199|75:263,1,110,4|8,1:0|0:0,0:0:0:0:
104,343,230432,2,0,P|163:338|229:333,1,110,2|8,0:0|0:0,0:0:0:0:
269,251,231138,2,0,P|323:255|378:259,1,110,2|8,1:0|0:0,0:0:0:0:
467,304,231844,2,0,P|471:338|463:377,2,55,2|2|8,0:0|0:0|0:0,0:0:0:0:
378,259,232550,6,0,P|359:203|384:144,1,110,2|8,1:2|0:0,0:0:0:0:
469,127,233255,2,0,P|485:75|466:24,1,110,2|4,1:2|0:1,0:0:0:0:
369,3,233961,1,2,1:2:0:0:
303,77,234314,1,8,1:2:0:0:
214,32,234667,2,0,P|173:40|140:46,1,55,8|2,1:2|1:2,1:2:0:0:
126,78,235020,2,8,P|98:72|71:67,1,55,4|2,1:0|0:0,0:0:0:0:
23,58,235373,6,0,P|28:123|35:187,1,110,4|8,1:0|0:0,0:0:0:0:
129,190,236079,2,0,P|124:255|117:319,1,110,2|8,0:0|0:0,0:0:0:0:
200,356,236785,2,0,P|249:333|319:350,1,110,2|8,0:0|0:0,0:0:0:0:
394,378,237491,1,2,0:0:0:0:
464,307,237844,1,8,0:0:0:0:
406,226,238197,6,0,P|413:185|419:146,2,55,2|2|8,1:2|0:0|0:0,0:0:0:0:
315,262,238903,2,0,P|256:255|175:245,1,110,2|8,1:2|0:0,0:0:0:0:
118,296,239609,1,0,1:2:0:0:
60,216,239961,1,8,1:2:0:0:
130,147,240315,2,0,P|124:106|119:81,1,55,2|8,0:0|0:0,0:0:0:0:
142,47,240668,1,12,0:0:0:0:
239,67,241021,6,0,P|295:62|367:54,1,110,4|8,0:1|0:0,0:0:0:0:
443,82,241726,2,0,P|465:128|445:190,1,110,2|8,0:0|0:0,0:0:0:0:
362,228,242432,2,0,P|307:233|252:238,1,110,2|8,0:3|0:0,0:0:0:0:
168,292,243138,2,0,P|172:322|177:355,2,55,2|2|8,0:0|0:0|0:0,0:0:0:0:
103,216,243844,6,0,P|109:157|117:76,1,110,2|8,1:2|0:0,0:0:0:0:
192,45,244550,2,0,P|245:28|305:50,1,110,2|8,1:2|0:0,0:0:0:0:
375,99,245256,2,0,P|420:96|451:94,1,55,2|2,0:0|0:0,0:0:0:0:
473,72,245608,2,0,P|471:134|467:197,1,110,4|8,0:1|0:0,0:0:0:0:
390,243,246314,1,0,0:0:0:0:
448,322,246667,5,4,0:1:0:0:
448,322,248079,2,0,P|399:344|336:324,2,110,2|0|0,0:3|0:0|0:0,0:0:0:0:
390,243,249138,1,0,0:0:0:0:
443,159,249491,5,0,0:0:0:0:
